  0
SECTION
  2
HEADER
  9
$ACADVER
  1
AC1015
  9
$ACADMAINTVER
 70
     6
  9
$DWGCODEPAGE
  3
DOS932
  9
$INSBASE
 10
0.0
 20
0.0
 30
0.0
  9
$EXTMIN
 10
137.9961182140052
 20
-319.1523981174952
 30
0.0
  9
$EXTMAX
 10
627.5445691153444
 20
360.6012913882143
 30
0.0
  9
$LIMMIN
 10
0.0
 20
0.0
  9
$LIMMAX
 10
12.0
 20
9.0
  9
$ORTHOMODE
 70
     0
  9
$REGENMODE
 70
     1
  9
$FILLMODE
 70
     1
  9
$QTEXTMODE
 70
     0
  9
$MIRRTEXT
 70
     1
  9
$LTSCALE
 40
1.0
  9
$ATTMODE
 70
     1
  9
$TEXTSIZE
 40
0.2
  9
$TRACEWID
 40
0.05
  9
$TEXTSTYLE
  7
Standard
  9
$CLAYER
  8
0
  9
$CELTYPE
  6
ByLayer
  9
$CECOLOR
 62
   256
  9
$CELTSCALE
 40
1.0
  9
$DISPSILH
 70
     0
  9
$DIMSCALE
 40
1.0
  9
$DIMASZ
 40
0.18
  9
$DIMEXO
 40
0.0625
  9
$DIMDLI
 40
0.38
  9
$DIMRND
 40
0.0
  9
$DIMDLE
 40
0.0
  9
$DIMEXE
 40
0.18
  9
$DIMTP
 40
0.0
  9
$DIMTM
 40
0.0
  9
$DIMTXT
 40
0.18
  9
$DIMCEN
 40
0.09
  9
$DIMTSZ
 40
0.0
  9
$DIMTOL
 70
     0
  9
$DIMLIM
 70
     0
  9
$DIMTIH
 70
     1
  9
$DIMTOH
 70
     1
  9
$DIMSE1
 70
     0
  9
$DIMSE2
 70
     0
  9
$DIMTAD
 70
     0
  9
$DIMZIN
 70
     0
  9
$DIMBLK
  1

  9
$DIMASO
 70
     1
  9
$DIMSHO
 70
     1
  9
$DIMPOST
  1

  9
$DIMAPOST
  1

  9
$DIMALT
 70
     0
  9
$DIMALTD
 70
     2
  9
$DIMALTF
 40
25.4
  9
$DIMLFAC
 40
1.0
  9
$DIMTOFL
 70
     0
  9
$DIMTVP
 40
0.0
  9
$DIMTIX
 70
     0
  9
$DIMSOXD
 70
     0
  9
$DIMSAH
 70
     0
  9
$DIMBLK1
  1

  9
$DIMBLK2
  1

  9
$DIMSTYLE
  2
Standard
  9
$DIMCLRD
 70
     0
  9
$DIMCLRE
 70
     0
  9
$DIMCLRT
 70
     0
  9
$DIMTFAC
 40
1.0
  9
$DIMGAP
 40
0.09
  9
$DIMJUST
 70
     0
  9
$DIMSD1
 70
     0
  9
$DIMSD2
 70
     0
  9
$DIMTOLJ
 70
     1
  9
$DIMTZIN
 70
     0
  9
$DIMALTZ
 70
     0
  9
$DIMALTTZ
 70
     0
  9
$DIMUPT
 70
     0
  9
$DIMDEC
 70
     4
  9
$DIMTDEC
 70
     4
  9
$DIMALTU
 70
     2
  9
$DIMALTTD
 70
     2
  9
$DIMTXSTY
  7
Standard
  9
$DIMAUNIT
 70
     0
  9
$DIMADEC
 70
     0
  9
$DIMALTRND
 40
0.0
  9
$DIMAZIN
 70
     0
  9
$DIMDSEP
 70
    46
  9
$DIMATFIT
 70
     3
  9
$DIMFRAC
 70
     0
  9
$DIMLDRBLK
  1

  9
$DIMLUNIT
 70
     2
  9
$DIMLWD
 70
    -2
  9
$DIMLWE
 70
    -2
  9
$DIMTMOVE
 70
     0
  9
$LUNITS
 70
     2
  9
$LUPREC
 70
     4
  9
$SKETCHINC
 40
0.1
  9
$FILLETRAD
 40
0.5
  9
$AUNITS
 70
     0
  9
$AUPREC
 70
     0
  9
$MENU
  1
.
  9
$ELEVATION
 40
0.0
  9
$PELEVATION
 40
0.0
  9
$THICKNESS
 40
0.0
  9
$LIMCHECK
 70
     0
  9
$CHAMFERA
 40
0.5
  9
$CHAMFERB
 40
0.5
  9
$CHAMFERC
 40
1.0
  9
$CHAMFERD
 40
0.0
  9
$SKPOLY
 70
     0
  9
$TDCREATE
 40
2453873.553864294
  9
$TDUCREATE
 40
2453873.178864294
  9
$TDUPDATE
 40
2453873.553864305
  9
$TDUUPDATE
 40
2453873.178864305
  9
$TDINDWG
 40
0.0000000116
  9
$TDUSRTIMER
 40
0.0000000116
  9
$USRTIMER
 70
     1
  9
$ANGBASE
 50
0.0
  9
$ANGDIR
 70
     0
  9
$PDMODE
 70
     0
  9
$PDSIZE
 40
0.0
  9
$PLINEWID
 40
0.0
  9
$SPLFRAME
 70
     0
  9
$SPLINETYPE
 70
     6
  9
$SPLINESEGS
 70
     8
  9
$HANDSEED
  5
18F
  9
$SURFTAB1
 70
     6
  9
$SURFTAB2
 70
     6
  9
$SURFTYPE
 70
     6
  9
$SURFU
 70
     6
  9
$SURFV
 70
     6
  9
$UCSBASE
  2

  9
$UCSNAME
  2

  9
$UCSORG
 10
0.0
 20
0.0
 30
0.0
  9
$UCSXDIR
 10
1.0
 20
0.0
 30
0.0
  9
$UCSYDIR
 10
0.0
 20
1.0
 30
0.0
  9
$UCSORTHOREF
  2

  9
$UCSORTHOVIEW
 70
     0
  9
$UCSORGTOP
 10
0.0
 20
0.0
 30
0.0
  9
$UCSORGBOTTOM
 10
0.0
 20
0.0
 30
0.0
  9
$UCSORGLEFT
 10
0.0
 20
0.0
 30
0.0
  9
$UCSORGRIGHT
 10
0.0
 20
0.0
 30
0.0
  9
$UCSORGFRONT
 10
0.0
 20
0.0
 30
0.0
  9
$UCSORGBACK
 10
0.0
 20
0.0
 30
0.0
  9
$PUCSBASE
  2

  9
$PUCSNAME
  2

  9
$PUCSORG
 10
0.0
 20
0.0
 30
0.0
  9
$PUCSXDIR
 10
1.0
 20
0.0
 30
0.0
  9
$PUCSYDIR
 10
0.0
 20
1.0
 30
0.0
  9
$PUCSORTHOREF
  2

  9
$PUCSORTHOVIEW
 70
     0
  9
$PUCSORGTOP
 10
0.0
 20
0.0
 30
0.0
  9
$PUCSORGBOTTOM
 10
0.0
 20
0.0
 30
0.0
  9
$PUCSORGLEFT
 10
0.0
 20
0.0
 30
0.0
  9
$PUCSORGRIGHT
 10
0.0
 20
0.0
 30
0.0
  9
$PUCSORGFRONT
 10
0.0
 20
0.0
 30
0.0
  9
$PUCSORGBACK
 10
0.0
 20
0.0
 30
0.0
  9
$USERI1
 70
     0
  9
$USERI2
 70
     0
  9
$USERI3
 70
     0
  9
$USERI4
 70
     0
  9
$USERI5
 70
     0
  9
$USERR1
 40
13.01
  9
$USERR2
 40
0.0
  9
$USERR3
 40
0.0
  9
$USERR4
 40
0.0
  9
$USERR5
 40
0.0
  9
$WORLDVIEW
 70
     1
  9
$SHADEDGE
 70
     3
  9
$SHADEDIF
 70
    70
  9
$TILEMODE
 70
     1
  9
$MAXACTVP
 70
    64
  9
$PINSBASE
 10
0.0
 20
0.0
 30
0.0
  9
$PLIMCHECK
 70
     0
  9
$PEXTMIN
 10
1.00000000000000E+20
 20
1.00000000000000E+20
 30
1.00000000000000E+20
  9
$PEXTMAX
 10
-1.00000000000000E+20
 20
-1.00000000000000E+20
 30
-1.00000000000000E+20
  9
$PLIMMIN
 10
0.0
 20
0.0
  9
$PLIMMAX
 10
12.0
 20
9.0
  9
$UNITMODE
 70
     0
  9
$VISRETAIN
 70
     1
  9
$PLINEGEN
 70
     0
  9
$PSLTSCALE
 70
     1
  9
$TREEDEPTH
 70
  3020
  9
$CMLSTYLE
  2
Standard
  9
$CMLJUST
 70
     0
  9
$CMLSCALE
 40
1.0
  9
$PROXYGRAPHICS
 70
     1
  9
$MEASUREMENT
 70
     1
  9
$CELWEIGHT
370
    -1
  9
$ENDCAPS
280
     0
  9
$JOINSTYLE
280
     0
  9
$LWDISPLAY
290
     0
  9
$INSUNITS
 70
     1
  9
$HYPERLINKBASE
  1

  9
$STYLESHEET
  1

  9
$XEDIT
290
     1
  9
$CEPSNTYPE
380
     0
  9
$PSTYLEMODE
290
     0
  9
$FINGERPRINTGUID
  2
{FAEB1C30-E019-11D5-929B-00C0DF256EC4}
  9
$VERSIONGUID
  2
{FAEB1C32-E019-11D5-929B-00C0DF256EC4}
  9
$EXTNAMES
290
     1
  9
$PSVPSCALE
 40
0.0
  9
$OLESTARTUP
290
     0
  0
ENDSEC
  0
SECTION
  2
CLASSES
  0
CLASS
  1
ACDBDICTIONARYWDFLT
  2
AcDbDictionaryWithDefault
  3
ObjectDBX Classes
 90
        0
280
     0
281
     0
  0
CLASS
  1
TABLESTYLE
  2
AcDbTableStyle
  3
ObjectDBX Classes
 90
     2047
280
     0
281
     0
  0
CLASS
  1
DICTIONARYVAR
  2
AcDbDictionaryVar
  3
ObjectDBX Classes
 90
        0
280
     0
281
     0
  0
CLASS
  1
ACDBPLACEHOLDER
  2
AcDbPlaceHolder
  3
ObjectDBX Classes
 90
        0
280
     0
281
     0
  0
CLASS
  1
LAYOUT
  2
AcDbLayout
  3
ObjectDBX Classes
 90
        0
280
     0
281
     0
  0
ENDSEC
  0
SECTION
  2
TABLES
  0
TABLE
  2
VPORT
  5
8
330
0
100
AcDbSymbolTable
 70
     2
  0
VPORT
  5
29
330
8
100
AcDbSymbolTableRecord
100
AcDbViewportTableRecord
  2
*Active
 70
     0
 10
0.0
 20
0.0
 11
1.0
 21
1.0
 12
382.7703436646748
 22
20.72444663535956
 13
0.0
 23
0.0
 14
0.5
 24
0.5
 15
0.5
 25
0.5
 16
0.0
 26
0.0
 36
1.0
 17
0.0
 27
0.0
 37
0.0
 40
747.7290584562804
 41
1.60267857142857
 42
50.0
 43
0.0
 44
0.0
 50
0.0
 51
0.0
 71
     0
 72
   100
 73
     1
 74
     3
 75
     0
 76
     0
 77
     0
 78
     0
281
     0
 65
     1
110
0.0
120
0.0
130
0.0
111
1.0
121
0.0
131
0.0
112
0.0
122
1.0
132
0.0
 79
     0
146
0.0
  0
ENDTAB
  0
TABLE
  2
LTYPE
  5
5
330
0
100
AcDbSymbolTable
 70
     9
  0
LTYPE
  5
14
330
5
100
AcDbSymbolTableRecord
100
AcDbLinetypeTableRecord
  2
ByBlock
 70
     0
  3

 72
    65
 73
     0
 40
0.0
  0
LTYPE
  5
15
330
5
100
AcDbSymbolTableRecord
100
AcDbLinetypeTableRecord
  2
ByLayer
 70
     0
  3

 72
    65
 73
     0
 40
0.0
  0
LTYPE
  5
16
330
5
100
AcDbSymbolTableRecord
100
AcDbLinetypeTableRecord
  2
Continuous
 70
     0
  3
Solid line
 72
    65
 73
     0
 40
0.0
  0
LTYPE
  5
2E
330
5
100
AcDbSymbolTableRecord
100
AcDbLinetypeTableRecord
  2
DASHED
 70
     0
  3
Dashed
 72
    65
 73
     2
 40
15.0
 49
7.0
 74
     0
 49
-8.0
 74
     0
  0
LTYPE
  5
2F
330
5
100
AcDbSymbolTableRecord
100
AcDbLinetypeTableRecord
  2
DOTTED
 70
     0
  3
Dotted
 72
    65
 73
     2
 40
1.0
 49
0.0
 74
     0
 49
-1.0
 74
     0
  0
LTYPE
  5
30
330
5
100
AcDbSymbolTableRecord
100
AcDbLinetypeTableRecord
  2
DOT_CENTER
 70
     0
  3
Dot_Center
 72
    65
 73
     4
 40
14.0
 49
12.0
 74
     0
 49
-1.0
 74
     0
 49
0.0
 74
     0
 49
-1.0
 74
     0
  0
LTYPE
  5
31
330
5
100
AcDbSymbolTableRecord
100
AcDbLinetypeTableRecord
  2
LONG_DASHED
 70
     0
  3
Long_Dashed
 72
    65
 73
     2
 40
15.0
 49
10.0
 74
     0
 49
-5.0
 74
     0
  0
LTYPE
  5
32
330
5
100
AcDbSymbolTableRecord
100
AcDbLinetypeTableRecord
  2
DASH_CENTER
 70
     0
  3
Dash_Center
 72
    65
 73
     4
 40
14.0
 49
11.0
 74
     0
 49
-1.0
 74
     0
 49
1.0
 74
     0
 49
-1.0
 74
     0
  0
LTYPE
  5
33
330
5
100
AcDbSymbolTableRecord
100
AcDbLinetypeTableRecord
  2
PHANTOM
 70
     0
  3
Phantom
 72
    65
 73
     6
 40
13.0
 49
10.0
 74
     0
 49
-1.0
 74
     0
 49
0.0
 74
     0
 49
-1.0
 74
     0
 49
0.0
 74
     0
 49
-1.0
 74
     0
  0
LTYPE
  5
34
330
5
100
AcDbSymbolTableRecord
100
AcDbLinetypeTableRecord
  2
CENTER_DASH_DASH
 70
     0
  3
Center_Dash_Dash
 72
    65
 73
     6
 40
14.0
 49
9.0
 74
     0
 49
-1.0
 74
     0
 49
1.0
 74
     0
 49
-1.0
 74
     0
 49
1.0
 74
     0
 49
-1.0
 74
     0
  0
LTYPE
  5
35
330
5
100
AcDbSymbolTableRecord
100
AcDbLinetypeTableRecord
  2
CENTER_7
 70
     0
  3
CENTER_7
 72
    65
 73
     4
 40
13.0
 49
7.0
 74
     0
 49
-2.0
 74
     0
 49
2.0
 74
     0
 49
-2.0
 74
     0
  0
ENDTAB
  0
TABLE
  2
LAYER
  5
2
330
0
100
AcDbSymbolTable
 70
     3
  0
LAYER
  5
10
330
2
100
AcDbSymbolTableRecord
100
AcDbLayerTableRecord
  2
0
 70
     0
 62
     7
  6
Continuous
370
    -3
390
F
  0
LAYER
  5
36
330
2
100
AcDbSymbolTableRecord
100
AcDbLayerTableRecord
  2
1
 70
     0
 62
     7
  6
Continuous
370
    -3
390
F
  0
LAYER
  5
37
330
2
100
AcDbSymbolTableRecord
100
AcDbLayerTableRecord
  2
WORKLAYER
 70
     0
 62
     7
  6
Continuous
370
    -3
390
F
  0
ENDTAB
  0
TABLE
  2
STYLE
  5
3
330
0
100
AcDbSymbolTable
 70
     3
  0
STYLE
  5
11
330
3
100
AcDbSymbolTableRecord
100
AcDbTextStyleTableRecord
  2
Standard
 70
     0
 40
0.0
 41
1.0
 50
0.0
 71
     0
 42
0.2
  3
txt
  4

  0
STYLE
  5
79
330
3
100
AcDbSymbolTableRecord
100
AcDbTextStyleTableRecord
  2
CONVERTER_1
 70
     0
 40
0.0
 41
1.14
 50
0.0
 71
     0
 42
0.2
  3
complex.shx
  4

  0
STYLE
  5
14F
330
3
100
AcDbSymbolTableRecord
100
AcDbTextStyleTableRecord
  2
CONVERTER_2
 70
     0
 40
0.0
 41
0.9
 50
0.0
 71
     0
 42
0.2
  3
txt.shx
  4

  0
ENDTAB
  0
TABLE
  2
VIEW
  5
6
330
0
100
AcDbSymbolTable
 70
     0
  0
ENDTAB
  0
TABLE
  2
UCS
  5
7
330
0
100
AcDbSymbolTable
 70
     0
  0
ENDTAB
  0
TABLE
  2
APPID
  5
9
330
0
100
AcDbSymbolTable
 70
     1
  0
APPID
  5
12
330
9
100
AcDbSymbolTableRecord
100
AcDbRegAppTableRecord
  2
ACAD
 70
     0
  0
ENDTAB
  0
TABLE
  2
DIMSTYLE
  5
A
330
0
100
AcDbSymbolTable
 70
     6
100
AcDbDimStyleTable
  0
DIMSTYLE
105
27
330
A
100
AcDbSymbolTableRecord
100
AcDbDimStyleTableRecord
  2
Standard
 70
     0
340
11
  0
DIMSTYLE
105
159
102
{ACAD_REACTORS
330
15A
102
}
330
A
100
AcDbSymbolTableRecord
100
AcDbDimStyleTableRecord
  2
ME10_DIM_0
 70
     0
 41
10.0
 42
1.0
 44
1.0
 73
     0
 74
     0
 77
     1
 78
     8
140
10.0
147
0.625
172
     1
173
     1
176
     2
177
     2
178
     2
271
     3
340
14F
343
153
344
153
  0
DIMSTYLE
105
166
102
{ACAD_REACTORS
330
167
102
}
330
A
100
AcDbSymbolTableRecord
100
AcDbDimStyleTableRecord
  2
ME10_DIM_1
 70
     0
 41
10.0
 42
1.0
 44
1.0
 73
     0
 74
     0
 77
     1
 78
     8
140
10.0
147
0.625
172
     1
173
     1
176
     2
177
     2
178
     2
271
     3
340
14F
343
153
344
153
  0
DIMSTYLE
105
173
102
{ACAD_REACTORS
330
174
102
}
330
A
100
AcDbSymbolTableRecord
100
AcDbDimStyleTableRecord
  2
ME10_DIM_2
 70
     0
 41
10.0
 42
1.0
 44
1.0
 73
     0
 74
     0
 77
     1
 78
     8
140
10.0
147
0.625
172
     1
173
     1
176
     2
177
     2
178
     2
271
     3
340
14F
343
153
344
153
  0
DIMSTYLE
105
180
102
{ACAD_REACTORS
330
181
102
}
330
A
100
AcDbSymbolTableRecord
100
AcDbDimStyleTableRecord
  2
ME10_DIM_3
 70
     0
 41
10.0
 42
1.0
 44
1.0
 73
     0
 74
     0
 77
     1
 78
     8
140
10.0
147
0.625
172
     1
173
     1
176
     2
177
     2
178
     2
271
     3
340
14F
343
153
344
153
  0
DIMSTYLE
105
18D
102
{ACAD_REACTORS
330
18E
102
}
330
A
100
AcDbSymbolTableRecord
100
AcDbDimStyleTableRecord
  2
ME10_DIM_4
 70
     0
 41
10.0
 42
1.0
 44
1.0
 73
     0
 74
     0
 77
     1
 78
     8
140
10.0
147
0.625
172
     1
173
     1
176
     2
177
     2
178
     2
271
     3
340
14F
343
153
344
153
  0
ENDTAB
  0
TABLE
  2
BLOCK_RECORD
  5
1
330
0
100
AcDbSymbolTable
 70
    11
  0
BLOCK_RECORD
  5
1F
330
1
100
AcDbSymbolTableRecord
100
AcDbBlockTableRecord
  2
*Model_Space
340
22
  0
BLOCK_RECORD
  5
1B
330
1
100
AcDbSymbolTableRecord
100
AcDbBlockTableRecord
  2
*Paper_Space
340
1E
  0
BLOCK_RECORD
  5
23
330
1
100
AcDbSymbolTableRecord
100
AcDbBlockTableRecord
  2
*Paper_Space0
340
26
  0
BLOCK_RECORD
  5
38
330
1
100
AcDbSymbolTableRecord
100
AcDbBlockTableRecord
  2
Top__1
340
0
102
{BLKREFS
331
46
102
}
  0
BLOCK_RECORD
  5
3B
330
1
100
AcDbSymbolTableRecord
100
AcDbBlockTableRecord
  2
_1
340
0
102
{BLKREFS
331
42
102
}
  0
BLOCK_RECORD
  5
3E
330
1
100
AcDbSymbolTableRecord
100
AcDbBlockTableRecord
  2
Top__2
340
0
102
{BLKREFS
331
43
102
}
  0
BLOCK_RECORD
  5
41
330
1
100
AcDbSymbolTableRecord
100
AcDbBlockTableRecord
  2
TOP
340
0
102
{BLKREFS
331
47
102
}
  0
BLOCK_RECORD
  5
147
330
1
100
AcDbSymbolTableRecord
100
AcDbBlockTableRecord
  2
*D05
340
0
  0
BLOCK_RECORD
  5
153
330
1
100
AcDbSymbolTableRecord
100
AcDbBlockTableRecord
  2
_Open30
340
0
  0
BLOCK_RECORD
  5
15B
330
1
100
AcDbSymbolTableRecord
100
AcDbBlockTableRecord
  2
*D17
340
0
  0
BLOCK_RECORD
  5
168
330
1
100
AcDbSymbolTableRecord
100
AcDbBlockTableRecord
  2
*D28
340
0
  0
BLOCK_RECORD
  5
175
330
1
100
AcDbSymbolTableRecord
100
AcDbBlockTableRecord
  2
*D39
340
0
  0
BLOCK_RECORD
  5
182
330
1
100
AcDbSymbolTableRecord
100
AcDbBlockTableRecord
  2
*D410
340
0
  0
ENDTAB
  0
ENDSEC
  0
SECTION
  2
BLOCKS
  0
BLOCK
  5
20
330
1F
100
AcDbEntity
  8
0
100
AcDbBlockBegin
  2
*Model_Space
 70
     0
 71
     0
 10
0.0
 20
0.0
 30
0.0
  3
*Model_Space
  1

  0
ENDBLK
  5
21
330
1F
100
AcDbEntity
  8
0
100
AcDbBlockEnd
  0
BLOCK
  5
1C
330
1B
100
AcDbEntity
 67
     1
  8
0
100
AcDbBlockBegin
  2
*Paper_Space
 70
     0
 71
     0
 10
0.0
 20
0.0
 30
0.0
  3
*Paper_Space
  1

  0
ENDBLK
  5
1D
330
1B
100
AcDbEntity
 67
     1
  8
0
100
AcDbBlockEnd
  0
BLOCK
  5
24
330
23
100
AcDbEntity
  8
0
100
AcDbBlockBegin
  2
*Paper_Space0
 70
     0
 71
     0
 10
0.0
 20
0.0
 30
0.0
  3
*Paper_Space0
  1

  0
ENDBLK
  5
25
330
23
100
AcDbEntity
  8
0
100
AcDbBlockEnd
  0
BLOCK
  5
39
330
38
100
AcDbEntity
  8
0
100
AcDbBlockBegin
  2
Top__1
 70
     0
 71
     0
 10
1072.8226980803
 20
-778.14325188064
 30
0.0
  3
Top__1
  1

  0
POINT
  5
48
330
38
100
AcDbEntity
  8
1
 62
     3
 60
     1
100
AcDbPoint
 10
987.1104420001908
 20
-692.3987350420292
 30
0.0
  0
POINT
  5
49
330
38
100
AcDbEntity
  8
1
 62
     3
 60
     1
100
AcDbPoint
 10
988.6104420001908
 20
-693.8987350420292
 30
0.0
  0
POINT
  5
4A
330
38
100
AcDbEntity
  8
1
 62
     3
 60
     1
100
AcDbPoint
 10
987.1104420001908
 20
-692.3987350420292
 30
0.0
  0
POINT
  5
4B
330
38
100
AcDbEntity
  8
1
 62
     3
 60
     1
100
AcDbPoint
 10
987.1104420001908
 20
-830.8987350420292
 30
0.0
  0
POINT
  5
4C
330
38
100
AcDbEntity
  8
1
 62
     3
 60
     1
100
AcDbPoint
 10
987.1104420001908
 20
-832.3987350420292
 30
0.0
  0
POINT
  5
4D
330
38
100
AcDbEntity
  8
1
 62
     3
 60
     1
100
AcDbPoint
 10
988.6104420001908
 20
-830.8987350420292
 30
0.0
  0
LINE
  5
4E
330
38
100
AcDbEntity
  8
1
  6
Continuous
 62
     7
100
AcDbLine
 10
480.925806451613
 20
-154.666935483871
 30
0.0
 11
480.925806451613
 21
-171.166935483871
 31
0.0
  0
LINE
  5
4F
330
38
100
AcDbEntity
  8
1
  6
Continuous
 62
     7
100
AcDbLine
 10
230.925806451613
 20
-171.166935483871
 30
0.0
 11
230.925806451613
 21
-154.666935483871
 31
0.0
  0
LINE
  5
50
330
38
100
AcDbEntity
  8
1
  6
Continuous
 62
     7
100
AcDbLine
 10
233.925806451613
 20
-151.666935483871
 30
0.0
 11
262.9677665600632
 21
-151.666935483871
 31
0.0
  0
LINE
  5
51
330
38
100
AcDbEntity
  8
1
  6
Continuous
 62
     7
100
AcDbLine
 10
477.925806451613
 20
-151.666935483871
 30
0.0
 11
448.8838463431628
 21
-151.666935483871
 31
0.0
  0
LINE
  5
52
330
38
100
AcDbEntity
  8
1
  6
Continuous
 62
     7
100
AcDbLine
 10
477.925806451613
 20
-174.166935483871
 30
0.0
 11
442.1459597060684
 21
-174.166935483871
 31
0.0
  0
LINE
  5
53
330
38
100
AcDbEntity
  8
1
  6
Continuous
 62
     7
100
AcDbLine
 10
233.925806451613
 20
-174.166935483871
 30
0.0
 11
269.7056531971577
 21
-174.166935483871
 31
0.0
  0
LINE
  5
54
330
38
100
AcDbEntity
  8
1
  6
Continuous
 62
     7
100
AcDbLine
 10
437.3568282799626
 20
-177.7301960560392
 30
0.0
 11
431.76928074719
 21
-196.3553544986144
 31
0.0
  0
LINE
  5
55
330
38
100
AcDbEntity
  8
1
  6
Continuous
 62
     7
100
AcDbLine
 10
274.4947846232635
 20
-177.7301960560392
 30
0.0
 11
280.0823321560361
 21
-196.3553544986146
 31
0.0
  0
LINE
  5
56
330
38
100
AcDbEntity
  8
1
  6
Continuous
 62
     7
100
AcDbLine
 10
431.3461980568609
 20
-226.1848151890609
 30
0.0
 11
435.0965921329797
 21
-245.1867067544311
 31
0.0
  0
LINE
  5
57
330
38
100
AcDbEntity
  8
1
  6
Continuous
 62
     7
100
AcDbLine
 10
280.5054148463651
 20
-226.1848151890609
 30
0.0
 11
276.7550207702464
 21
-245.1867067544311
 31
0.0
  0
LINE
  5
58
330
38
100
AcDbEntity
  8
1
  6
Continuous
 62
     7
100
AcDbLine
 10
439.9914942316677
 20
-249.166935483871
 30
0.0
 11
477.925806451613
 21
-249.166935483871
 31
0.0
  0
LINE
  5
59
330
38
100
AcDbEntity
  8
1
  6
Continuous
 62
     7
100
AcDbLine
 10
480.925806451613
 20
-252.166935483871
 30
0.0
 11
480.925806451613
 21
-273.1669354838712
 31
0.0
  0
LINE
  5
5A
330
38
100
AcDbEntity
  8
1
  6
Continuous
 62
     7
100
AcDbLine
 10
480.925806451613
 20
-273.1669354838712
 30
0.0
 11
418.425806451613
 21
-273.1669354838712
 31
0.0
  0
LINE
  5
5B
330
38
100
AcDbEntity
  8
1
  6
Continuous
 62
     7
100
AcDbLine
 10
230.9258064516131
 20
-273.1669354838712
 30
0.0
 11
230.925806451613
 21
-252.166935483871
 31
0.0
  0
LINE
  5
5C
330
38
100
AcDbEntity
  8
1
  6
Continuous
 62
     7
100
AcDbLine
 10
233.925806451613
 20
-249.166935483871
 30
0.0
 11
271.8601186715584
 21
-249.166935483871
 31
0.0
  0
LINE
  5
5D
330
38
100
AcDbEntity
  8
1
  6
Continuous
 62
     7
100
AcDbLine
 10
418.425806451613
 20
-273.1669354838712
 30
0.0
 11
293.425806451613
 21
-273.1669354838712
 31
0.0
  0
LINE
  5
5E
330
38
100
AcDbEntity
  8
1
  6
Continuous
 62
     7
100
AcDbLine
 10
293.425806451613
 20
-273.1669354838712
 30
0.0
 11
230.9258064516131
 21
-273.1669354838712
 31
0.0
  0
LINE
  5
5F
330
38
100
AcDbEntity
  8
1
  6
Continuous
 62
     7
100
AcDbLine
 10
280.9258064516131
 20
-202.666935483871
 30
0.0
 11
280.9258064516131
 21
-211.666935483871
 31
0.0
  0
LINE
  5
60
330
38
100
AcDbEntity
  8
1
  6
Continuous
 62
     7
100
AcDbLine
 10
280.925806451613
 20
-202.1023122099414
 30
0.0
 11
280.925806451613
 21
-222.1057301068209
 31
0.0
  0
LINE
  5
61
330
38
100
AcDbEntity
  8
1
  6
Continuous
 62
     7
100
AcDbLine
 10
280.9258064516131
 20
-211.666935483871
 30
0.0
 11
280.9258064516131
 21
-220.666935483871
 31
0.0
  0
LINE
  5
62
330
38
100
AcDbEntity
  8
1
  6
Continuous
 62
     7
100
AcDbLine
 10
430.925806451613
 20
-202.1023122099414
 30
0.0
 11
430.925806451613
 21
-222.1057301068211
 31
0.0
  0
LINE
  5
63
330
38
100
AcDbEntity
  8
1
  6
PHANTOM
 62
     1
100
AcDbLine
 10
355.925806451613
 20
-119.337189599994
 30
0.0
 11
355.925806451613
 21
-290.0714038355229
 31
0.0
  0
LINE
  5
64
330
38
100
AcDbEntity
  8
1
  6
Continuous
 62
     7
100
AcDbLine
 10
442.1459597060684
 20
-174.166935483871
 30
0.0
 11
269.7056531971577
 21
-174.166935483871
 31
0.0
  0
LINE
  5
65
330
38
100
AcDbEntity
  8
1
  6
Continuous
 62
     7
100
AcDbLine
 10
271.8601186715584
 20
-249.166935483871
 30
0.0
 11
439.9914942316677
 21
-249.166935483871
 31
0.0
  0
LINE
  5
66
330
38
100
AcDbEntity
  8
1
  6
Continuous
 62
     7
100
AcDbLine
 10
445.925806451613
 20
-149.166935483871
 30
0.0
 11
445.925806451613
 21
-148.666935483871
 31
0.0
  0
LINE
  5
67
330
38
100
AcDbEntity
  8
1
  6
Continuous
 62
     7
100
AcDbLine
 10
445.925806451613
 20
-148.666935483871
 30
0.0
 11
265.925806451613
 21
-148.666935483871
 31
0.0
  0
LINE
  5
68
330
38
100
AcDbEntity
  8
1
  6
Continuous
 62
     7
100
AcDbLine
 10
265.925806451613
 20
-148.666935483871
 30
0.0
 11
265.925806451613
 21
-149.166935483871
 31
0.0
  0
ARC
  5
69
330
38
100
AcDbEntity
  8
1
  6
Continuous
 62
     7
100
AcDbCircle
 10
262.9677665600632
 20
-148.666935483871
 30
0.0
 40
3.0
100
AcDbArc
 50
-90.0
 51
-9.59406822686034
  0
ARC
  5
6A
330
38
100
AcDbEntity
  8
1
  6
Continuous
 62
     7
100
AcDbCircle
 10
448.883846343163
 20
-148.666935483871
 30
0.0
 40
3.000000000000149
100
AcDbArc
 50
-170.40593177314
 51
-90.00000000000325
  0
ARC
  5
6B
330
38
100
AcDbEntity
  8
1
  6
Continuous
 62
     7
100
AcDbCircle
 10
477.925806451613
 20
-154.666935483871
 30
0.0
 40
3.0
100
AcDbArc
 50
0.0
 51
90.0
  0
ARC
  5
6C
330
38
100
AcDbEntity
  8
1
  6
Continuous
 62
     7
100
AcDbCircle
 10
477.925806451613
 20
-171.166935483871
 30
0.0
 40
3.0
100
AcDbArc
 50
-90.0
 51
0.0
  0
ARC
  5
6D
330
38
100
AcDbEntity
  8
1
  6
Continuous
 62
     7
100
AcDbCircle
 10
233.9258064516132
 20
-171.166935483871
 30
0.0
 40
3.000000000000199
100
AcDbArc
 50
180.0
 51
-90.00000000000381
  0
ARC
  5
6E
330
38
100
AcDbEntity
  8
1
  6
Continuous
 62
     7
100
AcDbCircle
 10
233.9258064516132
 20
-154.666935483871
 30
0.0
 40
3.0
100
AcDbArc
 50
90.00000000000381
 51
180.0
  0
ARC
  5
6F
330
38
100
AcDbEntity
  8
1
  6
Continuous
 62
     7
100
AcDbCircle
 10
477.925806451613
 20
-252.166935483871
 30
0.0
 40
3.0
100
AcDbArc
 50
0.0
 51
90.0
  0
ARC
  5
70
330
38
100
AcDbEntity
  8
1
  6
Continuous
 62
     7
100
AcDbCircle
 10
233.9258064516132
 20
-252.166935483871
 30
0.0
 40
3.0
100
AcDbArc
 50
90.00000000000381
 51
180.0
  0
ARC
  5
71
330
38
100
AcDbEntity
  8
1
  6
Continuous
 62
     7
100
AcDbCircle
 10
439.9914942316677
 20
-244.166935483871
 30
0.0
 40
4.999999999999963
100
AcDbArc
 50
-168.231711067978
 51
-90.0
  0
ARC
  5
72
330
38
100
AcDbEntity
  8
1
  6
Continuous
 62
     7
100
AcDbCircle
 10
271.8601186715584
 20
-244.166935483871
 30
0.0
 40
5.0
100
AcDbArc
 50
-90.0
 51
-11.76828893202187
  0
ARC
  5
73
330
38
100
AcDbEntity
  8
1
  6
Continuous
 62
     7
100
AcDbCircle
 10
442.1459597060683
 20
-179.166935483871
 30
0.0
 40
5.0
100
AcDbArc
 50
89.99999999999871
 51
163.3007557660056
  0
ARC
  5
74
330
38
100
AcDbEntity
  8
1
  6
Continuous
 62
     7
100
AcDbCircle
 10
269.7056531971578
 20
-179.166935483871
 30
0.0
 40
4.999999999999973
100
AcDbArc
 50
16.69924423399437
 51
90.00000000000131
  0
ARC
  5
75
330
38
100
AcDbEntity
  8
1
  6
Continuous
 62
     7
100
AcDbCircle
 10
450.925806451613
 20
-202.1023122099414
 30
0.0
 40
20.00000000000002
100
AcDbArc
 50
163.3007557660061
 51
180.0
  0
ARC
  5
76
330
38
100
AcDbEntity
  8
1
  6
Continuous
 62
     7
100
AcDbCircle
 10
450.925806451613
 20
-222.1057301068209
 30
0.0
 40
20.0
100
AcDbArc
 50
-179.9999999999994
 51
-168.2317110679794
  0
ARC
  5
77
330
38
100
AcDbEntity
  8
1
  6
Continuous
 62
     7
100
AcDbCircle
 10
260.9258064516132
 20
-202.1023122099414
 30
0.0
 40
19.99999999999983
100
AcDbArc
 50
0.0
 51
16.69924423399347
  0
ARC
  5
78
330
38
100
AcDbEntity
  8
1
  6
Continuous
 62
     7
100
AcDbCircle
 10
260.9258064516131
 20
-222.1057301068209
 30
0.0
 40
19.99999999999993
100
AcDbArc
 50
-11.7682889320207
 51
0.0
  0
MTEXT
  5
7A
330
38
100
AcDbEntity
  8
1
 62
     7
100
AcDbMText
 10
355.925806451613
 20
-212.1040211583813
 30
0.0
 40
18.0
 41
0.0
 71
     5
 72
     1
  1
B
  7
CONVERTER_1
 73
     1
 44
0.84033613445378
  0
ENDBLK
  5
3A
330
38
100
AcDbEntity
  8
0
100
AcDbBlockEnd
  0
BLOCK
  5
3C
330
3B
100
AcDbEntity
  8
0
100
AcDbBlockBegin
  2
_1
 70
     0
 71
     0
 10
1233.703673096178
 20
-626.1638949984711
 30
0.0
  3
_1
  1

  0
LINE
  5
7B
330
3B
100
AcDbEntity
  8
WORKLAYER
  6
Continuous
 62
     7
100
AcDbLine
 10
372.925806451613
 20
218.8330645161291
 30
0.0
 11
378.9258064516131
 21
218.8330645161291
 31
0.0
  0
LINE
  5
7C
330
3B
100
AcDbEntity
  8
WORKLAYER
  6
Continuous
 62
     7
100
AcDbLine
 10
378.9258064516131
 20
219.3330645161291
 30
0.0
 11
378.9258064516131
 21
218.8330645161291
 31
0.0
  0
LINE
  5
7D
330
3B
100
AcDbEntity
  8
WORKLAYER
  6
CENTER_7
 62
     1
100
AcDbLine
 10
375.9258064516131
 20
223.1528582161291
 30
0.0
 11
375.9258064516131
 21
216.857264916129
 31
0.0
  0
LINE
  5
7E
330
3B
100
AcDbEntity
  8
WORKLAYER
  6
Continuous
 62
     7
100
AcDbLine
 10
372.9258064516131
 20
219.3330645161291
 30
0.0
 11
378.9258064516131
 21
219.3330645161291
 31
0.0
  0
LINE
  5
7F
330
3B
100
AcDbEntity
  8
WORKLAYER
  6
Continuous
 62
     7
100
AcDbLine
 10
340.925806451613
 20
221.8330645161291
 30
0.0
 11
340.925806451613
 21
218.8330645161291
 31
0.0
  0
LINE
  5
80
330
3B
100
AcDbEntity
  8
WORKLAYER
  6
Continuous
 62
     1
100
AcDbLine
 10
341.7378162516129
 20
222.3330645161291
 30
0.0
 11
341.737816251613
 21
218.8330645161291
 31
0.0
  0
LINE
  5
81
330
3B
100
AcDbEntity
  8
WORKLAYER
  6
Continuous
 62
     7
100
AcDbLine
 10
370.925806451613
 20
221.8330645161291
 30
0.0
 11
370.9258064516131
 21
218.8330645161291
 31
0.0
  0
LINE
  5
82
330
3B
100
AcDbEntity
  8
WORKLAYER
  6
Continuous
 62
     1
100
AcDbLine
 10
370.113796651613
 20
222.3330645161291
 30
0.0
 11
370.1137966516132
 21
218.8330645161291
 31
0.0
  0
LINE
  5
83
330
3B
100
AcDbEntity
  8
WORKLAYER
  6
Continuous
 62
     7
100
AcDbLine
 10
355.925806451613
 20
221.8330645161291
 30
0.0
 11
340.925806451613
 21
221.8330645161291
 31
0.0
  0
LINE
  5
84
330
3B
100
AcDbEntity
  8
WORKLAYER
  6
Continuous
 62
     7
100
AcDbLine
 10
341.7378162516129
 20
224.3330645161291
 30
0.0
 11
341.7378162516129
 21
222.3330645161291
 31
0.0
  0
LINE
  5
85
330
3B
100
AcDbEntity
  8
WORKLAYER
  6
Continuous
 62
     7
100
AcDbLine
 10
355.925806451613
 20
221.8330645161291
 30
0.0
 11
370.925806451613
 21
221.8330645161291
 31
0.0
  0
LINE
  5
86
330
3B
100
AcDbEntity
  8
WORKLAYER
  6
Continuous
 62
     7
100
AcDbLine
 10
370.113796651613
 20
224.3330645161291
 30
0.0
 11
370.113796651613
 21
222.3330645161291
 31
0.0
  0
LINE
  5
87
330
3B
100
AcDbEntity
  8
WORKLAYER
  6
Continuous
 62
     7
100
AcDbLine
 10
371.9258064516131
 20
236.0830645161291
 30
0.0
 11
371.9258064516131
 21
219.8330645161291
 31
0.0
  0
LINE
  5
88
330
3B
100
AcDbEntity
  8
WORKLAYER
  6
Continuous
 62
     7
100
AcDbLine
 10
372.4258064516131
 20
236.0830645161291
 30
0.0
 11
372.4258064516131
 21
219.8330645161291
 31
0.0
  0
LINE
  5
89
330
3B
100
AcDbEntity
  8
WORKLAYER
  6
Continuous
 62
     7
100
AcDbLine
 10
362.425806451613
 20
229.8330645161291
 30
0.0
 11
362.425806451613
 21
309.3349566161289
 31
0.0
  0
LINE
  5
8A
330
3B
100
AcDbEntity
  8
WORKLAYER
  6
Continuous
 62
     7
100
AcDbLine
 10
349.425806451613
 20
309.3349566161289
 30
0.0
 11
349.4258064516132
 21
229.8330645161291
 31
0.0
  0
LINE
  5
8B
330
3B
100
AcDbEntity
  8
WORKLAYER
  6
PHANTOM
 62
     1
100
AcDbLine
 10
371.9258064516131
 20
224.8330645161291
 30
0.0
 11
374.425806451613
 21
224.8330645161291
 31
0.0
  0
LINE
  5
8C
330
3B
100
AcDbEntity
  8
WORKLAYER
  6
Continuous
 62
     7
100
AcDbLine
 10
355.925806451613
 20
229.8330645161291
 30
0.0
 11
339.925806451613
 21
229.8330645161291
 31
0.0
  0
LINE
  5
8D
330
3B
100
AcDbEntity
  8
WORKLAYER
  6
Continuous
 62
     7
100
AcDbLine
 10
337.425806451613
 20
228.3897662161289
 30
0.0
 11
337.425806451613
 21
224.8330645161291
 31
0.0
  0
LINE
  5
8E
330
3B
100
AcDbEntity
  8
WORKLAYER
  6
Continuous
 62
     7
100
AcDbLine
 10
339.925806451613
 20
229.8330645161291
 30
0.0
 11
337.425806451613
 21
228.3897662161289
 31
0.0
  0
LINE
  5
8F
330
3B
100
AcDbEntity
  8
WORKLAYER
  6
Continuous
 62
     7
100
AcDbLine
 10
355.925806451613
 20
229.8330645161291
 30
0.0
 11
371.925806451613
 21
229.8330645161291
 31
0.0
  0
LINE
  5
90
330
3B
100
AcDbEntity
  8
WORKLAYER
  6
PHANTOM
 62
     1
100
AcDbLine
 10
374.4258064516132
 20
228.3897662161289
 30
0.0
 11
374.425806451613
 21
224.8330645161291
 31
0.0
  0
LINE
  5
91
330
3B
100
AcDbEntity
  8
WORKLAYER
  6
Continuous
 62
     7
100
AcDbLine
 10
355.925806451613
 20
224.8330645161291
 30
0.0
 11
371.9258064516131
 21
224.8330645161291
 31
0.0
  0
LINE
  5
92
330
3B
100
AcDbEntity
  8
WORKLAYER
  6
PHANTOM
 62
     1
100
AcDbLine
 10
371.925806451613
 20
229.8330645161291
 30
0.0
 11
374.4258064516132
 21
228.3897662161289
 31
0.0
  0
LINE
  5
93
330
3B
100
AcDbEntity
  8
WORKLAYER
  6
Continuous
 62
     7
100
AcDbLine
 10
355.925806451613
 20
224.8330645161291
 30
0.0
 11
337.425806451613
 21
224.8330645161291
 31
0.0
  0
LINE
  5
94
330
3B
100
AcDbEntity
  8
WORKLAYER
  6
Continuous
 62
     7
100
AcDbLine
 10
371.9258064516131
 20
236.0830645161291
 30
0.0
 11
372.4258064516131
 21
236.0830645161291
 31
0.0
  0
LINE
  5
95
330
3B
100
AcDbEntity
  8
WORKLAYER
  6
Continuous
 62
     7
100
AcDbLine
 10
364.4187263516131
 20
327.333064516129
 30
0.0
 11
365.7328132516129
 21
326.574367016129
 31
0.0
  0
LINE
  5
96
330
3B
100
AcDbEntity
  8
WORKLAYER
  6
Continuous
 62
     7
100
AcDbLine
 10
347.4317878516131
 20
321.3462786161289
 30
0.0
 11
346.117823051613
 21
322.104976116129
 31
0.0
  0
LINE
  5
97
330
3B
100
AcDbEntity
  8
WORKLAYER
  6
Continuous
 62
     7
100
AcDbLine
 10
347.432764451613
 20
327.333064516129
 30
0.0
 11
364.4187263516131
 21
327.333064516129
 31
0.0
  0
LINE
  5
98
330
3B
100
AcDbEntity
  8
WORKLAYER
  6
Continuous
 62
     7
100
AcDbLine
 10
364.418726351613
 20
321.3462786161289
 30
0.0
 11
365.732813251613
 21
322.104976116129
 31
0.0
  0
LINE
  5
99
330
3B
100
AcDbEntity
  8
WORKLAYER
  6
Continuous
 62
     7
100
AcDbLine
 10
360.8287605516131
 20
326.4916644161289
 30
0.0
 11
360.8287605516131
 21
322.1877703161289
 31
0.0
  0
LINE
  5
9A
330
3B
100
AcDbEntity
  8
WORKLAYER
  6
Continuous
 62
     7
100
AcDbLine
 10
351.0217532516132
 20
326.4916644161289
 30
0.0
 11
351.0217532516132
 21
322.187861916129
 31
0.0
  0
LINE
  5
9B
330
3B
100
AcDbEntity
  8
WORKLAYER
  6
Continuous
 62
     7
100
AcDbLine
 10
347.4317878516131
 20
327.333064516129
 30
0.0
 11
346.1178230516131
 21
326.574367016129
 31
0.0
  0
LINE
  5
9C
330
3B
100
AcDbEntity
  8
WORKLAYER
  6
Continuous
 62
     7
100
AcDbLine
 10
346.1178230516131
 20
326.574367016129
 30
0.0
 11
346.117823051613
 21
322.104976116129
 31
0.0
  0
LINE
  5
9D
330
3B
100
AcDbEntity
  8
WORKLAYER
  6
Continuous
 62
     7
100
AcDbLine
 10
365.7328132516129
 20
326.574367016129
 30
0.0
 11
365.732813251613
 21
322.104976116129
 31
0.0
  0
LINE
  5
9E
330
3B
100
AcDbEntity
  8
WORKLAYER
  6
Continuous
 62
     7
100
AcDbLine
 10
347.432764451613
 20
327.333064516129
 30
0.0
 11
364.4187263516131
 21
327.333064516129
 31
0.0
  0
LINE
  5
9F
330
3B
100
AcDbEntity
  8
WORKLAYER
  6
Continuous
 62
     7
100
AcDbLine
 10
347.432764451613
 20
321.3462786161289
 30
0.0
 11
364.418726351613
 21
321.3462786161289
 31
0.0
  0
LINE
  5
A0
330
3B
100
AcDbEntity
  8
WORKLAYER
  6
Continuous
 62
     7
100
AcDbLine
 10
349.425806451613
 20
309.3349566161289
 30
0.0
 11
362.425806451613
 21
309.3349566161289
 31
0.0
  0
LINE
  5
A1
330
3B
100
AcDbEntity
  8
WORKLAYER
  6
Continuous
 62
     1
100
AcDbLine
 10
359.925806451613
 20
314.933070616129
 30
0.0
 11
359.925806451613
 21
321.3462786161289
 31
0.0
  0
LINE
  5
A2
330
3B
100
AcDbEntity
  8
WORKLAYER
  6
Continuous
 62
     1
100
AcDbLine
 10
351.925806451613
 20
321.3462786161289
 30
0.0
 11
351.925806451613
 21
314.933070616129
 31
0.0
  0
LINE
  5
A3
330
3B
100
AcDbEntity
  8
WORKLAYER
  6
Continuous
 62
     1
100
AcDbLine
 10
361.7917732516131
 20
311.700984416129
 30
0.0
 11
359.925806451613
 21
314.933070616129
 31
0.0
  0
LINE
  5
A4
330
3B
100
AcDbEntity
  8
WORKLAYER
  6
Continuous
 62
     1
100
AcDbLine
 10
350.059839651613
 20
311.700984416129
 30
0.0
 11
351.925806451613
 21
314.933070616129
 31
0.0
  0
LINE
  5
A5
330
3B
100
AcDbEntity
  8
WORKLAYER
  6
Continuous
 62
     7
100
AcDbLine
 10
360.925806451613
 20
314.933070616129
 30
0.0
 11
360.925806451613
 21
321.3462786161289
 31
0.0
  0
LINE
  5
A6
330
3B
100
AcDbEntity
  8
WORKLAYER
  6
Continuous
 62
     7
100
AcDbLine
 10
350.925806451613
 20
321.3462786161289
 30
0.0
 11
350.925806451613
 21
314.933070616129
 31
0.0
  0
LINE
  5
A7
330
3B
100
AcDbEntity
  8
WORKLAYER
  6
Continuous
 62
     7
100
AcDbLine
 10
360.925806451613
 20
314.933070616129
 30
0.0
 11
350.925806451613
 21
314.933070616129
 31
0.0
  0
LINE
  5
A8
330
3B
100
AcDbEntity
  8
WORKLAYER
  6
Continuous
 62
     7
100
AcDbLine
 10
360.925806451613
 20
314.933070616129
 30
0.0
 11
362.425806451613
 21
309.3349566161289
 31
0.0
  0
LINE
  5
A9
330
3B
100
AcDbEntity
  8
WORKLAYER
  6
Continuous
 62
     7
100
AcDbLine
 10
350.925806451613
 20
314.933070616129
 30
0.0
 11
349.425806451613
 21
309.3349566161289
 31
0.0
  0
LINE
  5
AA
330
3B
100
AcDbEntity
  8
WORKLAYER
  6
Continuous
 62
     7
100
AcDbLine
 10
360.8258156516132
 20
347.886470316129
 30
0.0
 11
360.8258156516132
 21
327.3329729161289
 31
0.0
  0
LINE
  5
AB
330
3B
100
AcDbEntity
  8
WORKLAYER
  6
Continuous
 62
     7
100
AcDbLine
 10
351.025827351613
 20
347.886470316129
 30
0.0
 11
351.025827351613
 21
327.3329729161289
 31
0.0
  0
LINE
  5
AC
330
3B
100
AcDbEntity
  8
WORKLAYER
  6
Continuous
 62
     7
100
AcDbLine
 10
362.9258212516129
 20
355.246760816129
 30
0.0
 11
348.925821251613
 21
355.246760816129
 31
0.0
  0
LINE
  5
AD
330
3B
100
AcDbEntity
  8
WORKLAYER
  6
Continuous
 62
     7
100
AcDbLine
 10
348.9258212516129
 20
356.1192583161289
 30
0.0
 11
362.925821251613
 21
356.1192583161289
 31
0.0
  0
LINE
  5
AE
330
3B
100
AcDbEntity
  8
WORKLAYER
  6
Continuous
 62
     7
100
AcDbLine
 10
351.5758156516132
 20
354.2369646161289
 30
0.0
 11
360.275827351613
 21
354.2369646161289
 31
0.0
  0
LINE
  5
AF
330
3B
100
AcDbEntity
  8
WORKLAYER
  6
Continuous
 62
     7
100
AcDbLine
 10
351.5758156516132
 20
351.033076716129
 30
0.0
 11
360.275827351613
 21
351.033076716129
 31
0.0
  0
LINE
  5
B0
330
3B
100
AcDbEntity
  8
WORKLAYER
  6
Continuous
 62
     7
100
AcDbLine
 10
365.7258095516129
 20
347.886470316129
 30
0.0
 11
365.7258095516129
 21
327.3329729161289
 31
0.0
  0
LINE
  5
B1
330
3B
100
AcDbEntity
  8
WORKLAYER
  6
Continuous
 62
     7
100
AcDbLine
 10
360.275827351613
 20
354.2369646161289
 30
0.0
 11
360.275827351613
 21
351.033076716129
 31
0.0
  0
LINE
  5
B2
330
3B
100
AcDbEntity
  8
WORKLAYER
  6
Continuous
 62
     7
100
AcDbLine
 10
362.925821251613
 20
356.1192583161289
 30
0.0
 11
362.9258212516129
 21
355.246760816129
 31
0.0
  0
LINE
  5
B3
330
3B
100
AcDbEntity
  8
WORKLAYER
  6
Continuous
 62
     7
100
AcDbLine
 10
365.7258095516129
 20
347.886470316129
 30
0.0
 11
360.275827351613
 21
351.033076716129
 31
0.0
  0
LINE
  5
B4
330
3B
100
AcDbEntity
  8
WORKLAYER
  6
Continuous
 62
     7
100
AcDbLine
 10
351.5758156516132
 20
354.2369646161289
 30
0.0
 11
351.5758156516132
 21
351.033076716129
 31
0.0
  0
LINE
  5
B5
330
3B
100
AcDbEntity
  8
WORKLAYER
  6
Continuous
 62
     7
100
AcDbLine
 10
348.9258212516129
 20
356.1192583161289
 30
0.0
 11
348.925821251613
 21
355.246760816129
 31
0.0
  0
LINE
  5
B6
330
3B
100
AcDbEntity
  8
WORKLAYER
  6
Continuous
 62
     7
100
AcDbLine
 10
346.1258033516131
 20
347.886470316129
 30
0.0
 11
351.5758156516132
 21
351.033076716129
 31
0.0
  0
LINE
  5
B7
330
3B
100
AcDbEntity
  8
WORKLAYER
  6
Continuous
 62
     7
100
AcDbLine
 10
346.1258033516131
 20
327.3329729161289
 30
0.0
 11
365.7258095516129
 21
327.3329729161289
 31
0.0
  0
LINE
  5
B8
330
3B
100
AcDbEntity
  8
WORKLAYER
  6
Continuous
 62
     7
100
AcDbLine
 10
346.1258033516131
 20
347.886470316129
 30
0.0
 11
346.1258033516131
 21
327.3329729161289
 31
0.0
  0
LINE
  5
B9
330
3B
100
AcDbEntity
  8
WORKLAYER
  6
Continuous
 62
     7
100
AcDbLine
 10
359.4758095516129
 20
357.333064516129
 30
0.0
 11
352.3758033516131
 21
357.333064516129
 31
0.0
  0
LINE
  5
BA
330
3B
100
AcDbEntity
  8
1
  6
PHANTOM
 62
     1
100
AcDbLine
 10
355.925806451613
 20
360.6012913882143
 30
0.0
 11
355.925806451613
 21
214.2830953995483
 31
0.0
  0
ARC
  5
BB
330
3B
100
AcDbEntity
  8
WORKLAYER
  6
Continuous
 62
     7
100
AcDbCircle
 10
372.9258064516131
 20
219.8330645161291
 30
0.0
 40
1.0
100
AcDbArc
 50
180.0
 51
-90.00000000000325
  0
ARC
  5
BC
330
3B
100
AcDbEntity
  8
WORKLAYER
  6
Continuous
 62
     7
100
AcDbCircle
 10
341.2378162516131
 20
222.3330645161291
 30
0.0
 40
0.5
100
AcDbArc
 50
-90.00000000000651
 51
0.0
  0
ARC
  5
BD
330
3B
100
AcDbEntity
  8
WORKLAYER
  6
Continuous
 62
     7
100
AcDbCircle
 10
341.237816251613
 20
224.3330645161291
 30
0.0
 40
0.4999999999998863
100
AcDbArc
 50
0.0
 51
90.00000000001303
  0
ARC
  5
BE
330
3B
100
AcDbEntity
  8
WORKLAYER
  6
Continuous
 62
     7
100
AcDbCircle
 10
370.613796651613
 20
222.3330645161291
 30
0.0
 40
0.5
100
AcDbArc
 50
180.0
 51
-89.99999999997395
  0
ARC
  5
BF
330
3B
100
AcDbEntity
  8
WORKLAYER
  6
Continuous
 62
     7
100
AcDbCircle
 10
370.6137966516132
 20
224.3330645161291
 30
0.0
 40
0.5
100
AcDbArc
 50
90.00000000002605
 51
180.0
  0
ARC
  5
C0
330
3B
100
AcDbEntity
  8
WORKLAYER
  6
Continuous
 62
     7
100
AcDbCircle
 10
372.9258064516131
 20
219.8330645161291
 30
0.0
 40
0.5
100
AcDbArc
 50
180.0
 51
-90.0
  0
ARC
  5
C1
330
3B
100
AcDbEntity
  8
WORKLAYER
  6
Continuous
 62
     7
100
AcDbCircle
 10
364.4187263516131
 20
329.425075016129
 30
0.0
 40
8.078769699999933
100
AcDbArc
 50
-116.380996700001
 51
-90.0
  0
ARC
  5
C2
330
3B
100
AcDbEntity
  8
WORKLAYER
  6
Continuous
 62
     7
100
AcDbCircle
 10
355.925806451613
 20
336.0572771161289
 30
0.0
 40
14.7108897999997
100
AcDbArc
 50
-109.4712067000002
 51
-70.52880859999922
  0
ARC
  5
C3
330
3B
100
AcDbEntity
  8
WORKLAYER
  6
Continuous
 62
     7
100
AcDbCircle
 10
364.4187263516131
 20
319.2542681161289
 30
0.0
 40
8.078769700000066
100
AcDbArc
 50
90.0
 51
116.3809967000012
  0
ARC
  5
C4
330
3B
100
AcDbEntity
  8
WORKLAYER
  6
Continuous
 62
     7
100
AcDbCircle
 10
347.432764451613
 20
319.2542681161289
 30
0.0
 40
8.078769699999757
100
AcDbArc
 50
63.61899189999976
 51
90.0
  0
ARC
  5
C5
330
3B
100
AcDbEntity
  8
WORKLAYER
  6
Continuous
 62
     7
100
AcDbCircle
 10
355.925806451613
 20
312.6220660161289
 30
0.0
 40
14.71088979999973
100
AcDbArc
 50
70.52880859999924
 51
109.4711990000004
  0
ARC
  5
C6
330
3B
100
AcDbEntity
  8
WORKLAYER
  6
Continuous
 62
     7
100
AcDbCircle
 10
347.432764451613
 20
329.425075016129
 30
0.0
 40
8.078769699999953
100
AcDbArc
 50
-90.0
 51
-63.61898800000034
  0
ARC
  5
C7
330
3B
100
AcDbEntity
  8
WORKLAYER
  6
Continuous
 62
     7
100
AcDbCircle
 10
363.275827351613
 20
343.642970516129
 30
0.0
 40
4.900004899999796
100
AcDbArc
 50
59.99999999999864
 51
120.0000000000002
  0
ARC
  5
C8
330
3B
100
AcDbEntity
  8
WORKLAYER
  6
Continuous
 62
     7
100
AcDbCircle
 10
348.5758156516132
 20
343.642970516129
 30
0.0
 40
4.900004899999654
100
AcDbArc
 50
60.00000000000151
 51
120.0000000000025
  0
ARC
  5
C9
330
3B
100
AcDbEntity
  8
WORKLAYER
  6
Continuous
 62
     7
100
AcDbCircle
 10
355.9258214516131
 20
338.577571316129
 30
0.0
 40
10.51978019999983
100
AcDbArc
 50
62.23868940000029
 51
117.7612990999998
  0
ARC
  5
CA
330
3B
100
AcDbEntity
  8
WORKLAYER
  6
Continuous
 62
     7
100
AcDbCircle
 10
355.9258214516132
 20
369.6342730161289
 30
0.0
 40
15.9999999999994
100
AcDbArc
 50
-74.22409060000067
 51
-64.05551150000062
  0
ARC
  5
CB
330
3B
100
AcDbEntity
  8
WORKLAYER
  6
Continuous
 62
     7
100
AcDbCircle
 10
355.9258214516131
 20
341.7318682161289
 30
0.0
 40
15.99999999999998
100
AcDbArc
 50
64.05551909999971
 51
77.18081669999971
  0
ARC
  5
CC
330
3B
100
AcDbEntity
  8
WORKLAYER
  6
Continuous
 62
     7
100
AcDbCircle
 10
355.9258214516132
 20
369.6342730161289
 30
0.0
 40
15.9999999999998
100
AcDbArc
 50
-115.9445038000006
 51
-105.775894200001
  0
ARC
  5
CD
330
3B
100
AcDbEntity
  8
WORKLAYER
  6
Continuous
 62
     7
100
AcDbCircle
 10
355.9258214516131
 20
341.7318682161289
 30
0.0
 40
15.99999999999981
100
AcDbArc
 50
102.8191986000005
 51
115.9445037999999
  0
ENDBLK
  5
3D
330
3B
100
AcDbEntity
  8
0
100
AcDbBlockEnd
  0
BLOCK
  5
3F
330
3E
100
AcDbEntity
  8
0
100
AcDbBlockBegin
  2
Top__2
 70
     0
 71
     0
 10
1676.549683537213
 20
-1387.913708207018
 30
0.0
  3
Top__2
  1

  0
POINT
  5
CE
330
3E
100
AcDbEntity
  8
1
 62
     3
 60
     1
100
AcDbPoint
 10
1559.597414956499
 20
-1317.50604780289
 30
0.0
  0
POINT
  5
CF
330
3E
100
AcDbEntity
  8
1
 62
     3
 60
     1
100
AcDbPoint
 10
1558.597414956499
 20
-1318.50604780289
 30
0.0
  0
POINT
  5
D0
330
3E
100
AcDbEntity
  8
1
 62
     3
 60
     1
100
AcDbPoint
 10
1558.597414956499
 20
-1317.50604780289
 30
0.0
  0
POINT
  5
D1
330
3E
100
AcDbEntity
  8
1
 62
     3
 60
     1
100
AcDbPoint
 10
1558.597414956499
 20
-1326.30604780289
 30
0.0
  0
POINT
  5
D2
330
3E
100
AcDbEntity
  8
1
 62
     3
 60
     1
100
AcDbPoint
 10
1559.597414956499
 20
-1326.30604780289
 30
0.0
  0
POINT
  5
D3
330
3E
100
AcDbEntity
  8
1
 62
     3
 60
     1
100
AcDbPoint
 10
1559.597414956499
 20
-1365.10604780289
 30
0.0
  0
POINT
  5
D4
330
3E
100
AcDbEntity
  8
1
 62
     3
 60
     1
100
AcDbPoint
 10
1558.597414956499
 20
-1364.10604780289
 30
0.0
  0
POINT
  5
D5
330
3E
100
AcDbEntity
  8
1
 62
     3
 60
     1
100
AcDbPoint
 10
1558.597414956499
 20
-1365.10604780289
 30
0.0
  0
POINT
  5
D6
330
3E
100
AcDbEntity
  8
1
 62
     3
 60
     1
100
AcDbPoint
 10
1559.597414956499
 20
-1356.30604780289
 30
0.0
  0
POINT
  5
D7
330
3E
100
AcDbEntity
  8
1
 62
     3
 60
     1
100
AcDbPoint
 10
1558.597414956499
 20
-1356.30604780289
 30
0.0
  0
POINT
  5
D8
330
3E
100
AcDbEntity
  8
1
 62
     3
 60
     1
100
AcDbPoint
 10
1381.483697735083
 20
-1527.235027785753
 30
0.0
  0
POINT
  5
D9
330
3E
100
AcDbEntity
  8
1
 62
     3
 60
     1
100
AcDbPoint
 10
1381.483697735083
 20
-1518.435027785753
 30
0.0
  0
POINT
  5
DA
330
3E
100
AcDbEntity
  8
1
 62
     3
 60
     1
100
AcDbPoint
 10
1382.483697735083
 20
-1518.435027785753
 30
0.0
  0
POINT
  5
DB
330
3E
100
AcDbEntity
  8
1
 62
     3
 60
     1
100
AcDbPoint
 10
1381.483697735083
 20
-1519.435027785753
 30
0.0
  0
POINT
  5
DC
330
3E
100
AcDbEntity
  8
1
 62
     3
 60
     1
100
AcDbPoint
 10
1381.483697735083
 20
-1565.035027785753
 30
0.0
  0
POINT
  5
DD
330
3E
100
AcDbEntity
  8
1
 62
     3
 60
     1
100
AcDbPoint
 10
1381.483697735083
 20
-1557.235027785753
 30
0.0
  0
POINT
  5
DE
330
3E
100
AcDbEntity
  8
1
 62
     3
 60
     1
100
AcDbPoint
 10
1382.483697735083
 20
-1566.035027785753
 30
0.0
  0
POINT
  5
DF
330
3E
100
AcDbEntity
  8
1
 62
     3
 60
     1
100
AcDbPoint
 10
1381.483697735083
 20
-1566.035027785753
 30
0.0
  0
ENDBLK
  5
40
330
3E
100
AcDbEntity
  8
0
100
AcDbBlockEnd
  0
BLOCK
  5
44
330
41
100
AcDbEntity
  8
0
100
AcDbBlockBegin
  2
TOP
 70
     0
 71
     0
 10
647.533006377063
 20
-269.261730310878
 30
0.0
  3
TOP
  1

  0
INSERT
  5
42
330
41
100
AcDbEntity
  8
1
100
AcDbBlockReference
  2
_1
 10
1233.703673096178
 20
-626.1638949984711
 30
0.0
  0
INSERT
  5
43
330
41
100
AcDbEntity
  8
0
100
AcDbBlockReference
  2
Top__2
 10
1676.549683537213
 20
-1387.913708207018
 30
0.0
  0
POINT
  5
E0
330
41
100
AcDbEntity
  8
1
 62
     3
 60
     1
100
AcDbPoint
 10
1158.703673096178
 20
-722.6139258818903
 30
0.0
  0
POINT
  5
E1
330
41
100
AcDbEntity
  8
1
 62
     3
 60
     1
100
AcDbPoint
 10
1159.703673096178
 20
-723.6139258818903
 30
0.0
  0
POINT
  5
E2
330
41
100
AcDbEntity
  8
1
 62
     3
 60
     1
100
AcDbPoint
 10
1159.703673096178
 20
-722.6139258818903
 30
0.0
  0
POINT
  5
E3
330
41
100
AcDbEntity
  8
1
 62
     3
 60
     1
100
AcDbPoint
 10
1344.703673096178
 20
-723.6139258818903
 30
0.0
  0
POINT
  5
E4
330
41
100
AcDbEntity
  8
1
 62
     3
 60
     1
100
AcDbPoint
 10
1345.703673096178
 20
-722.6139258818903
 30
0.0
  0
POINT
  5
E5
330
41
100
AcDbEntity
  8
1
 62
     3
 60
     1
100
AcDbPoint
 10
1344.703673096178
 20
-722.6139258818903
 30
0.0
  0
ENDBLK
  5
45
330
41
100
AcDbEntity
  8
0
100
AcDbBlockEnd
  0
BLOCK
  5
151
330
147
100
AcDbEntity
  8
0
100
AcDbBlockBegin
  2
*D05
 70
     1
 71
     0
 10
0.0
 20
0.0
 30
0.0
  3
*D05
  1

  0
LINE
  5
148
330
147
100
AcDbEntity
  8
1
  6
Continuous
 62
     2
100
AcDbLine
 10
154.4258064516128
 20
-316.472906193184
 30
0.0
 11
557.4258064516129
 21
-316.472906193184
 31
0.0
  0
LINE
  5
149
330
147
100
AcDbEntity
  8
1
  6
Continuous
 62
     2
100
AcDbLine
 10
154.4258064516128
 20
-129.166935483871
 30
0.0
 11
154.4258064516128
 21
-317.472906193184
 31
0.0
  0
LINE
  5
14A
330
147
100
AcDbEntity
  8
1
  6
Continuous
 62
     2
100
AcDbLine
 10
557.4258064516129
 20
-129.166935483871
 30
0.0
 11
557.4258064516129
 21
-317.472906193184
 31
0.0
  0
LINE
  5
14B
330
147
100
AcDbEntity
  8
1
 62
     2
100
AcDbLine
 10
154.4258064516128
 20
-316.472906193184
 30
0.0
 11
164.4258064516128
 21
-313.7934142688728
 31
0.0
  0
LINE
  5
14C
330
147
100
AcDbEntity
  8
1
 62
     2
100
AcDbLine
 10
154.4258064516128
 20
-316.472906193184
 30
0.0
 11
164.4258064516128
 21
-319.1523981174952
 31
0.0
  0
LINE
  5
14D
330
147
100
AcDbEntity
  8
1
 62
     2
100
AcDbLine
 10
557.4258064516129
 20
-316.472906193184
 30
0.0
 11
547.4258064516129
 21
-319.1523981174952
 31
0.0
  0
LINE
  5
14E
330
147
100
AcDbEntity
  8
1
 62
     2
100
AcDbLine
 10
557.4258064516129
 20
-316.472906193184
 30
0.0
 11
547.4258064516129
 21
-313.7934142688728
 31
0.0
  0
MTEXT
  5
150
330
147
100
AcDbEntity
  8
1
 62
     2
100
AcDbMText
 10
342.8604269841438
 20
-314.872906193184
 30
0.0
 40
10.0
 41
0.0
 71
     7
 72
     1
  1
403
  7
CONVERTER_2
 11
0.9999999999970621
 21
2.424068405545307E-6
 31
0.0
 73
     1
 44
0.60024009603842
  0
ENDBLK
  5
152
330
147
100
AcDbEntity
  8
0
100
AcDbBlockEnd
  0
BLOCK
  5
154
330
153
100
AcDbEntity
  8
0
100
AcDbBlockBegin
  2
_Open30
 70
     0
 71
     0
 10
0.0
 20
0.0
 30
0.0
  3
_Open30
  1

  0
LINE
  5
156
330
153
100
AcDbEntity
  8
0
  6
ByBlock
 62
     0
370
    -2
100
AcDbLine
 10
-1.0
 20
0.267949
 30
0.0
 11
0.0
 21
0.0
 31
0.0
  0
LINE
  5
157
330
153
100
AcDbEntity
  8
0
  6
ByBlock
 62
     0
370
    -2
100
AcDbLine
 10
0.0
 20
0.0
 30
0.0
 11
-1.0
 21
-0.267949
 31
0.0
  0
LINE
  5
158
330
153
100
AcDbEntity
  8
0
  6
ByBlock
 62
     0
370
    -2
100
AcDbLine
 10
0.0
 20
0.0
 30
0.0
 11
-1.0
 21
0.0
 31
0.0
  0
ENDBLK
  5
155
330
153
100
AcDbEntity
  8
0
100
AcDbBlockEnd
  0
BLOCK
  5
164
330
15B
100
AcDbEntity
  8
0
100
AcDbBlockBegin
  2
*D17
 70
     1
 71
     0
 10
0.0
 20
0.0
 30
0.0
  3
*D17
  1

  0
LINE
  5
15C
330
15B
100
AcDbEntity
  8
1
  6
Continuous
 62
     2
100
AcDbLine
 10
598.601837097348
 20
-128.166935483871
 30
0.0
 11
598.601837097348
 21
121.833064516129
 31
0.0
  0
LINE
  5
15D
330
15B
100
AcDbEntity
  8
1
  6
Continuous
 62
     2
100
AcDbLine
 10
558.425806451613
 20
-128.166935483871
 30
0.0
 11
599.601837097348
 21
-128.166935483871
 31
0.0
  0
LINE
  5
15E
330
15B
100
AcDbEntity
  8
1
  6
Continuous
 62
     2
100
AcDbLine
 10
558.425806451613
 20
121.833064516129
 30
0.0
 11
599.601837097348
 21
121.833064516129
 31
0.0
  0
LINE
  5
15F
330
15B
100
AcDbEntity
  8
1
 62
     2
100
AcDbLine
 10
598.601837097348
 20
-128.166935483871
 30
0.0
 11
595.9223451730368
 21
-118.166935483871
 31
0.0
  0
LINE
  5
160
330
15B
100
AcDbEntity
  8
1
 62
     2
100
AcDbLine
 10
598.601837097348
 20
-128.166935483871
 30
0.0
 11
601.2813290216593
 21
-118.166935483871
 31
0.0
  0
LINE
  5
161
330
15B
100
AcDbEntity
  8
1
 62
     2
100
AcDbLine
 10
598.601837097348
 20
121.833064516129
 30
0.0
 11
601.2813290216593
 21
111.833064516129
 31
0.0
  0
LINE
  5
162
330
15B
100
AcDbEntity
  8
1
 62
     2
100
AcDbLine
 10
598.601837097348
 20
121.833064516129
 30
0.0
 11
595.9223451730368
 21
111.833064516129
 31
0.0
  0
MTEXT
  5
163
330
15B
100
AcDbEntity
  8
1
 62
     2
100
AcDbMText
 10
597.001837097348
 20
-33.384628440252
 30
0.0
 40
10.0
 41
0.0
 71
     7
 72
     1
  1
250
  7
CONVERTER_2
 11
0.0
 21
1.0
 31
0.0
 73
     1
 44
0.60024009603842
  0
ENDBLK
  5
165
330
15B
100
AcDbEntity
  8
0
100
AcDbBlockEnd
  0
BLOCK
  5
171
330
168
100
AcDbEntity
  8
0
100
AcDbBlockBegin
  2
*D28
 70
     1
 71
     0
 10
0.0
 20
0.0
 30
0.0
  3
*D28
  1

  0
LINE
  5
169
330
168
100
AcDbEntity
  8
1
  6
Continuous
 62
     2
100
AcDbLine
 10
623.4296295059821
 20
-3.16693548387107
 30
0.0
 11
623.4296295059821
 21
186.833064516129
 31
0.0
  0
LINE
  5
16A
330
168
100
AcDbEntity
  8
1
  6
Continuous
 62
     2
100
AcDbLine
 10
574.9511046830291
 20
-3.16693548387107
 30
0.0
 11
624.4296295059821
 21
-3.16693548387107
 31
0.0
  0
LINE
  5
16B
330
168
100
AcDbEntity
  8
1
  6
Continuous
 62
     2
100
AcDbLine
 10
386.925806451613
 20
186.833064516129
 30
0.0
 11
624.4296295059821
 21
186.833064516129
 31
0.0
  0
LINE
  5
16C
330
168
100
AcDbEntity
  8
1
 62
     2
100
AcDbLine
 10
623.4296295059821
 20
-3.16693548387107
 30
0.0
 11
620.7501375816709
 21
6.83306451612893
 31
0.0
  0
LINE
  5
16D
330
168
100
AcDbEntity
  8
1
 62
     2
100
AcDbLine
 10
623.4296295059821
 20
-3.16693548387107
 30
0.0
 11
626.1091214302934
 21
6.83306451612893
 31
0.0
  0
LINE
  5
16E
330
168
100
AcDbEntity
  8
1
 62
     2
100
AcDbLine
 10
623.4296295059821
 20
186.833064516129
 30
0.0
 11
626.1091214302934
 21
176.833064516129
 31
0.0
  0
LINE
  5
16F
330
168
100
AcDbEntity
  8
1
 62
     2
100
AcDbLine
 10
623.4296295059821
 20
186.833064516129
 30
0.0
 11
620.7501375816709
 21
176.833064516129
 31
0.0
  0
MTEXT
  5
170
330
168
100
AcDbEntity
  8
1
 62
     2
100
AcDbMText
 10
621.8296295059821
 20
74.3752071958871
 30
0.0
 40
10.0
 41
0.0
 71
     7
 72
     1
  1
190
  7
CONVERTER_2
 11
0.0
 21
1.0
 31
0.0
 73
     1
 44
0.60024009603842
  0
ENDBLK
  5
172
330
168
100
AcDbEntity
  8
0
100
AcDbBlockEnd
  0
BLOCK
  5
17E
330
175
100
AcDbEntity
  8
0
100
AcDbBlockBegin
  2
*D39
 70
     1
 71
     0
 10
0.0
 20
0.0
 30
0.0
  3
*D39
  1

  0
LINE
  5
176
330
175
100
AcDbEntity
  8
1
  6
Continuous
 62
     2
100
AcDbLine
 10
624.8650771910332
 20
-3.1669354838711
 30
0.0
 11
624.8650771910332
 21
-273.1669354838712
 31
0.0
  0
LINE
  5
177
330
175
100
AcDbEntity
  8
1
  6
Continuous
 62
     2
100
AcDbLine
 10
481.9258064516131
 20
-273.1669354838712
 30
0.0
 11
625.8650771910332
 21
-273.1669354838712
 31
0.0
  0
LINE
  5
178
330
175
100
AcDbEntity
  8
1
  6
Continuous
 62
     2
100
AcDbLine
 10
574.9511046830291
 20
-3.1669354838711
 30
0.0
 11
625.8650771910332
 21
-3.1669354838711
 31
0.0
  0
LINE
  5
179
330
175
100
AcDbEntity
  8
1
 62
     2
100
AcDbLine
 10
624.8650771910332
 20
-3.1669354838711
 30
0.0
 11
627.5445691153444
 21
-13.1669354838711
 31
0.0
  0
LINE
  5
17A
330
175
100
AcDbEntity
  8
1
 62
     2
100
AcDbLine
 10
624.8650771910332
 20
-3.1669354838711
 30
0.0
 11
622.1855852667219
 21
-13.1669354838711
 31
0.0
  0
LINE
  5
17B
330
175
100
AcDbEntity
  8
1
 62
     2
100
AcDbLine
 10
624.8650771910332
 20
-273.1669354838712
 30
0.0
 11
622.1855852667219
 21
-263.1669354838712
 31
0.0
  0
LINE
  5
17C
330
175
100
AcDbEntity
  8
1
 62
     2
100
AcDbLine
 10
624.8650771910332
 20
-273.1669354838712
 30
0.0
 11
627.5445691153444
 21
-263.1669354838712
 31
0.0
  0
MTEXT
  5
17D
330
175
100
AcDbEntity
  8
1
 62
     2
100
AcDbMText
 10
623.2650771910331
 20
-134.9907752933012
 30
0.0
 40
10.0
 41
0.0
 71
     7
 72
     1
  1
270
  7
CONVERTER_2
 11
0.0
 21
1.0
 31
0.0
 73
     1
 44
0.60024009603842
  0
ENDBLK
  5
17F
330
175
100
AcDbEntity
  8
0
100
AcDbBlockEnd
  0
BLOCK
  5
18B
330
182
100
AcDbEntity
  8
0
100
AcDbBlockBegin
  2
*D410
 70
     1
 71
     0
 10
0.0
 20
0.0
 30
0.0
  3
*D410
  1

  0
LINE
  5
183
330
182
100
AcDbEntity
  8
1
  6
Continuous
 62
     2
100
AcDbLine
 10
622.8979405344891
 20
186.833064516129
 30
0.0
 11
622.8979405344891
 21
357.333064516129
 31
0.0
  0
LINE
  5
184
330
182
100
AcDbEntity
  8
1
  6
Continuous
 62
     2
100
AcDbLine
 10
386.9258064516131
 20
186.833064516129
 30
0.0
 11
623.8979405344891
 21
186.833064516129
 31
0.0
  0
LINE
  5
185
330
182
100
AcDbEntity
  8
1
  6
Continuous
 62
     2
100
AcDbLine
 10
360.4758095516129
 20
357.333064516129
 30
0.0
 11
623.8979405344891
 21
357.333064516129
 31
0.0
  0
LINE
  5
186
330
182
100
AcDbEntity
  8
1
 62
     2
100
AcDbLine
 10
622.8979405344891
 20
186.833064516129
 30
0.0
 11
620.2184486101778
 21
196.833064516129
 31
0.0
  0
LINE
  5
187
330
182
100
AcDbEntity
  8
1
 62
     2
100
AcDbLine
 10
622.8979405344891
 20
186.833064516129
 30
0.0
 11
625.5774324588003
 21
196.833064516129
 31
0.0
  0
LINE
  5
188
330
182
100
AcDbEntity
  8
1
 62
     2
100
AcDbLine
 10
622.8979405344891
 20
357.333064516129
 30
0.0
 11
625.5774324588003
 21
347.333064516129
 31
0.0
  0
LINE
  5
189
330
182
100
AcDbEntity
  8
1
 62
     2
100
AcDbLine
 10
622.8979405344891
 20
357.333064516129
 30
0.0
 11
620.2184486101778
 21
347.333064516129
 31
0.0
  0
MTEXT
  5
18A
330
182
100
AcDbEntity
  8
1
 62
     2
100
AcDbMText
 10
621.297940534489
 20
272.2597884233207
 30
0.0
 40
10.0
 41
0.0
 71
     7
 72
     1
  1
170.5
  7
CONVERTER_2
 11
0.0
 21
1.0
 31
0.0
 73
     1
 44
0.60024009603842
  0
ENDBLK
  5
18C
330
182
100
AcDbEntity
  8
0
100
AcDbBlockEnd
  0
ENDSEC
  0
SECTION
  2
ENTITIES
  0
INSERT
  5
46
330
1F
100
AcDbEntity
  8
0
100
AcDbBlockReference
  2
Top__1
 10
1072.8226980803
 20
-778.14325188064
 30
0.0
  0
INSERT
  5
47
330
1F
100
AcDbEntity
  8
0
100
AcDbBlockReference
  2
TOP
 10
647.533006377063
 20
-269.261730310878
 30
0.0
  0
LINE
  5
E6
330
1F
100
AcDbEntity
  8
1
  6
Continuous
 62
     7
100
AcDbLine
 10
260.9258064516131
 20
-58.92130913161911
 30
0.0
 11
260.9258064516131
 21
-83.16693548387104
 31
0.0
  0
LINE
  5
E7
330
1F
100
AcDbEntity
  8
1
  6
Continuous
 62
     7
100
AcDbLine
 10
260.9258064516131
 20
-83.16693548387104
 30
0.0
 11
178.4258064516132
 21
-83.16693548387104
 31
0.0
  0
LINE
  5
E8
330
1F
100
AcDbEntity
  8
1
  6
Continuous
 62
     7
100
AcDbLine
 10
178.425806451613
 20
76.83306451612896
 30
0.0
 11
178.4258064516132
 21
-83.16693548387104
 31
0.0
  0
LINE
  5
E9
330
1F
100
AcDbEntity
  8
1
  6
Continuous
 62
     7
100
AcDbLine
 10
209.2824393704736
 20
-72.92307351097595
 30
0.0
 11
178.4258064516132
 21
-83.16693548387104
 31
0.0
  0
LINE
  5
EA
330
1F
100
AcDbEntity
  8
1
  6
Continuous
 62
     7
100
AcDbLine
 10
499.7367157156301
 20
65.99446007762337
 30
0.0
 11
533.4258064516131
 21
76.83306451612896
 31
0.0
  0
LINE
  5
EB
330
1F
100
AcDbEntity
  8
1
  6
Continuous
 62
     7
100
AcDbLine
 10
533.425806451613
 20
-126.166935483871
 30
0.0
 11
533.4258064516131
 21
76.83306451612894
 31
0.0
  0
LINE
  5
EC
330
1F
100
AcDbEntity
  8
1
  6
Continuous
 62
     7
100
AcDbLine
 10
430.7589541870921
 20
76.83306451612896
 30
0.0
 11
533.4258064516131
 21
76.83306451612896
 31
0.0
  0
LINE
  5
ED
330
1F
100
AcDbEntity
  8
1
  6
Continuous
 62
     7
100
AcDbLine
 10
355.925806451613
 20
116.833064516129
 30
0.0
 11
295.9258064516131
 21
116.833064516129
 31
0.0
  0
LINE
  5
EE
330
1F
100
AcDbEntity
  8
1
  6
Continuous
 62
     7
100
AcDbLine
 10
378.425806451613
 20
156.833064516129
 30
0.0
 11
333.425806451613
 21
156.833064516129
 31
0.0
  0
LINE
  5
EF
330
1F
100
AcDbEntity
  8
1
  6
Continuous
 62
     7
100
AcDbLine
 10
378.425806451613
 20
116.833064516129
 30
0.0
 11
378.425806451613
 21
156.833064516129
 31
0.0
  0
LINE
  5
F0
330
1F
100
AcDbEntity
  8
1
  6
Continuous
 62
     7
100
AcDbLine
 10
333.425806451613
 20
156.833064516129
 30
0.0
 11
325.925806451613
 21
156.833064516129
 31
0.0
  0
LINE
  5
F1
330
1F
100
AcDbEntity
  8
1
  6
Continuous
 62
     7
100
AcDbLine
 10
333.425806451613
 20
156.833064516129
 30
0.0
 11
333.4258064516131
 21
116.833064516129
 31
0.0
  0
LINE
  5
F2
330
1F
100
AcDbEntity
  8
1
  6
Continuous
 62
     7
100
AcDbLine
 10
480.9258064516131
 20
-107.6702250999444
 30
0.0
 11
480.925806451613
 21
-142.666935483871
 31
0.0
  0
LINE
  5
F3
330
1F
100
AcDbEntity
  8
1
  6
Continuous
 62
     7
100
AcDbLine
 10
517.7219227129622
 20
-77.45118924062506
 30
0.0
 11
533.4258064516129
 21
-83.16693548387104
 31
0.0
  0
LINE
  5
F4
330
1F
100
AcDbEntity
  8
1
  6
Continuous
 62
     7
100
AcDbLine
 10
379.2572287216945
 20
186.833064516129
 30
0.0
 11
385.925806451613
 21
186.833064516129
 31
0.0
  0
LINE
  5
F5
330
1F
100
AcDbEntity
  8
1
  6
Continuous
 62
     7
100
AcDbLine
 10
379.2572287216945
 20
194.333064516129
 30
0.0
 11
379.2572287216945
 21
186.833064516129
 31
0.0
  0
LINE
  5
F6
330
1F
100
AcDbEntity
  8
1
  6
Continuous
 62
     7
100
AcDbLine
 10
377.2572287216945
 20
194.333064516129
 30
0.0
 11
379.2572287216945
 21
194.333064516129
 31
0.0
  0
LINE
  5
F7
330
1F
100
AcDbEntity
  8
1
  6
Continuous
 62
     7
100
AcDbLine
 10
379.725806451613
 20
208.333064516129
 30
0.0
 11
377.2572287216945
 21
194.333064516129
 31
0.0
  0
LINE
  5
F8
330
1F
100
AcDbEntity
  8
1
  6
Continuous
 62
     7
100
AcDbLine
 10
325.925806451613
 20
186.833064516129
 30
0.0
 11
332.5943841815316
 21
186.833064516129
 31
0.0
  0
LINE
  5
F9
330
1F
100
AcDbEntity
  8
1
  6
Continuous
 62
     7
100
AcDbLine
 10
332.5943841815316
 20
186.833064516129
 30
0.0
 11
332.5943841815316
 21
194.333064516129
 31
0.0
  0
LINE
  5
FA
330
1F
100
AcDbEntity
  8
1
  6
Continuous
 62
     7
100
AcDbLine
 10
332.5943841815316
 20
194.333064516129
 30
0.0
 11
334.5943841815316
 21
194.333064516129
 31
0.0
  0
LINE
  5
FB
330
1F
100
AcDbEntity
  8
1
  6
Continuous
 62
     7
100
AcDbLine
 10
334.5943841815316
 20
194.333064516129
 30
0.0
 11
332.125806451613
 21
208.333064516129
 31
0.0
  0
LINE
  5
FC
330
1F
100
AcDbEntity
  8
1
  6
Continuous
 62
     7
100
AcDbLine
 10
379.725806451613
 20
208.333064516129
 30
0.0
 11
379.725806451613
 21
218.833064516129
 31
0.0
  0
LINE
  5
FD
330
1F
100
AcDbEntity
  8
1
  6
Continuous
 62
     7
100
AcDbLine
 10
332.125806451613
 20
208.333064516129
 30
0.0
 11
332.125806451613
 21
218.833064516129
 31
0.0
  0
LINE
  5
FE
330
1F
100
AcDbEntity
  8
1
  6
Continuous
 62
     7
100
AcDbLine
 10
385.925806451613
 20
186.833064516129
 30
0.0
 11
385.925806451613
 21
156.833064516129
 31
0.0
  0
LINE
  5
FF
330
1F
100
AcDbEntity
  8
1
  6
Continuous
 62
     7
100
AcDbLine
 10
325.925806451613
 20
186.833064516129
 30
0.0
 11
325.925806451613
 21
156.833064516129
 31
0.0
  0
LINE
  5
100
330
1F
100
AcDbEntity
  8
1
  6
Continuous
 62
     7
100
AcDbLine
 10
154.4258064516131
 20
121.833064516129
 30
0.0
 11
176.425806451613
 21
121.833064516129
 31
0.0
  0
LINE
  5
101
330
1F
100
AcDbEntity
  8
1
  6
Continuous
 62
     7
100
AcDbLine
 10
154.4258064516132
 20
59.33306451612896
 30
0.0
 11
154.4258064516131
 21
121.833064516129
 31
0.0
  0
LINE
  5
102
330
1F
100
AcDbEntity
  8
1
  6
Continuous
 62
     7
100
AcDbLine
 10
176.425806451613
 20
-128.166935483871
 30
0.0
 11
154.425806451613
 21
-128.166935483871
 31
0.0
  0
LINE
  5
103
330
1F
100
AcDbEntity
  8
1
  6
Continuous
 62
     7
100
AcDbLine
 10
557.425806451613
 20
121.833064516129
 30
0.0
 11
557.425806451613
 21
-128.166935483871
 31
0.0
  0
LINE
  5
104
330
1F
100
AcDbEntity
  8
1
  6
Continuous
 62
     7
100
AcDbLine
 10
557.425806451613
 20
-128.166935483871
 30
0.0
 11
535.425806451613
 21
-128.166935483871
 31
0.0
  0
LINE
  5
105
330
1F
100
AcDbEntity
  8
1
  6
Continuous
 62
     7
100
AcDbLine
 10
533.4258064516131
 20
76.83306451612896
 30
0.0
 11
533.425806451613
 21
119.833064516129
 31
0.0
  0
LINE
  5
106
330
1F
100
AcDbEntity
  8
1
  6
Continuous
 62
     7
100
AcDbLine
 10
535.425806451613
 20
121.833064516129
 30
0.0
 11
557.425806451613
 21
121.833064516129
 31
0.0
  0
LINE
  5
107
330
1F
100
AcDbEntity
  8
1
  6
DOT_CENTER
 62
     1
100
AcDbLine
 10
355.925806451613
 20
-174.94266645358
 30
0.0
 11
355.925806451613
 21
234.320164482121
 31
0.0
  0
LINE
  5
108
330
1F
100
AcDbEntity
  8
1
  6
Continuous
 62
     7
100
AcDbLine
 10
332.125806451613
 20
218.833064516129
 30
0.0
 11
379.725806451613
 21
218.833064516129
 31
0.0
  0
LINE
  5
109
330
1F
100
AcDbEntity
  8
1
  6
Continuous
 62
     7
100
AcDbLine
 10
154.425806451613
 20
-128.166935483871
 30
0.0
 11
154.4258064516132
 21
59.33306451612896
 31
0.0
  0
LINE
  5
10A
330
1F
100
AcDbEntity
  8
1
  6
Continuous
 62
     7
100
AcDbLine
 10
178.4258064516132
 20
-83.16693548387104
 30
0.0
 11
178.425806451613
 21
-126.166935483871
 31
0.0
  0
LINE
  5
10B
330
1F
100
AcDbEntity
  8
1
  6
Continuous
 62
     7
100
AcDbLine
 10
178.425806451613
 20
119.833064516129
 30
0.0
 11
178.425806451613
 21
76.83306451612896
 31
0.0
  0
LINE
  5
10C
330
1F
100
AcDbEntity
  8
1
  6
Continuous
 62
     7
100
AcDbLine
 10
265.925806451613
 20
-148.666935483871
 30
0.0
 11
445.925806451613
 21
-148.666935483871
 31
0.0
  0
LINE
  5
10D
330
1F
100
AcDbEntity
  8
1
  6
Continuous
 62
     7
100
AcDbLine
 10
265.925806451613
 20
-145.666935483871
 30
0.0
 11
265.925806451613
 21
-148.666935483871
 31
0.0
  0
LINE
  5
10E
330
1F
100
AcDbEntity
  8
1
  6
Continuous
 62
     7
100
AcDbLine
 10
233.925806451613
 20
-145.666935483871
 30
0.0
 11
265.925806451613
 21
-145.666935483871
 31
0.0
  0
LINE
  5
10F
330
1F
100
AcDbEntity
  8
1
  6
Continuous
 62
     7
100
AcDbLine
 10
230.9258064516131
 20
-130.1690108659681
 30
0.0
 11
230.925806451613
 21
-142.666935483871
 31
0.0
  0
LINE
  5
110
330
1F
100
AcDbEntity
  8
1
  6
Continuous
 62
     7
100
AcDbLine
 10
254.3460078848698
 20
-114.6426792816469
 30
0.0
 11
237.5056050183564
 21
-120.772084658109
 31
0.0
  0
LINE
  5
111
330
1F
100
AcDbEntity
  8
1
  6
Continuous
 62
     7
100
AcDbLine
 10
260.9258064516131
 20
-83.16693548387104
 30
0.0
 11
260.9258064516131
 21
-105.2457530737878
 31
0.0
  0
LINE
  5
112
330
1F
100
AcDbEntity
  8
1
  6
Continuous
 62
     7
100
AcDbLine
 10
445.9258064516132
 20
-145.666935483871
 30
0.0
 11
445.925806451613
 21
-148.666935483871
 31
0.0
  0
LINE
  5
113
330
1F
100
AcDbEntity
  8
1
  6
Continuous
 62
     7
100
AcDbLine
 10
477.925806451613
 20
-145.666935483871
 30
0.0
 11
445.9258064516132
 21
-145.666935483871
 31
0.0
  0
LINE
  5
114
330
1F
100
AcDbEntity
  8
1
  6
DOT_CENTER
 62
     1
100
AcDbLine
 10
137.9961182140052
 20
-3.16693548387104
 30
0.0
 11
573.9511046830291
 21
-3.16693548387107
 31
0.0
  0
LINE
  5
115
330
1F
100
AcDbEntity
  8
1
  6
Continuous
 62
     7
100
AcDbLine
 10
195.5030522971981
 20
70.61745534508989
 30
0.0
 11
178.425806451613
 21
76.83306451612896
 31
0.0
  0
LINE
  5
116
330
1F
100
AcDbEntity
  8
1
  6
Continuous
 62
     7
100
AcDbLine
 10
445.9258064516131
 20
-114.6426792816469
 30
0.0
 11
254.3460078848698
 21
-114.6426792816469
 31
0.0
  0
LINE
  5
117
330
1F
100
AcDbEntity
  8
1
  6
Continuous
 62
     7
100
AcDbLine
 10
385.925806451613
 20
156.833064516129
 30
0.0
 11
378.425806451613
 21
156.833064516129
 31
0.0
  0
LINE
  5
118
330
1F
100
AcDbEntity
  8
1
  6
Continuous
 62
     7
100
AcDbLine
 10
332.5943841815316
 20
186.833064516129
 30
0.0
 11
379.2572287216945
 21
186.833064516129
 31
0.0
  0
LINE
  5
119
330
1F
100
AcDbEntity
  8
1
  6
Continuous
 62
     7
100
AcDbLine
 10
377.2572287216945
 20
194.333064516129
 30
0.0
 11
334.5943841815316
 21
194.333064516129
 31
0.0
  0
LINE
  5
11A
330
1F
100
AcDbEntity
  8
1
  6
Continuous
 62
     7
100
AcDbLine
 10
383.9258064516131
 20
-78.16693548387106
 30
0.0
 11
325.9258064516131
 21
-78.16693548387106
 31
0.0
  0
LINE
  5
11B
330
1F
100
AcDbEntity
  8
1
  6
Continuous
 62
     7
100
AcDbLine
 10
325.9258064516131
 20
-78.16693548387106
 30
0.0
 11
325.9258064516131
 21
-83.16693548387106
 31
0.0
  0
LINE
  5
11C
330
1F
100
AcDbEntity
  8
1
  6
Continuous
 62
     7
100
AcDbLine
 10
383.9258064516131
 20
-78.16693548387106
 30
0.0
 11
383.9258064516131
 21
-75.66693548387106
 31
0.0
  0
LINE
  5
11D
330
1F
100
AcDbEntity
  8
1
  6
Continuous
 62
     7
100
AcDbLine
 10
383.9258064516131
 20
-75.66693548387106
 30
0.0
 11
395.9258064516131
 21
-80.66693548387106
 31
0.0
  0
LINE
  5
11E
330
1F
100
AcDbEntity
  8
1
  6
Continuous
 62
     7
100
AcDbLine
 10
395.9258064516131
 20
-80.66693548387106
 30
0.0
 11
383.9258064516131
 21
-85.66693548387106
 31
0.0
  0
LINE
  5
11F
330
1F
100
AcDbEntity
  8
1
  6
Continuous
 62
     7
100
AcDbLine
 10
383.9258064516131
 20
-85.66693548387106
 30
0.0
 11
383.9258064516131
 21
-83.16693548387106
 31
0.0
  0
LINE
  5
120
330
1F
100
AcDbEntity
  8
1
  6
Continuous
 62
     7
100
AcDbLine
 10
353.425806451613
 20
-103.1669354838711
 30
0.0
 11
358.425806451613
 21
-103.1669354838711
 31
0.0
  0
LINE
  5
121
330
1F
100
AcDbEntity
  8
1
  6
Continuous
 62
     7
100
AcDbLine
 10
358.425806451613
 20
-103.1669354838711
 30
0.0
 11
358.425806451613
 21
-98.16693548387106
 31
0.0
  0
LINE
  5
122
330
1F
100
AcDbEntity
  8
1
  6
Continuous
 62
     7
100
AcDbLine
 10
353.425806451613
 20
-98.16693548387106
 30
0.0
 11
353.425806451613
 21
-103.1669354838711
 31
0.0
  0
LINE
  5
123
330
1F
100
AcDbEntity
  8
1
  6
Continuous
 62
     7
100
AcDbLine
 10
325.9258064516131
 20
-83.16693548387106
 30
0.0
 11
360.1970498962902
 21
-83.16693548387106
 31
0.0
  0
LINE
  5
124
330
1F
100
AcDbEntity
  8
1
  6
Continuous
 62
     7
100
AcDbLine
 10
373.4258064516131
 20
-83.16693548387106
 30
0.0
 11
383.9258064516131
 21
-83.16693548387106
 31
0.0
  0
LINE
  5
125
330
1F
100
AcDbEntity
  8
WORKLAYER
  6
Continuous
 62
     7
100
AcDbLine
 10
376.0147346516129
 20
62.58914521612892
 30
0.0
 11
352.7746223516129
 21
31.07675501612912
 31
0.0
  0
LINE
  5
126
330
1F
100
AcDbEntity
  8
WORKLAYER
  6
Continuous
 62
     7
100
AcDbLine
 10
376.0147346516129
 20
62.58914521612892
 30
0.0
 11
361.4404243516129
 21
62.58914521612892
 31
0.0
  0
LINE
  5
127
330
1F
100
AcDbEntity
  8
WORKLAYER
  6
Continuous
 62
     7
100
AcDbLine
 10
338.9878181516129
 20
31.07675501612912
 30
0.0
 11
352.7746223516129
 21
31.07675501612912
 31
0.0
  0
LINE
  5
128
330
1F
100
AcDbEntity
  8
WORKLAYER
  6
Continuous
 62
     7
100
AcDbLine
 10
338.9878181516129
 20
31.07675501612912
 30
0.0
 11
350.8050178516133
 21
46.83306451612894
 31
0.0
  0
LINE
  5
129
330
1F
100
AcDbEntity
  8
WORKLAYER
  6
Continuous
 62
     7
100
AcDbLine
 10
355.925806451613
 20
46.83306451612894
 30
0.0
 11
350.8050178516133
 21
46.83306451612894
 31
0.0
  0
LINE
  5
12A
330
1F
100
AcDbEntity
  8
WORKLAYER
  6
Continuous
 62
     7
100
AcDbLine
 10
361.4404243516129
 20
62.58914521612892
 30
0.0
 11
361.4404243516129
 21
52.34756421612892
 31
0.0
  0
LINE
  5
12B
330
1F
100
AcDbEntity
  8
WORKLAYER
  6
Continuous
 62
     7
100
AcDbLine
 10
335.4428047516131
 20
62.58914521612892
 30
0.0
 11
349.623224651613
 21
46.83306451612894
 31
0.0
  0
LINE
  5
12C
330
1F
100
AcDbEntity
  8
WORKLAYER
  6
Continuous
 62
     7
100
AcDbLine
 10
349.623224651613
 20
62.58914521612892
 30
0.0
 11
349.623224651613
 21
46.83306451612894
 31
0.0
  0
LINE
  5
12D
330
1F
100
AcDbEntity
  8
WORKLAYER
  6
Continuous
 62
     7
100
AcDbLine
 10
335.4428047516131
 20
62.58914521612892
 30
0.0
 11
349.623224651613
 21
62.58914521612892
 31
0.0
  0
ARC
  5
12E
330
1F
100
AcDbEntity
  8
1
  6
Continuous
 62
     7
100
AcDbCircle
 10
180.9258064516132
 20
12.49297515380947
 30
0.0
 40
89.99999999999994
100
AcDbArc
 50
-71.63473700285836
 51
-45.57299599919437
  0
ARC
  5
12F
330
1F
100
AcDbEntity
  8
1
  6
Continuous
 62
     7
100
AcDbCircle
 10
533.4258064516132
 20
-38.71965150903287
 30
0.0
 40
110.0
100
AcDbArc
 50
107.8342531009576
 51
132.0184598569893
  0
ARC
  5
130
330
1F
100
AcDbEntity
  8
1
  6
Continuous
 62
     7
100
AcDbCircle
 10
355.925806451613
 20
26.83306451612895
 30
0.0
 40
90.00000000000023
100
AcDbArc
 50
33.74898859588851
 51
90.0
  0
ARC
  5
131
330
1F
100
AcDbEntity
  8
1
  6
Continuous
 62
     7
100
AcDbCircle
 10
533.4258064516131
 20
-145.6669354838711
 30
0.0
 40
70.0
100
AcDbArc
 50
102.9641411684745
 51
130.5416018735045
  0
ARC
  5
132
330
1F
100
AcDbEntity
  8
1
  6
Continuous
 62
     7
100
AcDbCircle
 10
500.9258064516131
 20
-107.6702250999444
 30
0.0
 40
20.00000000000005
100
AcDbArc
 50
130.5416018735044
 51
180.0
  0
ARC
  5
133
330
1F
100
AcDbEntity
  8
1
  6
Continuous
 62
     7
100
AcDbCircle
 10
295.9258064516131
 20
26.83306451612895
 30
0.0
 40
90.00000000000006
100
AcDbArc
 50
90.0
 51
135.3217359939804
  0
ARC
  5
134
330
1F
100
AcDbEntity
  8
1
  6
Continuous
 62
     7
100
AcDbCircle
 10
182.1552039217855
 20
139.333064516129
 30
0.0
 40
70.0
100
AcDbArc
 50
-79.00732202966832
 51
-44.67826400601958
  0
ARC
  5
135
330
1F
100
AcDbEntity
  8
1
  6
Continuous
 62
     7
100
AcDbCircle
 10
373.4258064516131
 20
-98.16693548387106
 30
0.0
 40
15.0
100
AcDbArc
 50
90.0
 51
180.0
  0
ARC
  5
136
330
1F
100
AcDbEntity
  8
1
  6
Continuous
 62
     7
100
AcDbCircle
 10
373.4258064516131
 20
-98.16693548387106
 30
0.0
 40
19.99999999999996
100
AcDbArc
 50
131.4096221092707
 51
180.0
  0
ARC
  5
137
330
1F
100
AcDbEntity
  8
WORKLAYER
  6
Continuous
 62
     7
100
AcDbCircle
 10
355.925806451613
 20
52.34756421612892
 30
0.0
 40
5.51463990000002
100
AcDbArc
 50
-90.0
 51
0.0
  0
ARC
  5
138
330
1F
100
AcDbEntity
  8
1
  6
Continuous
 62
     7
100
AcDbCircle
 10
453.1014062173375
 20
50.43185283612046
 30
0.0
 40
10.00000000000001
100
AcDbArc
 50
-166.3501377474182
 51
-47.98154014301078
  0
ARC
  5
139
330
1F
100
AcDbEntity
  8
1
  6
Continuous
 62
     7
100
AcDbCircle
 10
355.925806451613
 20
26.83306451612895
 30
0.0
 40
90.0000000000002
100
AcDbArc
 50
13.64986225258169
 51
33.74898859588851
  0
ARC
  5
13A
330
1F
100
AcDbEntity
  8
1
  6
Continuous
 62
     7
100
AcDbCircle
 10
535.425806451613
 20
119.833064516129
 30
0.0
 40
2.0
100
AcDbArc
 50
90.0
 51
180.0
  0
ARC
  5
13B
330
1F
100
AcDbEntity
  8
1
  6
Continuous
 62
     7
100
AcDbCircle
 10
535.425806451613
 20
-126.166935483871
 30
0.0
 40
2.0
100
AcDbArc
 50
180.0
 51
-90.0
  0
ARC
  5
13C
330
1F
100
AcDbEntity
  8
1
  6
Continuous
 62
     7
100
AcDbCircle
 10
176.4258064516132
 20
119.833064516129
 30
0.0
 40
1.999999999999801
100
AcDbArc
 50
0.0
 51
90.0000000000057
  0
ARC
  5
13D
330
1F
100
AcDbEntity
  8
1
  6
Continuous
 62
     7
100
AcDbCircle
 10
176.4258064516131
 20
-126.166935483871
 30
0.0
 40
1.999999999999986
100
AcDbArc
 50
-90.00000000000325
 51
0.0
  0
ARC
  5
13E
330
1F
100
AcDbEntity
  8
1
  6
Continuous
 62
     7
100
AcDbCircle
 10
250.9258064516131
 20
-58.92130913161911
 30
0.0
 40
9.999999999999972
100
AcDbArc
 50
0.0
 51
134.4270040008057
  0
ARC
  5
13F
330
1F
100
AcDbEntity
  8
1
  6
Continuous
 62
     7
100
AcDbCircle
 10
250.9258064516131
 20
-105.2457530737878
 30
0.0
 40
10.00000000000003
100
AcDbArc
 50
-70.00000000000003
 51
0.0
  0
ARC
  5
140
330
1F
100
AcDbEntity
  8
1
  6
Continuous
 62
     7
100
AcDbCircle
 10
240.9258064516131
 20
-130.1690108659681
 30
0.0
 40
10.00000000000002
100
AcDbArc
 50
110.0000000000002
 51
180.0
  0
ARC
  5
141
330
1F
100
AcDbEntity
  8
1
  6
Continuous
 62
     7
100
AcDbCircle
 10
233.925806451613
 20
-142.666935483871
 30
0.0
 40
3.0
100
AcDbArc
 50
180.0
 51
-90.0
  0
ARC
  5
142
330
1F
100
AcDbEntity
  8
1
  6
Continuous
 62
     7
100
AcDbCircle
 10
477.9258064516131
 20
-142.666935483871
 30
0.0
 40
3.0
100
AcDbArc
 50
-90.00000000000109
 51
0.0
  0
MTEXT
  5
143
330
1F
100
AcDbEntity
  8
1
 62
     7
100
AcDbMText
 10
209.1238879620551
 20
-3.16693548387105
 30
0.0
 40
15.0
 41
0.0
 71
     5
 72
     1
  1
A
  7
CONVERTER_1
 73
     1
 44
0.84033613445378
  0
MTEXT
  5
144
330
1F
100
AcDbEntity
  8
1
 62
     7
100
AcDbMText
 10
503.3121240837921
 20
-3.16693548387105
 30
0.0
 40
15.0
 41
0.0
 71
     5
 72
     1
  1
AB
  7
CONVERTER_1
 73
     1
 44
0.84033613445378
  0
MTEXT
  5
145
330
1F
100
AcDbEntity
  8
1
 62
     7
100
AcDbMText
 10
355.925806451613
 20
-28.16693548387105
 30
0.0
 40
35.0
 41
0.0
 71
     2
 72
     1
  1
5
  7
CONVERTER_1
 73
     1
 44
0.84033613445378
  0
MTEXT
  5
146
330
1F
100
AcDbEntity
  8
1
 62
     7
100
AcDbMText
 10
355.925806451613
 20
-128.1669354838711
 30
0.0
 40
12.0
 41
0.0
 71
     2
 72
     1
  1
10K
  7
CONVERTER_1
 73
     1
 44
0.84033613445378
  0
DIMENSION
  5
15A
330
1F
100
AcDbEntity
  8
1
100
AcDbDimension
  2
*D05
 10
154.4258064516128
 20
-316.472906193184
 30
0.0
 11
354.8604269841438
 21
-309.872906193184
 31
0.0
  1
<>
 71
     5
 42
0.0
 53
0.00013888888889
  3
ME10_DIM_0
100
AcDbAlignedDimension
 13
557.425806451613
 23
-128.166935483871
 33
0.0
 14
154.425806451613
 24
-128.166935483871
 34
0.0
100
AcDbRotatedDimension
  0
DIMENSION
  5
167
330
1F
100
AcDbEntity
  8
1
100
AcDbDimension
  2
*D17
 10
598.601837097348
 20
-128.166935483871
 30
0.0
 11
592.001837097348
 21
-21.384628440252
 31
0.0
  1
<>
 71
     5
 42
0.0
 53
90.0
  3
ME10_DIM_1
100
AcDbAlignedDimension
 13
557.425806451613
 23
121.833064516129
 33
0.0
 14
557.425806451613
 24
-128.166935483871
 34
0.0
 50
90.0
100
AcDbRotatedDimension
  0
DIMENSION
  5
174
330
1F
100
AcDbEntity
  8
1
100
AcDbDimension
  2
*D28
 10
623.4296295059821
 20
-3.16693548387107
 30
0.0
 11
616.8296295059821
 21
84.8752071958871
 31
0.0
  1
<>
 71
     5
 42
0.0
 53
90.0
  3
ME10_DIM_2
100
AcDbAlignedDimension
 13
385.925806451613
 23
186.833064516129
 33
0.0
 14
573.9511046830291
 24
-3.16693548387107
 34
0.0
 50
90.0
100
AcDbRotatedDimension
  0
DIMENSION
  5
181
330
1F
100
AcDbEntity
  8
1
100
AcDbDimension
  2
*D39
 10
624.8650771910332
 20
-3.1669354838711
 30
0.0
 11
618.2650771910331
 21
-122.9907752933012
 31
0.0
  1
<>
 71
     5
 42
0.0
 53
90.0
  3
ME10_DIM_3
100
AcDbAlignedDimension
 13
480.925806451613
 23
-273.1669354838712
 33
0.0
 14
573.9511046830291
 24
-3.16693548387107
 34
0.0
 50
90.0
100
AcDbRotatedDimension
  0
DIMENSION
  5
18E
330
1F
100
AcDbEntity
  8
1
100
AcDbDimension
  2
*D410
 10
622.8979405344891
 20
186.833064516129
 30
0.0
 11
616.297940534489
 21
288.8847884233207
 31
0.0
  1
<>
 71
     5
 42
0.0
 53
90.0
  3
ME10_DIM_4
100
AcDbAlignedDimension
 13
359.4758095516129
 23
357.333064516129
 33
0.0
 14
385.925806451613
 24
186.833064516129
 34
0.0
 50
90.0
100
AcDbRotatedDimension
  0
ENDSEC
  0
SECTION
  2
OBJECTS
  0
DICTIONARY
  5
C
330
0
100
AcDbDictionary
281
     1
  3
ACAD_GROUP
350
D
  3
ACAD_LAYOUT
350
1A
  3
ACAD_MLINESTYLE
350
17
  3
ACAD_PLOTSETTINGS
350
19
  3
ACAD_PLOTSTYLENAME
350
E
  3
ACAD_TABLESTYLE
350
2A
  3
AcDbVariableDictionary
350
2C
  0
DICTIONARY
  5
D
102
{ACAD_REACTORS
330
C
102
}
330
C
100
AcDbDictionary
281
     1
  0
DICTIONARY
  5
1A
102
{ACAD_REACTORS
330
C
102
}
330
C
100
AcDbDictionary
281
     1
  3
Layout1
350
1E
  3
Layout2
350
26
  3
Model
350
22
  0
DICTIONARY
  5
17
102
{ACAD_REACTORS
330
C
102
}
330
C
100
AcDbDictionary
281
     1
  3
Standard
350
18
  0
DICTIONARY
  5
19
102
{ACAD_REACTORS
330
C
102
}
330
C
100
AcDbDictionary
281
     1
  0
ACDBDICTIONARYWDFLT
  5
E
102
{ACAD_REACTORS
330
C
102
}
330
C
100
AcDbDictionary
281
     1
  3
Normal
350
F
100
AcDbDictionaryWithDefault
340
F
  0
DICTIONARY
  5
2A
102
{ACAD_REACTORS
330
C
102
}
330
C
100
AcDbDictionary
281
     1
  3
Standard
350
2B
  0
DICTIONARY
  5
2C
102
{ACAD_REACTORS
330
C
102
}
330
C
100
AcDbDictionary
281
     1
  3
CTABLESTYLE
350
2D
  0
LAYOUT
  5
1E
102
{ACAD_REACTORS
330
1A
102
}
330
1A
100
AcDbPlotSettings
  1

  2

  4

  6

 40
0.0
 41
0.0
 42
0.0
 43
0.0
 44
0.0
 45
0.0
 46
0.0
 47
0.0
 48
0.0
 49
0.0
140
0.0
141
0.0
142
1.0
143
1.0
 70
   688
 72
     0
 73
     0
 74
     5
  7

 75
    16
147
1.0
148
0.0
149
0.0
100
AcDbLayout
  1
Layout1
 70
     1
 71
     1
 10
0.0
 20
0.0
 11
12.0
 21
9.0
 12
0.0
 22
0.0
 32
0.0
 14
1.00000000000000E+20
 24
1.00000000000000E+20
 34
1.00000000000000E+20
 15
-1.00000000000000E+20
 25
-1.00000000000000E+20
 35
-1.00000000000000E+20
146
0.0
 13
0.0
 23
0.0
 33
0.0
 16
1.0
 26
0.0
 36
0.0
 17
0.0
 27
1.0
 37
0.0
 76
     0
330
1B
  0
LAYOUT
  5
26
102
{ACAD_REACTORS
330
1A
102
}
330
1A
100
AcDbPlotSettings
  1

  2

  4

  6

 40
0.0
 41
0.0
 42
0.0
 43
0.0
 44
0.0
 45
0.0
 46
0.0
 47
0.0
 48
0.0
 49
0.0
140
0.0
141
0.0
142
1.0
143
1.0
 70
   688
 72
     0
 73
     0
 74
     5
  7

 75
    16
147
1.0
148
0.0
149
0.0
100
AcDbLayout
  1
Layout2
 70
     1
 71
     2
 10
0.0
 20
0.0
 11
0.0
 21
0.0
 12
0.0
 22
0.0
 32
0.0
 14
0.0
 24
0.0
 34
0.0
 15
0.0
 25
0.0
 35
0.0
146
0.0
 13
0.0
 23
0.0
 33
0.0
 16
1.0
 26
0.0
 36
0.0
 17
0.0
 27
1.0
 37
0.0
 76
     0
330
23
  0
LAYOUT
  5
22
102
{ACAD_REACTORS
330
1A
102
}
330
1A
100
AcDbPlotSettings
  1

  2

  4

  6

 40
0.0
 41
0.0
 42
0.0
 43
0.0
 44
0.0
 45
0.0
 46
0.0
 47
0.0
 48
0.0
 49
0.0
140
0.0
141
0.0
142
1.0
143
1.0
 70
  1712
 72
     0
 73
     0
 74
     0
  7

 75
     0
147
1.0
148
0.0
149
0.0
100
AcDbLayout
  1
Model
 70
     1
 71
     0
 10
0.0
 20
0.0
 11
0.0
 21
0.0
 12
0.0
 22
0.0
 32
0.0
 14
137.9961182140052
 24
-319.1523981174952
 34
0.0
 15
627.5445691153444
 25
360.6012913882143
 35
0.0
146
0.0
 13
0.0
 23
0.0
 33
0.0
 16
1.0
 26
0.0
 36
0.0
 17
0.0
 27
1.0
 37
0.0
 76
     0
330
1F
  0
MLINESTYLE
  5
18
102
{ACAD_REACTORS
330
17
102
}
330
17
100
AcDbMlineStyle
  2
Standard
 70
     0
  3

 62
   256
 51
90.0
 52
90.0
 71
     2
 49
0.5
 62
   256
  6
BYLAYER
 49
-0.5
 62
   256
  6
BYLAYER
  0
ACDBPLACEHOLDER
  5
F
102
{ACAD_REACTORS
330
E
102
}
330
E
  0
TABLESTYLE
  5
2B
102
{ACAD_REACTORS
330
2A
102
}
330
2A
100
AcDbTableStyle
  3
Standard
 70
     0
 71
     0
 40
0.06
 41
0.06
280
     0
281
     0
  7
Standard
140
0.18
170
     2
 62
     0
 63
     7
283
     0
274
    -2
284
     1
 64
     0
275
    -2
285
     1
 65
     0
276
    -2
286
     1
 66
     0
277
    -2
287
     1
 67
     0
278
    -2
288
     1
 68
     0
279
    -2
289
     1
 69
     0
  7
Standard
140
0.25
170
     5
 62
     0
 63
     7
283
     0
274
    -2
284
     1
 64
     0
275
    -2
285
     1
 65
     0
276
    -2
286
     1
 66
     0
277
    -2
287
     1
 67
     0
278
    -2
288
     1
 68
     0
279
    -2
289
     1
 69
     0
  7
Standard
140
0.18
170
     5
 62
     0
 63
     7
283
     0
274
    -2
284
     1
 64
     0
275
    -2
285
     1
 65
     0
276
    -2
286
     1
 66
     0
277
    -2
287
     1
 67
     0
278
    -2
288
     1
 68
     0
279
    -2
289
     1
 69
     0
  0
DICTIONARYVAR
  5
2D
102
{ACAD_REACTORS
330
2C
102
}
330
2C
100
DictionaryVariables
280
     0
  1
Standard
  0
ENDSEC
  0
EOF
