  0
SECTION
  2
HEADER
  9
$ACADVER
  1
AC1015
  9
$ACADMAINTVER
 70
     6
  9
$DWGCODEPAGE
  3
DOS932
  9
$INSBASE
 10
0.0
 20
0.0
 30
0.0
  9
$EXTMIN
 10
114.5405257202302
 20
-351.9400743513652
 30
0.0
  9
$EXTMAX
 10
640.9858673297323
 20
380.6012913882143
 30
0.0
  9
$LIMMIN
 10
0.0
 20
0.0
  9
$LIMMAX
 10
12.0
 20
9.0
  9
$ORTHOMODE
 70
     0
  9
$REGENMODE
 70
     1
  9
$FILLMODE
 70
     1
  9
$QTEXTMODE
 70
     0
  9
$MIRRTEXT
 70
     1
  9
$LTSCALE
 40
1.0
  9
$ATTMODE
 70
     1
  9
$TEXTSIZE
 40
0.2
  9
$TRACEWID
 40
0.05
  9
$TEXTSTYLE
  7
Standard
  9
$CLAYER
  8
0
  9
$CELTYPE
  6
ByLayer
  9
$CECOLOR
 62
   256
  9
$CELTSCALE
 40
1.0
  9
$DISPSILH
 70
     0
  9
$DIMSCALE
 40
1.0
  9
$DIMASZ
 40
0.18
  9
$DIMEXO
 40
0.0625
  9
$DIMDLI
 40
0.38
  9
$DIMRND
 40
0.0
  9
$DIMDLE
 40
0.0
  9
$DIMEXE
 40
0.18
  9
$DIMTP
 40
0.0
  9
$DIMTM
 40
0.0
  9
$DIMTXT
 40
0.18
  9
$DIMCEN
 40
0.09
  9
$DIMTSZ
 40
0.0
  9
$DIMTOL
 70
     0
  9
$DIMLIM
 70
     0
  9
$DIMTIH
 70
     1
  9
$DIMTOH
 70
     1
  9
$DIMSE1
 70
     0
  9
$DIMSE2
 70
     0
  9
$DIMTAD
 70
     0
  9
$DIMZIN
 70
     0
  9
$DIMBLK
  1

  9
$DIMASO
 70
     1
  9
$DIMSHO
 70
     1
  9
$DIMPOST
  1

  9
$DIMAPOST
  1

  9
$DIMALT
 70
     0
  9
$DIMALTD
 70
     2
  9
$DIMALTF
 40
25.4
  9
$DIMLFAC
 40
1.0
  9
$DIMTOFL
 70
     0
  9
$DIMTVP
 40
0.0
  9
$DIMTIX
 70
     0
  9
$DIMSOXD
 70
     0
  9
$DIMSAH
 70
     0
  9
$DIMBLK1
  1

  9
$DIMBLK2
  1

  9
$DIMSTYLE
  2
Standard
  9
$DIMCLRD
 70
     0
  9
$DIMCLRE
 70
     0
  9
$DIMCLRT
 70
     0
  9
$DIMTFAC
 40
1.0
  9
$DIMGAP
 40
0.09
  9
$DIMJUST
 70
     0
  9
$DIMSD1
 70
     0
  9
$DIMSD2
 70
     0
  9
$DIMTOLJ
 70
     1
  9
$DIMTZIN
 70
     0
  9
$DIMALTZ
 70
     0
  9
$DIMALTTZ
 70
     0
  9
$DIMUPT
 70
     0
  9
$DIMDEC
 70
     4
  9
$DIMTDEC
 70
     4
  9
$DIMALTU
 70
     2
  9
$DIMALTTD
 70
     2
  9
$DIMTXSTY
  7
Standard
  9
$DIMAUNIT
 70
     0
  9
$DIMADEC
 70
     0
  9
$DIMALTRND
 40
0.0
  9
$DIMAZIN
 70
     0
  9
$DIMDSEP
 70
    46
  9
$DIMATFIT
 70
     3
  9
$DIMFRAC
 70
     0
  9
$DIMLDRBLK
  1

  9
$DIMLUNIT
 70
     2
  9
$DIMLWD
 70
    -2
  9
$DIMLWE
 70
    -2
  9
$DIMTMOVE
 70
     0
  9
$LUNITS
 70
     2
  9
$LUPREC
 70
     4
  9
$SKETCHINC
 40
0.1
  9
$FILLETRAD
 40
0.5
  9
$AUNITS
 70
     0
  9
$AUPREC
 70
     0
  9
$MENU
  1
.
  9
$ELEVATION
 40
0.0
  9
$PELEVATION
 40
0.0
  9
$THICKNESS
 40
0.0
  9
$LIMCHECK
 70
     0
  9
$CHAMFERA
 40
0.5
  9
$CHAMFERB
 40
0.5
  9
$CHAMFERC
 40
1.0
  9
$CHAMFERD
 40
0.0
  9
$SKPOLY
 70
     0
  9
$TDCREATE
 40
2453873.554313322
  9
$TDUCREATE
 40
2453873.179313322
  9
$TDUPDATE
 40
2453873.554313333
  9
$TDUUPDATE
 40
2453873.179313333
  9
$TDINDWG
 40
0.0000000116
  9
$TDUSRTIMER
 40
0.0000000116
  9
$USRTIMER
 70
     1
  9
$ANGBASE
 50
0.0
  9
$ANGDIR
 70
     0
  9
$PDMODE
 70
     0
  9
$PDSIZE
 40
0.0
  9
$PLINEWID
 40
0.0
  9
$SPLFRAME
 70
     0
  9
$SPLINETYPE
 70
     6
  9
$SPLINESEGS
 70
     8
  9
$HANDSEED
  5
1A6
  9
$SURFTAB1
 70
     6
  9
$SURFTAB2
 70
     6
  9
$SURFTYPE
 70
     6
  9
$SURFU
 70
     6
  9
$SURFV
 70
     6
  9
$UCSBASE
  2

  9
$UCSNAME
  2

  9
$UCSORG
 10
0.0
 20
0.0
 30
0.0
  9
$UCSXDIR
 10
1.0
 20
0.0
 30
0.0
  9
$UCSYDIR
 10
0.0
 20
1.0
 30
0.0
  9
$UCSORTHOREF
  2

  9
$UCSORTHOVIEW
 70
     0
  9
$UCSORGTOP
 10
0.0
 20
0.0
 30
0.0
  9
$UCSORGBOTTOM
 10
0.0
 20
0.0
 30
0.0
  9
$UCSORGLEFT
 10
0.0
 20
0.0
 30
0.0
  9
$UCSORGRIGHT
 10
0.0
 20
0.0
 30
0.0
  9
$UCSORGFRONT
 10
0.0
 20
0.0
 30
0.0
  9
$UCSORGBACK
 10
0.0
 20
0.0
 30
0.0
  9
$PUCSBASE
  2

  9
$PUCSNAME
  2

  9
$PUCSORG
 10
0.0
 20
0.0
 30
0.0
  9
$PUCSXDIR
 10
1.0
 20
0.0
 30
0.0
  9
$PUCSYDIR
 10
0.0
 20
1.0
 30
0.0
  9
$PUCSORTHOREF
  2

  9
$PUCSORTHOVIEW
 70
     0
  9
$PUCSORGTOP
 10
0.0
 20
0.0
 30
0.0
  9
$PUCSORGBOTTOM
 10
0.0
 20
0.0
 30
0.0
  9
$PUCSORGLEFT
 10
0.0
 20
0.0
 30
0.0
  9
$PUCSORGRIGHT
 10
0.0
 20
0.0
 30
0.0
  9
$PUCSORGFRONT
 10
0.0
 20
0.0
 30
0.0
  9
$PUCSORGBACK
 10
0.0
 20
0.0
 30
0.0
  9
$USERI1
 70
     0
  9
$USERI2
 70
     0
  9
$USERI3
 70
     0
  9
$USERI4
 70
     0
  9
$USERI5
 70
     0
  9
$USERR1
 40
13.01
  9
$USERR2
 40
0.0
  9
$USERR3
 40
0.0
  9
$USERR4
 40
0.0
  9
$USERR5
 40
0.0
  9
$WORLDVIEW
 70
     1
  9
$SHADEDGE
 70
     3
  9
$SHADEDIF
 70
    70
  9
$TILEMODE
 70
     1
  9
$MAXACTVP
 70
    64
  9
$PINSBASE
 10
0.0
 20
0.0
 30
0.0
  9
$PLIMCHECK
 70
     0
  9
$PEXTMIN
 10
1.00000000000000E+20
 20
1.00000000000000E+20
 30
1.00000000000000E+20
  9
$PEXTMAX
 10
-1.00000000000000E+20
 20
-1.00000000000000E+20
 30
-1.00000000000000E+20
  9
$PLIMMIN
 10
0.0
 20
0.0
  9
$PLIMMAX
 10
12.0
 20
9.0
  9
$UNITMODE
 70
     0
  9
$VISRETAIN
 70
     1
  9
$PLINEGEN
 70
     0
  9
$PSLTSCALE
 70
     1
  9
$TREEDEPTH
 70
  3020
  9
$CMLSTYLE
  2
Standard
  9
$CMLJUST
 70
     0
  9
$CMLSCALE
 40
1.0
  9
$PROXYGRAPHICS
 70
     1
  9
$MEASUREMENT
 70
     1
  9
$CELWEIGHT
370
    -1
  9
$ENDCAPS
280
     0
  9
$JOINSTYLE
280
     0
  9
$LWDISPLAY
290
     0
  9
$INSUNITS
 70
     1
  9
$HYPERLINKBASE
  1

  9
$STYLESHEET
  1

  9
$XEDIT
290
     1
  9
$CEPSNTYPE
380
     0
  9
$PSTYLEMODE
290
     0
  9
$FINGERPRINTGUID
  2
{FAEB1C30-E019-11D5-929B-00C0DF256EC4}
  9
$VERSIONGUID
  2
{FAEB1C32-E019-11D5-929B-00C0DF256EC4}
  9
$EXTNAMES
290
     1
  9
$PSVPSCALE
 40
0.0
  9
$OLESTARTUP
290
     0
  0
ENDSEC
  0
SECTION
  2
CLASSES
  0
CLASS
  1
ACDBDICTIONARYWDFLT
  2
AcDbDictionaryWithDefault
  3
ObjectDBX Classes
 90
        0
280
     0
281
     0
  0
CLASS
  1
TABLESTYLE
  2
AcDbTableStyle
  3
ObjectDBX Classes
 90
     2047
280
     0
281
     0
  0
CLASS
  1
DICTIONARYVAR
  2
AcDbDictionaryVar
  3
ObjectDBX Classes
 90
        0
280
     0
281
     0
  0
CLASS
  1
ACDBPLACEHOLDER
  2
AcDbPlaceHolder
  3
ObjectDBX Classes
 90
        0
280
     0
281
     0
  0
CLASS
  1
LAYOUT
  2
AcDbLayout
  3
ObjectDBX Classes
 90
        0
280
     0
281
     0
  0
ENDSEC
  0
SECTION
  2
TABLES
  0
TABLE
  2
VPORT
  5
8
330
0
100
AcDbSymbolTable
 70
     2
  0
VPORT
  5
29
330
8
100
AcDbSymbolTableRecord
100
AcDbViewportTableRecord
  2
*Active
 70
     0
 10
0.0
 20
0.0
 11
1.0
 21
1.0
 12
377.7631965249813
 22
14.33060851842456
 13
0.0
 23
0.0
 14
0.5
 24
0.5
 15
0.5
 25
0.5
 16
0.0
 26
0.0
 36
1.0
 17
0.0
 27
0.0
 37
0.0
 40
805.7955023135376
 41
1.60267857142857
 42
50.0
 43
0.0
 44
0.0
 50
0.0
 51
0.0
 71
     0
 72
   100
 73
     1
 74
     3
 75
     0
 76
     0
 77
     0
 78
     0
281
     0
 65
     1
110
0.0
120
0.0
130
0.0
111
1.0
121
0.0
131
0.0
112
0.0
122
1.0
132
0.0
 79
     0
146
0.0
  0
ENDTAB
  0
TABLE
  2
LTYPE
  5
5
330
0
100
AcDbSymbolTable
 70
     9
  0
LTYPE
  5
14
330
5
100
AcDbSymbolTableRecord
100
AcDbLinetypeTableRecord
  2
ByBlock
 70
     0
  3

 72
    65
 73
     0
 40
0.0
  0
LTYPE
  5
15
330
5
100
AcDbSymbolTableRecord
100
AcDbLinetypeTableRecord
  2
ByLayer
 70
     0
  3

 72
    65
 73
     0
 40
0.0
  0
LTYPE
  5
16
330
5
100
AcDbSymbolTableRecord
100
AcDbLinetypeTableRecord
  2
Continuous
 70
     0
  3
Solid line
 72
    65
 73
     0
 40
0.0
  0
LTYPE
  5
2E
330
5
100
AcDbSymbolTableRecord
100
AcDbLinetypeTableRecord
  2
DASHED
 70
     0
  3
Dashed
 72
    65
 73
     2
 40
15.0
 49
7.0
 74
     0
 49
-8.0
 74
     0
  0
LTYPE
  5
2F
330
5
100
AcDbSymbolTableRecord
100
AcDbLinetypeTableRecord
  2
DOTTED
 70
     0
  3
Dotted
 72
    65
 73
     2
 40
1.0
 49
0.0
 74
     0
 49
-1.0
 74
     0
  0
LTYPE
  5
30
330
5
100
AcDbSymbolTableRecord
100
AcDbLinetypeTableRecord
  2
DOT_CENTER
 70
     0
  3
Dot_Center
 72
    65
 73
     4
 40
14.0
 49
12.0
 74
     0
 49
-1.0
 74
     0
 49
0.0
 74
     0
 49
-1.0
 74
     0
  0
LTYPE
  5
31
330
5
100
AcDbSymbolTableRecord
100
AcDbLinetypeTableRecord
  2
LONG_DASHED
 70
     0
  3
Long_Dashed
 72
    65
 73
     2
 40
15.0
 49
10.0
 74
     0
 49
-5.0
 74
     0
  0
LTYPE
  5
32
330
5
100
AcDbSymbolTableRecord
100
AcDbLinetypeTableRecord
  2
DASH_CENTER
 70
     0
  3
Dash_Center
 72
    65
 73
     4
 40
14.0
 49
11.0
 74
     0
 49
-1.0
 74
     0
 49
1.0
 74
     0
 49
-1.0
 74
     0
  0
LTYPE
  5
33
330
5
100
AcDbSymbolTableRecord
100
AcDbLinetypeTableRecord
  2
PHANTOM
 70
     0
  3
Phantom
 72
    65
 73
     6
 40
13.0
 49
10.0
 74
     0
 49
-1.0
 74
     0
 49
0.0
 74
     0
 49
-1.0
 74
     0
 49
0.0
 74
     0
 49
-1.0
 74
     0
  0
LTYPE
  5
34
330
5
100
AcDbSymbolTableRecord
100
AcDbLinetypeTableRecord
  2
CENTER_DASH_DASH
 70
     0
  3
Center_Dash_Dash
 72
    65
 73
     6
 40
14.0
 49
9.0
 74
     0
 49
-1.0
 74
     0
 49
1.0
 74
     0
 49
-1.0
 74
     0
 49
1.0
 74
     0
 49
-1.0
 74
     0
  0
LTYPE
  5
35
330
5
100
AcDbSymbolTableRecord
100
AcDbLinetypeTableRecord
  2
CENTER_6
 70
     0
  3
CENTER_6
 72
    65
 73
     4
 40
13.0
 49
7.0
 74
     0
 49
-2.0
 74
     0
 49
2.0
 74
     0
 49
-2.0
 74
     0
  0
ENDTAB
  0
TABLE
  2
LAYER
  5
2
330
0
100
AcDbSymbolTable
 70
     3
  0
LAYER
  5
10
330
2
100
AcDbSymbolTableRecord
100
AcDbLayerTableRecord
  2
0
 70
     0
 62
     7
  6
Continuous
370
    -3
390
F
  0
LAYER
  5
36
330
2
100
AcDbSymbolTableRecord
100
AcDbLayerTableRecord
  2
1
 70
     0
 62
     7
  6
Continuous
370
    -3
390
F
  0
LAYER
  5
37
330
2
100
AcDbSymbolTableRecord
100
AcDbLayerTableRecord
  2
WORKLAYER
 70
     0
 62
     7
  6
Continuous
370
    -3
390
F
  0
ENDTAB
  0
TABLE
  2
STYLE
  5
3
330
0
100
AcDbSymbolTable
 70
     3
  0
STYLE
  5
11
330
3
100
AcDbSymbolTableRecord
100
AcDbTextStyleTableRecord
  2
Standard
 70
     0
 40
0.0
 41
1.0
 50
0.0
 71
     0
 42
0.2
  3
txt
  4

  0
STYLE
  5
8C
330
3
100
AcDbSymbolTableRecord
100
AcDbTextStyleTableRecord
  2
CONVERTER_1
 70
     0
 40
0.0
 41
1.14
 50
0.0
 71
     0
 42
0.2
  3
complex.shx
  4

  0
STYLE
  5
166
330
3
100
AcDbSymbolTableRecord
100
AcDbTextStyleTableRecord
  2
CONVERTER_2
 70
     0
 40
0.0
 41
0.9
 50
0.0
 71
     0
 42
0.2
  3
txt.shx
  4

  0
ENDTAB
  0
TABLE
  2
VIEW
  5
6
330
0
100
AcDbSymbolTable
 70
     0
  0
ENDTAB
  0
TABLE
  2
UCS
  5
7
330
0
100
AcDbSymbolTable
 70
     0
  0
ENDTAB
  0
TABLE
  2
APPID
  5
9
330
0
100
AcDbSymbolTable
 70
     1
  0
APPID
  5
12
330
9
100
AcDbSymbolTableRecord
100
AcDbRegAppTableRecord
  2
ACAD
 70
     0
  0
ENDTAB
  0
TABLE
  2
DIMSTYLE
  5
A
330
0
100
AcDbSymbolTable
 70
     6
100
AcDbDimStyleTable
  0
DIMSTYLE
105
27
330
A
100
AcDbSymbolTableRecord
100
AcDbDimStyleTableRecord
  2
Standard
 70
     0
340
11
  0
DIMSTYLE
105
170
102
{ACAD_REACTORS
330
171
102
}
330
A
100
AcDbSymbolTableRecord
100
AcDbDimStyleTableRecord
  2
ME10_DIM_0
 70
     0
 41
10.0
 42
1.0
 44
1.0
 73
     0
 74
     0
 77
     1
 78
     8
140
10.0
147
0.625
172
     1
173
     1
176
     2
177
     2
178
     2
271
     3
340
166
343
16A
344
16A
  0
DIMSTYLE
105
17D
102
{ACAD_REACTORS
330
17E
102
}
330
A
100
AcDbSymbolTableRecord
100
AcDbDimStyleTableRecord
  2
ME10_DIM_1
 70
     0
 41
10.0
 42
1.0
 44
1.0
 73
     0
 74
     0
 77
     1
 78
     8
140
10.0
147
0.625
172
     1
173
     1
176
     2
177
     2
178
     2
271
     3
340
166
343
16A
344
16A
  0
DIMSTYLE
105
18A
102
{ACAD_REACTORS
330
18B
102
}
330
A
100
AcDbSymbolTableRecord
100
AcDbDimStyleTableRecord
  2
ME10_DIM_2
 70
     0
 41
10.0
 42
1.0
 44
1.0
 73
     0
 74
     0
 77
     1
 78
     8
140
10.0
147
0.625
172
     1
173
     1
176
     2
177
     2
178
     2
271
     3
340
166
343
16A
344
16A
  0
DIMSTYLE
105
197
102
{ACAD_REACTORS
330
198
102
}
330
A
100
AcDbSymbolTableRecord
100
AcDbDimStyleTableRecord
  2
ME10_DIM_3
 70
     0
 41
10.0
 42
1.0
 44
1.0
 73
     0
 74
     0
 77
     1
 78
     8
140
10.0
147
0.625
172
     1
173
     1
176
     2
177
     2
178
     2
271
     3
340
166
343
16A
344
16A
  0
DIMSTYLE
105
1A4
102
{ACAD_REACTORS
330
1A5
102
}
330
A
100
AcDbSymbolTableRecord
100
AcDbDimStyleTableRecord
  2
ME10_DIM_4
 70
     0
 41
10.0
 42
1.0
 44
1.0
 73
     0
 74
     0
 77
     1
 78
     8
140
10.0
147
0.625
172
     1
173
     1
176
     2
177
     2
178
     2
271
     3
340
166
343
16A
344
16A
  0
ENDTAB
  0
TABLE
  2
BLOCK_RECORD
  5
1
330
0
100
AcDbSymbolTable
 70
    15
  0
BLOCK_RECORD
  5
1F
330
1
100
AcDbSymbolTableRecord
100
AcDbBlockTableRecord
  2
*Model_Space
340
22
  0
BLOCK_RECORD
  5
1B
330
1
100
AcDbSymbolTableRecord
100
AcDbBlockTableRecord
  2
*Paper_Space
340
1E
  0
BLOCK_RECORD
  5
23
330
1
100
AcDbSymbolTableRecord
100
AcDbBlockTableRecord
  2
*Paper_Space0
340
26
  0
BLOCK_RECORD
  5
38
330
1
100
AcDbSymbolTableRecord
100
AcDbBlockTableRecord
  2
Top__1
340
0
102
{BLKREFS
331
3C
102
}
  0
BLOCK_RECORD
  5
3B
330
1
100
AcDbSymbolTableRecord
100
AcDbBlockTableRecord
  2
Top__2
340
0
102
{BLKREFS
331
55
102
}
  0
BLOCK_RECORD
  5
3F
330
1
100
AcDbSymbolTableRecord
100
AcDbBlockTableRecord
  2
Top__3
340
0
102
{BLKREFS
331
56
102
}
  0
BLOCK_RECORD
  5
42
330
1
100
AcDbSymbolTableRecord
100
AcDbBlockTableRecord
  2
_1
340
0
102
{BLKREFS
331
49
102
}
  0
BLOCK_RECORD
  5
45
330
1
100
AcDbSymbolTableRecord
100
AcDbBlockTableRecord
  2
Top__4
340
0
102
{BLKREFS
331
4A
102
}
  0
BLOCK_RECORD
  5
48
330
1
100
AcDbSymbolTableRecord
100
AcDbBlockTableRecord
  2
TOP
340
0
102
{BLKREFS
331
51
102
}
  0
BLOCK_RECORD
  5
4D
330
1
100
AcDbSymbolTableRecord
100
AcDbBlockTableRecord
  2
Top__5
340
0
102
{BLKREFS
331
52
102
}
  0
BLOCK_RECORD
  5
50
330
1
100
AcDbSymbolTableRecord
100
AcDbBlockTableRecord
  2
Top__6
340
0
102
{BLKREFS
331
57
102
}
  0
BLOCK_RECORD
  5
15E
330
1
100
AcDbSymbolTableRecord
100
AcDbBlockTableRecord
  2
*D09
340
0
  0
BLOCK_RECORD
  5
16A
330
1
100
AcDbSymbolTableRecord
100
AcDbBlockTableRecord
  2
_Open30
340
0
  0
BLOCK_RECORD
  5
172
330
1
100
AcDbSymbolTableRecord
100
AcDbBlockTableRecord
  2
*D111
340
0
  0
BLOCK_RECORD
  5
17F
330
1
100
AcDbSymbolTableRecord
100
AcDbBlockTableRecord
  2
*D212
340
0
  0
BLOCK_RECORD
  5
18C
330
1
100
AcDbSymbolTableRecord
100
AcDbBlockTableRecord
  2
*D313
340
0
  0
BLOCK_RECORD
  5
199
330
1
100
AcDbSymbolTableRecord
100
AcDbBlockTableRecord
  2
*D414
340
0
  0
ENDTAB
  0
ENDSEC
  0
SECTION
  2
BLOCKS
  0
BLOCK
  5
20
330
1F
100
AcDbEntity
  8
0
100
AcDbBlockBegin
  2
*Model_Space
 70
     0
 71
     0
 10
0.0
 20
0.0
 30
0.0
  3
*Model_Space
  1

  0
ENDBLK
  5
21
330
1F
100
AcDbEntity
  8
0
100
AcDbBlockEnd
  0
BLOCK
  5
1C
330
1B
100
AcDbEntity
 67
     1
  8
0
100
AcDbBlockBegin
  2
*Paper_Space
 70
     0
 71
     0
 10
0.0
 20
0.0
 30
0.0
  3
*Paper_Space
  1

  0
ENDBLK
  5
1D
330
1B
100
AcDbEntity
 67
     1
  8
0
100
AcDbBlockEnd
  0
BLOCK
  5
24
330
23
100
AcDbEntity
  8
0
100
AcDbBlockBegin
  2
*Paper_Space0
 70
     0
 71
     0
 10
0.0
 20
0.0
 30
0.0
  3
*Paper_Space0
  1

  0
ENDBLK
  5
25
330
23
100
AcDbEntity
  8
0
100
AcDbBlockEnd
  0
BLOCK
  5
39
330
38
100
AcDbEntity
  8
0
100
AcDbBlockBegin
  2
Top__1
 70
     0
 71
     0
 10
1814.223105079651
 20
-778.14325188064
 30
0.0
  3
Top__1
  1

  0
POINT
  5
58
330
38
100
AcDbEntity
  8
1
 62
     3
 60
     1
100
AcDbPoint
 10
1728.510848999542
 20
-692.3987350420292
 30
0.0
  0
POINT
  5
59
330
38
100
AcDbEntity
  8
1
 62
     3
 60
     1
100
AcDbPoint
 10
1730.010848999542
 20
-693.8987350420292
 30
0.0
  0
POINT
  5
5A
330
38
100
AcDbEntity
  8
1
 62
     3
 60
     1
100
AcDbPoint
 10
1728.510848999542
 20
-692.3987350420292
 30
0.0
  0
POINT
  5
5B
330
38
100
AcDbEntity
  8
1
 62
     3
 60
     1
100
AcDbPoint
 10
1728.510848999542
 20
-830.8987350420293
 30
0.0
  0
POINT
  5
5C
330
38
100
AcDbEntity
  8
1
 62
     3
 60
     1
100
AcDbPoint
 10
1728.510848999542
 20
-832.3987350420293
 30
0.0
  0
POINT
  5
5D
330
38
100
AcDbEntity
  8
1
 62
     3
 60
     1
100
AcDbPoint
 10
1730.010848999542
 20
-830.8987350420293
 30
0.0
  0
ENDBLK
  5
3A
330
38
100
AcDbEntity
  8
0
100
AcDbBlockEnd
  0
BLOCK
  5
3D
330
3B
100
AcDbEntity
  8
0
100
AcDbBlockBegin
  2
Top__2
 70
     0
 71
     0
 10
741.4004069993511
 20
-0.00000000000009
 30
0.0
  3
Top__2
  1

  0
INSERT
  5
3C
330
3B
100
AcDbEntity
  8
0
100
AcDbBlockReference
  2
Top__1
 10
1814.223105079651
 20
-778.14325188064
 30
0.0
  0
ENDBLK
  5
3E
330
3B
100
AcDbEntity
  8
0
100
AcDbBlockEnd
  0
BLOCK
  5
40
330
3F
100
AcDbEntity
  8
0
100
AcDbBlockBegin
  2
Top__3
 70
     0
 71
     0
 10
1086.10293541184
 20
-642.582105628333
 30
0.0
  3
Top__3
  1

  0
POINT
  5
5E
330
3F
100
AcDbEntity
  8
1
 62
     3
 60
     1
100
AcDbPoint
 10
985.2681002882289
 20
-710.3375887897222
 30
0.0
  0
POINT
  5
5F
330
3F
100
AcDbEntity
  8
1
 62
     3
 60
     1
100
AcDbPoint
 10
983.7681002882289
 20
-711.8375887897222
 30
0.0
  0
POINT
  5
60
330
3F
100
AcDbEntity
  8
1
 62
     3
 60
     1
100
AcDbPoint
 10
985.2681002882289
 20
-543.3375887897222
 30
0.0
  0
POINT
  5
61
330
3F
100
AcDbEntity
  8
1
 62
     3
 60
     1
100
AcDbPoint
 10
983.7681002882289
 20
-571.8375887897222
 30
0.0
  0
LINE
  5
62
330
3F
100
AcDbEntity
  8
1
  6
DASH_CENTER
 62
     1
100
AcDbLine
 10
355.925806451613
 20
-183.9737392230909
 30
0.0
 11
355.925806451613
 21
-322.5741660178044
 31
0.0
  0
LINE
  5
63
330
3F
100
AcDbEntity
  8
1
  6
Continuous
 62
     7
100
AcDbLine
 10
265.925806451613
 20
-243.6258962784357
 30
0.0
 11
265.925806451613
 21
-252.6258962784357
 31
0.0
  0
LINE
  5
64
330
3F
100
AcDbEntity
  8
1
  6
Continuous
 62
     7
100
AcDbLine
 10
265.925806451613
 20
-234.6258962784357
 30
0.0
 11
265.925806451613
 21
-243.6258962784357
 31
0.0
  0
LINE
  5
65
330
3F
100
AcDbEntity
  8
1
  6
Continuous
 62
     7
100
AcDbLine
 10
280.925806451613
 20
-313.166935483871
 30
0.0
 11
215.925806451613
 21
-313.166935483871
 31
0.0
  0
LINE
  5
66
330
3F
100
AcDbEntity
  8
1
  6
Continuous
 62
     7
100
AcDbLine
 10
430.925806451613
 20
-313.166935483871
 30
0.0
 11
280.925806451613
 21
-313.166935483871
 31
0.0
  0
LINE
  5
67
330
3F
100
AcDbEntity
  8
1
  6
Continuous
 62
     7
100
AcDbLine
 10
218.925806451613
 20
-287.166935483871
 30
0.0
 11
256.8267869380202
 21
-287.166935483871
 31
0.0
  0
LINE
  5
68
330
3F
100
AcDbEntity
  8
1
  6
Continuous
 62
     7
100
AcDbLine
 10
215.925806451613
 20
-313.166935483871
 30
0.0
 11
215.925806451613
 21
-290.166935483871
 31
0.0
  0
LINE
  5
69
330
3F
100
AcDbEntity
  8
1
  6
Continuous
 62
     7
100
AcDbLine
 10
495.925806451613
 20
-313.166935483871
 30
0.0
 11
430.925806451613
 21
-313.166935483871
 31
0.0
  0
LINE
  5
6A
330
3F
100
AcDbEntity
  8
1
  6
Continuous
 62
     7
100
AcDbLine
 10
495.925806451613
 20
-290.166935483871
 30
0.0
 11
495.925806451613
 21
-313.166935483871
 31
0.0
  0
LINE
  5
6B
330
3F
100
AcDbEntity
  8
1
  6
Continuous
 62
     7
100
AcDbLine
 10
455.0248259652058
 20
-287.166935483871
 30
0.0
 11
492.925806451613
 21
-287.166935483871
 31
0.0
  0
LINE
  5
6C
330
3F
100
AcDbEntity
  8
1
  6
Continuous
 62
     7
100
AcDbLine
 10
502.925806451613
 20
-194.166935483871
 30
0.0
 11
459.5296025518937
 21
-194.166935483871
 31
0.0
  0
LINE
  5
6D
330
3F
100
AcDbEntity
  8
1
  6
Continuous
 62
     7
100
AcDbLine
 10
502.925806451613
 20
-167.166935483871
 30
0.0
 11
466.425806451613
 21
-167.166935483871
 31
0.0
  0
LINE
  5
6E
330
3F
100
AcDbEntity
  8
1
  6
Continuous
 62
     7
100
AcDbLine
 10
208.925806451613
 20
-167.166935483871
 30
0.0
 11
245.4677665600632
 21
-167.166935483871
 31
0.0
  0
LINE
  5
6F
330
3F
100
AcDbEntity
  8
1
  6
Continuous
 62
     7
100
AcDbLine
 10
205.925806451613
 20
-191.166935483871
 30
0.0
 11
205.925806451613
 21
-170.166935483871
 31
0.0
  0
LINE
  5
70
330
3F
100
AcDbEntity
  8
1
  6
Continuous
 62
     7
100
AcDbLine
 10
505.925806451613
 20
-170.166935483871
 30
0.0
 11
505.925806451613
 21
-191.166935483871
 31
0.0
  0
LINE
  5
71
330
3F
100
AcDbEntity
  8
1
  6
Continuous
 62
     7
100
AcDbLine
 10
454.7861860616411
 20
-197.5857966537868
 30
0.0
 11
446.9521404906027
 21
-221.0879333669018
 31
0.0
  0
LINE
  5
72
330
3F
100
AcDbEntity
  8
1
  6
Continuous
 62
     7
100
AcDbLine
 10
445.925806451613
 20
-227.4124886872385
 30
0.0
 11
445.925806451613
 21
-260.1865452120154
 31
0.0
  0
LINE
  5
73
330
3F
100
AcDbEntity
  8
1
  6
Continuous
 62
     7
100
AcDbLine
 10
446.3141929377946
 20
-264.1088679147791
 30
0.0
 11
450.1219225867512
 21
-283.1475161595618
 31
0.0
  0
LINE
  5
74
330
3F
100
AcDbEntity
  8
1
  6
Continuous
 62
     7
100
AcDbLine
 10
261.7296903164749
 20
-283.1475161595618
 30
0.0
 11
265.5374199654314
 21
-264.1088679147791
 31
0.0
  0
LINE
  5
75
330
3F
100
AcDbEntity
  8
1
  6
Continuous
 62
     7
100
AcDbLine
 10
265.925806451613
 20
-260.1865452120154
 30
0.0
 11
265.925806451613
 21
-227.4124886872385
 31
0.0
  0
LINE
  5
76
330
3F
100
AcDbEntity
  8
1
  6
Continuous
 62
     7
100
AcDbLine
 10
264.8994724126233
 20
-221.0879333669018
 30
0.0
 11
257.065426841585
 21
-197.5857966537868
 31
0.0
  0
LINE
  5
77
330
3F
100
AcDbEntity
  8
1
  6
Continuous
 62
     7
100
AcDbLine
 10
208.925806451613
 20
-194.166935483871
 30
0.0
 11
252.3220103513324
 21
-194.166935483871
 31
0.0
  0
LINE
  5
78
330
3F
100
AcDbEntity
  8
1
  6
Continuous
 62
     7
100
AcDbLine
 10
459.5296025518937
 20
-194.166935483871
 30
0.0
 11
252.3220103513324
 21
-194.166935483871
 31
0.0
  0
LINE
  5
79
330
3F
100
AcDbEntity
  8
1
  6
Continuous
 62
     7
100
AcDbLine
 10
256.8267869380202
 20
-287.166935483871
 30
0.0
 11
455.0248259652058
 21
-287.166935483871
 31
0.0
  0
LINE
  5
7A
330
3F
100
AcDbEntity
  8
1
  6
Continuous
 62
     7
100
AcDbLine
 10
463.425806451613
 20
-164.166935483871
 30
0.0
 11
463.425806451613
 21
-163.666935483871
 31
0.0
  0
LINE
  5
7B
330
3F
100
AcDbEntity
  8
1
  6
Continuous
 62
     7
100
AcDbLine
 10
248.425806451613
 20
-164.166935483871
 30
0.0
 11
248.425806451613
 21
-163.666935483871
 31
0.0
  0
ARC
  5
7C
330
3F
100
AcDbEntity
  8
1
  6
Continuous
 62
     7
100
AcDbCircle
 10
218.925806451613
 20
-290.166935483871
 30
0.0
 40
3.0
100
AcDbArc
 50
90.0
 51
180.0
  0
ARC
  5
7D
330
3F
100
AcDbEntity
  8
1
  6
Continuous
 62
     7
100
AcDbCircle
 10
492.9258064516132
 20
-290.166935483871
 30
0.0
 40
2.99999999999983
100
AcDbArc
 50
0.0
 51
90.00000000000325
  0
ARC
  5
7E
330
3F
100
AcDbEntity
  8
1
  6
Continuous
 62
     7
100
AcDbCircle
 10
208.925806451613
 20
-170.166935483871
 30
0.0
 40
3.0
100
AcDbArc
 50
90.0
 51
180.0
  0
ARC
  5
7F
330
3F
100
AcDbEntity
  8
1
  6
Continuous
 62
     7
100
AcDbCircle
 10
208.925806451613
 20
-191.166935483871
 30
0.0
 40
3.0
100
AcDbArc
 50
180.0
 51
-90.0
  0
ARC
  5
80
330
3F
100
AcDbEntity
  8
1
  6
Continuous
 62
     7
100
AcDbCircle
 10
502.9258064516132
 20
-191.166935483871
 30
0.0
 40
3.0
100
AcDbArc
 50
-90.00000000000325
 51
0.0
  0
ARC
  5
81
330
3F
100
AcDbEntity
  8
1
  6
Continuous
 62
     7
100
AcDbCircle
 10
502.9258064516132
 20
-170.166935483871
 30
0.0
 40
2.99999999999983
100
AcDbArc
 50
0.0
 51
90.00000000000325
  0
ARC
  5
82
330
3F
100
AcDbEntity
  8
1
  6
Continuous
 62
     7
100
AcDbCircle
 10
466.425806451613
 20
-164.166935483871
 30
0.0
 40
3.0
100
AcDbArc
 50
180.0
 51
-90.0
  0
ARC
  5
83
330
3F
100
AcDbEntity
  8
1
  6
Continuous
 62
     7
100
AcDbCircle
 10
245.4258064516131
 20
-164.166935483871
 30
0.0
 40
3.0
100
AcDbArc
 50
-90.00000000000217
 51
0.0
  0
ARC
  5
84
330
3F
100
AcDbEntity
  8
1
  6
Continuous
 62
     7
100
AcDbCircle
 10
459.5296025518937
 20
-199.166935483871
 30
0.0
 40
5.0
100
AcDbArc
 50
90.0
 51
161.5650511770779
  0
ARC
  5
85
330
3F
100
AcDbEntity
  8
1
  6
Continuous
 62
     7
100
AcDbCircle
 10
455.0248259652058
 20
-282.166935483871
 30
0.0
 40
4.999999999999975
100
AcDbArc
 50
-168.6900675259809
 51
-90.0
  0
ARC
  5
86
330
3F
100
AcDbEntity
  8
1
  6
Continuous
 62
     7
100
AcDbCircle
 10
465.925806451613
 20
-227.4124886872385
 30
0.0
 40
20.00000000000004
100
AcDbArc
 50
161.5650511770783
 51
180.0
  0
ARC
  5
87
330
3F
100
AcDbEntity
  8
1
  6
Continuous
 62
     7
100
AcDbCircle
 10
465.925806451613
 20
-260.1865452120154
 30
0.0
 40
20.0
100
AcDbArc
 50
180.0
 51
-168.6900675259797
  0
ARC
  5
88
330
3F
100
AcDbEntity
  8
1
  6
Continuous
 62
     7
100
AcDbCircle
 10
245.9258064516131
 20
-260.1865452120154
 30
0.0
 40
19.9999999999999
100
AcDbArc
 50
-11.30993247402039
 51
0.0
  0
ARC
  5
89
330
3F
100
AcDbEntity
  8
1
  6
Continuous
 62
     7
100
AcDbCircle
 10
245.9258064516131
 20
-227.4124886872385
 30
0.0
 40
19.99999999999992
100
AcDbArc
 50
0.0
 51
18.43494882292188
  0
ARC
  5
8A
330
3F
100
AcDbEntity
  8
1
  6
Continuous
 62
     7
100
AcDbCircle
 10
256.8267869380204
 20
-282.166935483871
 30
0.0
 40
5.0
100
AcDbArc
 50
-90.0000000000026
 51
-11.30993247401932
  0
ARC
  5
8B
330
3F
100
AcDbEntity
  8
1
  6
Continuous
 62
     7
100
AcDbCircle
 10
252.3220103513325
 20
-199.166935483871
 30
0.0
 40
4.999999999999951
100
AcDbArc
 50
18.43494882292232
 51
90.00000000000098
  0
MTEXT
  5
8D
330
3F
100
AcDbEntity
  8
1
 62
     7
100
AcDbMText
 10
355.925806451613
 20
-243.7995169496269
 30
0.0
 40
18.0
 41
0.0
 71
     5
 72
     1
  1
B
  7
CONVERTER_1
 73
     1
 44
0.84033613445378
  0
ENDBLK
  5
41
330
3F
100
AcDbEntity
  8
0
100
AcDbBlockEnd
  0
BLOCK
  5
43
330
42
100
AcDbEntity
  8
0
100
AcDbBlockBegin
  2
_1
 70
     0
 71
     0
 10
1969.529315804172
 20
-657.723138730747
 30
0.0
  3
_1
  1

  0
LINE
  5
8E
330
42
100
AcDbEntity
  8
WORKLAYER
  6
Continuous
 62
     7
100
AcDbLine
 10
372.925806451613
 20
238.8330645161291
 30
0.0
 11
378.925806451613
 21
238.8330645161291
 31
0.0
  0
LINE
  5
8F
330
42
100
AcDbEntity
  8
WORKLAYER
  6
Continuous
 62
     7
100
AcDbLine
 10
378.925806451613
 20
239.3330645161291
 30
0.0
 11
378.925806451613
 21
238.8330645161291
 31
0.0
  0
LINE
  5
90
330
42
100
AcDbEntity
  8
WORKLAYER
  6
CENTER_6
 62
     1
100
AcDbLine
 10
375.925806451613
 20
243.1528582161291
 30
0.0
 11
375.925806451613
 21
236.857264916129
 31
0.0
  0
LINE
  5
91
330
42
100
AcDbEntity
  8
WORKLAYER
  6
Continuous
 62
     7
100
AcDbLine
 10
372.925806451613
 20
239.3330645161291
 30
0.0
 11
378.925806451613
 21
239.3330645161291
 31
0.0
  0
LINE
  5
92
330
42
100
AcDbEntity
  8
WORKLAYER
  6
Continuous
 62
     7
100
AcDbLine
 10
340.925806451613
 20
241.8330645161291
 30
0.0
 11
340.925806451613
 21
238.8330645161291
 31
0.0
  0
LINE
  5
93
330
42
100
AcDbEntity
  8
WORKLAYER
  6
Continuous
 62
     1
100
AcDbLine
 10
341.7378162516129
 20
242.3330645161291
 30
0.0
 11
341.7378162516129
 21
238.8330645161291
 31
0.0
  0
LINE
  5
94
330
42
100
AcDbEntity
  8
WORKLAYER
  6
Continuous
 62
     7
100
AcDbLine
 10
370.925806451613
 20
241.8330645161291
 30
0.0
 11
370.9258064516131
 21
238.8330645161291
 31
0.0
  0
LINE
  5
95
330
42
100
AcDbEntity
  8
WORKLAYER
  6
Continuous
 62
     1
100
AcDbLine
 10
370.1137966516128
 20
242.3330645161291
 30
0.0
 11
370.1137966516133
 21
238.8330645161291
 31
0.0
  0
LINE
  5
96
330
42
100
AcDbEntity
  8
WORKLAYER
  6
Continuous
 62
     7
100
AcDbLine
 10
355.925806451613
 20
241.8330645161291
 30
0.0
 11
340.925806451613
 21
241.8330645161291
 31
0.0
  0
LINE
  5
97
330
42
100
AcDbEntity
  8
WORKLAYER
  6
Continuous
 62
     7
100
AcDbLine
 10
341.7378162516129
 20
244.3330645161291
 30
0.0
 11
341.7378162516129
 21
242.3330645161291
 31
0.0
  0
LINE
  5
98
330
42
100
AcDbEntity
  8
WORKLAYER
  6
Continuous
 62
     7
100
AcDbLine
 10
355.925806451613
 20
241.8330645161291
 30
0.0
 11
370.925806451613
 21
241.8330645161291
 31
0.0
  0
LINE
  5
99
330
42
100
AcDbEntity
  8
WORKLAYER
  6
Continuous
 62
     7
100
AcDbLine
 10
370.1137966516128
 20
244.3330645161291
 30
0.0
 11
370.1137966516128
 21
242.3330645161291
 31
0.0
  0
LINE
  5
9A
330
42
100
AcDbEntity
  8
WORKLAYER
  6
Continuous
 62
     7
100
AcDbLine
 10
371.925806451613
 20
256.0830645161291
 30
0.0
 11
371.925806451613
 21
239.8330645161291
 31
0.0
  0
LINE
  5
9B
330
42
100
AcDbEntity
  8
WORKLAYER
  6
Continuous
 62
     7
100
AcDbLine
 10
372.425806451613
 20
256.0830645161291
 30
0.0
 11
372.425806451613
 21
239.8330645161291
 31
0.0
  0
LINE
  5
9C
330
42
100
AcDbEntity
  8
WORKLAYER
  6
Continuous
 62
     7
100
AcDbLine
 10
362.425806451613
 20
249.8330645161291
 30
0.0
 11
362.425806451613
 21
329.3349566161289
 31
0.0
  0
LINE
  5
9D
330
42
100
AcDbEntity
  8
WORKLAYER
  6
Continuous
 62
     7
100
AcDbLine
 10
349.425806451613
 20
329.3349566161289
 30
0.0
 11
349.4258064516131
 21
249.8330645161291
 31
0.0
  0
LINE
  5
9E
330
42
100
AcDbEntity
  8
WORKLAYER
  6
PHANTOM
 62
     1
100
AcDbLine
 10
371.925806451613
 20
244.8330645161291
 30
0.0
 11
374.425806451613
 21
244.8330645161291
 31
0.0
  0
LINE
  5
9F
330
42
100
AcDbEntity
  8
WORKLAYER
  6
Continuous
 62
     7
100
AcDbLine
 10
355.925806451613
 20
249.8330645161291
 30
0.0
 11
339.925806451613
 21
249.8330645161291
 31
0.0
  0
LINE
  5
A0
330
42
100
AcDbEntity
  8
WORKLAYER
  6
Continuous
 62
     7
100
AcDbLine
 10
337.4258064516131
 20
248.3897662161289
 30
0.0
 11
337.425806451613
 21
244.8330645161291
 31
0.0
  0
LINE
  5
A1
330
42
100
AcDbEntity
  8
WORKLAYER
  6
Continuous
 62
     7
100
AcDbLine
 10
339.925806451613
 20
249.8330645161291
 30
0.0
 11
337.4258064516131
 21
248.3897662161289
 31
0.0
  0
LINE
  5
A2
330
42
100
AcDbEntity
  8
WORKLAYER
  6
Continuous
 62
     7
100
AcDbLine
 10
355.925806451613
 20
249.8330645161291
 30
0.0
 11
371.925806451613
 21
249.8330645161291
 31
0.0
  0
LINE
  5
A3
330
42
100
AcDbEntity
  8
WORKLAYER
  6
PHANTOM
 62
     1
100
AcDbLine
 10
374.425806451613
 20
248.3897662161289
 30
0.0
 11
374.425806451613
 21
244.8330645161291
 31
0.0
  0
LINE
  5
A4
330
42
100
AcDbEntity
  8
WORKLAYER
  6
Continuous
 62
     7
100
AcDbLine
 10
355.925806451613
 20
244.8330645161291
 30
0.0
 11
371.925806451613
 21
244.8330645161291
 31
0.0
  0
LINE
  5
A5
330
42
100
AcDbEntity
  8
WORKLAYER
  6
PHANTOM
 62
     1
100
AcDbLine
 10
371.925806451613
 20
249.8330645161291
 30
0.0
 11
374.425806451613
 21
248.3897662161289
 31
0.0
  0
LINE
  5
A6
330
42
100
AcDbEntity
  8
WORKLAYER
  6
Continuous
 62
     7
100
AcDbLine
 10
355.925806451613
 20
244.8330645161291
 30
0.0
 11
337.425806451613
 21
244.8330645161291
 31
0.0
  0
LINE
  5
A7
330
42
100
AcDbEntity
  8
WORKLAYER
  6
Continuous
 62
     7
100
AcDbLine
 10
371.925806451613
 20
256.0830645161291
 30
0.0
 11
372.425806451613
 21
256.0830645161291
 31
0.0
  0
LINE
  5
A8
330
42
100
AcDbEntity
  8
WORKLAYER
  6
Continuous
 62
     7
100
AcDbLine
 10
364.4187263516128
 20
347.333064516129
 30
0.0
 11
365.7328132516127
 21
346.574367016129
 31
0.0
  0
LINE
  5
A9
330
42
100
AcDbEntity
  8
WORKLAYER
  6
Continuous
 62
     7
100
AcDbLine
 10
347.4317878516131
 20
341.3462786161289
 30
0.0
 11
346.117823051613
 21
342.104976116129
 31
0.0
  0
LINE
  5
AA
330
42
100
AcDbEntity
  8
WORKLAYER
  6
Continuous
 62
     7
100
AcDbLine
 10
347.4327644516129
 20
347.333064516129
 30
0.0
 11
364.4187263516128
 21
347.333064516129
 31
0.0
  0
LINE
  5
AB
330
42
100
AcDbEntity
  8
WORKLAYER
  6
Continuous
 62
     7
100
AcDbLine
 10
364.4187263516128
 20
341.3462786161289
 30
0.0
 11
365.7328132516127
 21
342.104976116129
 31
0.0
  0
LINE
  5
AC
330
42
100
AcDbEntity
  8
WORKLAYER
  6
Continuous
 62
     7
100
AcDbLine
 10
360.828760551613
 20
346.4916644161289
 30
0.0
 11
360.828760551613
 21
342.1877703161289
 31
0.0
  0
LINE
  5
AD
330
42
100
AcDbEntity
  8
WORKLAYER
  6
Continuous
 62
     7
100
AcDbLine
 10
351.0217532516131
 20
346.4916644161289
 30
0.0
 11
351.0217532516131
 21
342.187861916129
 31
0.0
  0
LINE
  5
AE
330
42
100
AcDbEntity
  8
WORKLAYER
  6
Continuous
 62
     7
100
AcDbLine
 10
347.4317878516131
 20
347.333064516129
 30
0.0
 11
346.117823051613
 21
346.574367016129
 31
0.0
  0
LINE
  5
AF
330
42
100
AcDbEntity
  8
WORKLAYER
  6
Continuous
 62
     7
100
AcDbLine
 10
346.117823051613
 20
346.574367016129
 30
0.0
 11
346.117823051613
 21
342.104976116129
 31
0.0
  0
LINE
  5
B0
330
42
100
AcDbEntity
  8
WORKLAYER
  6
Continuous
 62
     7
100
AcDbLine
 10
365.7328132516127
 20
346.574367016129
 30
0.0
 11
365.7328132516127
 21
342.104976116129
 31
0.0
  0
LINE
  5
B1
330
42
100
AcDbEntity
  8
WORKLAYER
  6
Continuous
 62
     7
100
AcDbLine
 10
347.4327644516129
 20
347.333064516129
 30
0.0
 11
364.4187263516128
 21
347.333064516129
 31
0.0
  0
LINE
  5
B2
330
42
100
AcDbEntity
  8
WORKLAYER
  6
Continuous
 62
     7
100
AcDbLine
 10
347.4327644516129
 20
341.3462786161289
 30
0.0
 11
364.4187263516128
 21
341.3462786161289
 31
0.0
  0
LINE
  5
B3
330
42
100
AcDbEntity
  8
WORKLAYER
  6
Continuous
 62
     7
100
AcDbLine
 10
349.425806451613
 20
329.3349566161289
 30
0.0
 11
362.425806451613
 21
329.3349566161289
 31
0.0
  0
LINE
  5
B4
330
42
100
AcDbEntity
  8
WORKLAYER
  6
Continuous
 62
     1
100
AcDbLine
 10
359.925806451613
 20
334.933070616129
 30
0.0
 11
359.9258064516131
 21
341.3462786161289
 31
0.0
  0
LINE
  5
B5
330
42
100
AcDbEntity
  8
WORKLAYER
  6
Continuous
 62
     1
100
AcDbLine
 10
351.925806451613
 20
341.3462786161289
 30
0.0
 11
351.925806451613
 21
334.933070616129
 31
0.0
  0
LINE
  5
B6
330
42
100
AcDbEntity
  8
WORKLAYER
  6
Continuous
 62
     1
100
AcDbLine
 10
361.791773251613
 20
331.700984416129
 30
0.0
 11
359.925806451613
 21
334.933070616129
 31
0.0
  0
LINE
  5
B7
330
42
100
AcDbEntity
  8
WORKLAYER
  6
Continuous
 62
     1
100
AcDbLine
 10
350.0598396516132
 20
331.700984416129
 30
0.0
 11
351.925806451613
 21
334.933070616129
 31
0.0
  0
LINE
  5
B8
330
42
100
AcDbEntity
  8
WORKLAYER
  6
Continuous
 62
     7
100
AcDbLine
 10
360.925806451613
 20
334.933070616129
 30
0.0
 11
360.925806451613
 21
341.3462786161289
 31
0.0
  0
LINE
  5
B9
330
42
100
AcDbEntity
  8
WORKLAYER
  6
Continuous
 62
     7
100
AcDbLine
 10
350.9258064516131
 20
341.3462786161289
 30
0.0
 11
350.925806451613
 21
334.933070616129
 31
0.0
  0
LINE
  5
BA
330
42
100
AcDbEntity
  8
WORKLAYER
  6
Continuous
 62
     7
100
AcDbLine
 10
360.925806451613
 20
334.933070616129
 30
0.0
 11
350.925806451613
 21
334.933070616129
 31
0.0
  0
LINE
  5
BB
330
42
100
AcDbEntity
  8
WORKLAYER
  6
Continuous
 62
     7
100
AcDbLine
 10
360.925806451613
 20
334.933070616129
 30
0.0
 11
362.425806451613
 21
329.3349566161289
 31
0.0
  0
LINE
  5
BC
330
42
100
AcDbEntity
  8
WORKLAYER
  6
Continuous
 62
     7
100
AcDbLine
 10
350.925806451613
 20
334.933070616129
 30
0.0
 11
349.425806451613
 21
329.3349566161289
 31
0.0
  0
LINE
  5
BD
330
42
100
AcDbEntity
  8
WORKLAYER
  6
Continuous
 62
     7
100
AcDbLine
 10
360.8258156516131
 20
367.886470316129
 30
0.0
 11
360.8258156516131
 21
347.3329729161289
 31
0.0
  0
LINE
  5
BE
330
42
100
AcDbEntity
  8
WORKLAYER
  6
Continuous
 62
     7
100
AcDbLine
 10
351.0258273516129
 20
367.886470316129
 30
0.0
 11
351.0258273516129
 21
347.3329729161289
 31
0.0
  0
LINE
  5
BF
330
42
100
AcDbEntity
  8
WORKLAYER
  6
Continuous
 62
     7
100
AcDbLine
 10
362.9258212516129
 20
375.246760816129
 30
0.0
 11
348.9258212516129
 21
375.246760816129
 31
0.0
  0
LINE
  5
C0
330
42
100
AcDbEntity
  8
WORKLAYER
  6
Continuous
 62
     7
100
AcDbLine
 10
348.9258212516129
 20
376.1192583161289
 30
0.0
 11
362.9258212516129
 21
376.1192583161289
 31
0.0
  0
LINE
  5
C1
330
42
100
AcDbEntity
  8
WORKLAYER
  6
Continuous
 62
     7
100
AcDbLine
 10
351.5758156516131
 20
374.2369646161289
 30
0.0
 11
360.2758273516129
 21
374.2369646161289
 31
0.0
  0
LINE
  5
C2
330
42
100
AcDbEntity
  8
WORKLAYER
  6
Continuous
 62
     7
100
AcDbLine
 10
351.5758156516131
 20
371.033076716129
 30
0.0
 11
360.2758273516129
 21
371.033076716129
 31
0.0
  0
LINE
  5
C3
330
42
100
AcDbEntity
  8
WORKLAYER
  6
Continuous
 62
     7
100
AcDbLine
 10
365.7258095516127
 20
367.886470316129
 30
0.0
 11
365.7258095516127
 21
347.3329729161289
 31
0.0
  0
LINE
  5
C4
330
42
100
AcDbEntity
  8
WORKLAYER
  6
Continuous
 62
     7
100
AcDbLine
 10
360.2758273516129
 20
374.2369646161289
 30
0.0
 11
360.2758273516129
 21
371.033076716129
 31
0.0
  0
LINE
  5
C5
330
42
100
AcDbEntity
  8
WORKLAYER
  6
Continuous
 62
     7
100
AcDbLine
 10
362.9258212516129
 20
376.1192583161289
 30
0.0
 11
362.9258212516129
 21
375.246760816129
 31
0.0
  0
LINE
  5
C6
330
42
100
AcDbEntity
  8
WORKLAYER
  6
Continuous
 62
     7
100
AcDbLine
 10
365.7258095516127
 20
367.886470316129
 30
0.0
 11
360.2758273516129
 21
371.033076716129
 31
0.0
  0
LINE
  5
C7
330
42
100
AcDbEntity
  8
WORKLAYER
  6
Continuous
 62
     7
100
AcDbLine
 10
351.5758156516131
 20
374.2369646161289
 30
0.0
 11
351.5758156516131
 21
371.033076716129
 31
0.0
  0
LINE
  5
C8
330
42
100
AcDbEntity
  8
WORKLAYER
  6
Continuous
 62
     7
100
AcDbLine
 10
348.9258212516129
 20
376.1192583161289
 30
0.0
 11
348.9258212516129
 21
375.246760816129
 31
0.0
  0
LINE
  5
C9
330
42
100
AcDbEntity
  8
WORKLAYER
  6
Continuous
 62
     7
100
AcDbLine
 10
346.1258033516135
 20
367.886470316129
 30
0.0
 11
351.5758156516131
 21
371.033076716129
 31
0.0
  0
LINE
  5
CA
330
42
100
AcDbEntity
  8
WORKLAYER
  6
Continuous
 62
     7
100
AcDbLine
 10
346.1258033516131
 20
347.3329729161289
 30
0.0
 11
365.7258095516127
 21
347.3329729161289
 31
0.0
  0
LINE
  5
CB
330
42
100
AcDbEntity
  8
WORKLAYER
  6
Continuous
 62
     7
100
AcDbLine
 10
346.1258033516135
 20
367.886470316129
 30
0.0
 11
346.1258033516131
 21
347.3329729161289
 31
0.0
  0
LINE
  5
CC
330
42
100
AcDbEntity
  8
WORKLAYER
  6
Continuous
 62
     7
100
AcDbLine
 10
359.4758095516127
 20
377.333064516129
 30
0.0
 11
352.3758033516131
 21
377.333064516129
 31
0.0
  0
LINE
  5
CD
330
42
100
AcDbEntity
  8
1
  6
PHANTOM
 62
     1
100
AcDbLine
 10
355.925806451613
 20
380.6012913882143
 30
0.0
 11
355.925806451613
 21
234.2830953995483
 31
0.0
  0
ARC
  5
CE
330
42
100
AcDbEntity
  8
WORKLAYER
  6
Continuous
 62
     7
100
AcDbCircle
 10
372.925806451613
 20
239.8330645161291
 30
0.0
 40
1.0
100
AcDbArc
 50
180.0
 51
-90.0
  0
ARC
  5
CF
330
42
100
AcDbEntity
  8
WORKLAYER
  6
Continuous
 62
     7
100
AcDbCircle
 10
341.2378162516129
 20
242.3330645161291
 30
0.0
 40
0.5
100
AcDbArc
 50
-90.0
 51
0.0
  0
ARC
  5
D0
330
42
100
AcDbEntity
  8
WORKLAYER
  6
Continuous
 62
     7
100
AcDbCircle
 10
341.2378162516129
 20
244.3330645161291
 30
0.0
 40
0.5
100
AcDbArc
 50
0.0
 51
90.0
  0
ARC
  5
D1
330
42
100
AcDbEntity
  8
WORKLAYER
  6
Continuous
 62
     7
100
AcDbCircle
 10
370.6137966516133
 20
242.3330645161291
 30
0.0
 40
0.5000000000005116
100
AcDbArc
 50
180.0
 51
-90.0
  0
ARC
  5
D2
330
42
100
AcDbEntity
  8
WORKLAYER
  6
Continuous
 62
     7
100
AcDbCircle
 10
370.6137966516133
 20
244.3330645161291
 30
0.0
 40
0.5
100
AcDbArc
 50
90.00000000005862
 51
180.0
  0
ARC
  5
D3
330
42
100
AcDbEntity
  8
WORKLAYER
  6
Continuous
 62
     7
100
AcDbCircle
 10
372.925806451613
 20
239.8330645161291
 30
0.0
 40
0.5
100
AcDbArc
 50
180.0
 51
-90.0
  0
ARC
  5
D4
330
42
100
AcDbEntity
  8
WORKLAYER
  6
Continuous
 62
     7
100
AcDbCircle
 10
364.4187263516128
 20
349.425075016129
 30
0.0
 40
8.078769699999983
100
AcDbArc
 50
-116.3809967000018
 51
-90.0
  0
ARC
  5
D5
330
42
100
AcDbEntity
  8
WORKLAYER
  6
Continuous
 62
     7
100
AcDbCircle
 10
355.925806451613
 20
356.0572771161289
 30
0.0
 40
14.7108897999997
100
AcDbArc
 50
-109.4712067000002
 51
-70.52880859999922
  0
ARC
  5
D6
330
42
100
AcDbEntity
  8
WORKLAYER
  6
Continuous
 62
     7
100
AcDbCircle
 10
364.4187263516128
 20
339.2542681161289
 30
0.0
 40
8.078769700000066
100
AcDbArc
 50
90.0
 51
116.3809967000019
  0
ARC
  5
D7
330
42
100
AcDbEntity
  8
WORKLAYER
  6
Continuous
 62
     7
100
AcDbCircle
 10
347.4327644516129
 20
339.2542681161289
 30
0.0
 40
8.078769699999732
100
AcDbArc
 50
63.61899190000013
 51
90.0
  0
ARC
  5
D8
330
42
100
AcDbEntity
  8
WORKLAYER
  6
Continuous
 62
     7
100
AcDbCircle
 10
355.925806451613
 20
332.6220660161289
 30
0.0
 40
14.71088979999971
100
AcDbArc
 50
70.52880859999944
 51
109.4711990000015
  0
ARC
  5
D9
330
42
100
AcDbEntity
  8
WORKLAYER
  6
Continuous
 62
     7
100
AcDbCircle
 10
347.4327644516129
 20
349.425075016129
 30
0.0
 40
8.078769699999953
100
AcDbArc
 50
-90.0
 51
-63.61898800000142
  0
ARC
  5
DA
330
42
100
AcDbEntity
  8
WORKLAYER
  6
Continuous
 62
     7
100
AcDbCircle
 10
363.2758273516129
 20
363.642970516129
 30
0.0
 40
4.900004899999682
100
AcDbArc
 50
60.00000000000094
 51
120.0000000000025
  0
ARC
  5
DB
330
42
100
AcDbEntity
  8
WORKLAYER
  6
Continuous
 62
     7
100
AcDbCircle
 10
348.5758156516131
 20
363.642970516129
 30
0.0
 40
4.90000489999971
100
AcDbArc
 50
60.00000000000036
 51
120.0000000000043
  0
ARC
  5
DC
330
42
100
AcDbEntity
  8
WORKLAYER
  6
Continuous
 62
     7
100
AcDbCircle
 10
355.9258214516131
 20
358.577571316129
 30
0.0
 40
10.51978019999975
100
AcDbArc
 50
62.23868940000111
 51
117.7612991000012
  0
ARC
  5
DD
330
42
100
AcDbEntity
  8
WORKLAYER
  6
Continuous
 62
     7
100
AcDbCircle
 10
355.9258214516131
 20
389.6342730161289
 30
0.0
 40
15.99999999999938
100
AcDbArc
 50
-74.22409060000085
 51
-64.05551150000062
  0
ARC
  5
DE
330
42
100
AcDbEntity
  8
WORKLAYER
  6
Continuous
 62
     7
100
AcDbCircle
 10
355.9258214516131
 20
361.7318682161289
 30
0.0
 40
15.99999999999995
100
AcDbArc
 50
64.0555190999999
 51
77.18081669999991
  0
ARC
  5
DF
330
42
100
AcDbEntity
  8
WORKLAYER
  6
Continuous
 62
     7
100
AcDbCircle
 10
355.9258214516131
 20
389.6342730161289
 30
0.0
 40
15.99999999999988
100
AcDbArc
 50
-115.9445038000011
 51
-105.7758942000014
  0
ARC
  5
E0
330
42
100
AcDbEntity
  8
WORKLAYER
  6
Continuous
 62
     7
100
AcDbCircle
 10
355.9258214516131
 20
361.7318682161289
 30
0.0
 40
15.99999999999987
100
AcDbArc
 50
102.8191986000015
 51
115.9445038000008
  0
ENDBLK
  5
44
330
42
100
AcDbEntity
  8
0
100
AcDbBlockEnd
  0
BLOCK
  5
46
330
45
100
AcDbEntity
  8
0
100
AcDbBlockBegin
  2
Top__4
 70
     0
 71
     0
 10
2412.375326245207
 20
-1419.472951939294
 30
0.0
  3
Top__4
  1

  0
POINT
  5
E1
330
45
100
AcDbEntity
  8
1
 62
     3
 60
     1
100
AcDbPoint
 10
2117.309340443077
 20
-1597.594271518029
 30
0.0
  0
POINT
  5
E2
330
45
100
AcDbEntity
  8
1
 62
     3
 60
     1
100
AcDbPoint
 10
2118.309340443077
 20
-1597.594271518029
 30
0.0
  0
POINT
  5
E3
330
45
100
AcDbEntity
  8
1
 62
     3
 60
     1
100
AcDbPoint
 10
2117.309340443077
 20
-1588.794271518029
 30
0.0
  0
POINT
  5
E4
330
45
100
AcDbEntity
  8
1
 62
     3
 60
     1
100
AcDbPoint
 10
2117.309340443077
 20
-1596.594271518029
 30
0.0
  0
POINT
  5
E5
330
45
100
AcDbEntity
  8
1
 62
     3
 60
     1
100
AcDbPoint
 10
2117.309340443077
 20
-1550.994271518029
 30
0.0
  0
POINT
  5
E6
330
45
100
AcDbEntity
  8
1
 62
     3
 60
     1
100
AcDbPoint
 10
2118.309340443077
 20
-1549.994271518029
 30
0.0
  0
POINT
  5
E7
330
45
100
AcDbEntity
  8
1
 62
     3
 60
     1
100
AcDbPoint
 10
2117.309340443077
 20
-1549.994271518029
 30
0.0
  0
POINT
  5
E8
330
45
100
AcDbEntity
  8
1
 62
     3
 60
     1
100
AcDbPoint
 10
2117.309340443077
 20
-1558.794271518029
 30
0.0
  0
POINT
  5
E9
330
45
100
AcDbEntity
  8
1
 62
     3
 60
     1
100
AcDbPoint
 10
2294.423057664493
 20
-1387.865291535166
 30
0.0
  0
POINT
  5
EA
330
45
100
AcDbEntity
  8
1
 62
     3
 60
     1
100
AcDbPoint
 10
2295.423057664493
 20
-1387.865291535166
 30
0.0
  0
POINT
  5
EB
330
45
100
AcDbEntity
  8
1
 62
     3
 60
     1
100
AcDbPoint
 10
2294.423057664493
 20
-1396.665291535166
 30
0.0
  0
POINT
  5
EC
330
45
100
AcDbEntity
  8
1
 62
     3
 60
     1
100
AcDbPoint
 10
2294.423057664493
 20
-1395.665291535166
 30
0.0
  0
POINT
  5
ED
330
45
100
AcDbEntity
  8
1
 62
     3
 60
     1
100
AcDbPoint
 10
2295.423057664493
 20
-1396.665291535166
 30
0.0
  0
POINT
  5
EE
330
45
100
AcDbEntity
  8
1
 62
     3
 60
     1
100
AcDbPoint
 10
2295.423057664493
 20
-1357.865291535166
 30
0.0
  0
POINT
  5
EF
330
45
100
AcDbEntity
  8
1
 62
     3
 60
     1
100
AcDbPoint
 10
2294.423057664493
 20
-1357.865291535166
 30
0.0
  0
POINT
  5
F0
330
45
100
AcDbEntity
  8
1
 62
     3
 60
     1
100
AcDbPoint
 10
2294.423057664493
 20
-1349.065291535166
 30
0.0
  0
POINT
  5
F1
330
45
100
AcDbEntity
  8
1
 62
     3
 60
     1
100
AcDbPoint
 10
2294.423057664493
 20
-1350.065291535166
 30
0.0
  0
POINT
  5
F2
330
45
100
AcDbEntity
  8
1
 62
     3
 60
     1
100
AcDbPoint
 10
2295.423057664493
 20
-1349.065291535166
 30
0.0
  0
ENDBLK
  5
47
330
45
100
AcDbEntity
  8
0
100
AcDbBlockEnd
  0
BLOCK
  5
4B
330
48
100
AcDbEntity
  8
0
100
AcDbBlockBegin
  2
TOP
 70
     0
 71
     0
 10
1383.358649085057
 20
-300.820974043154
 30
0.0
  3
TOP
  1

  0
INSERT
  5
49
330
48
100
AcDbEntity
  8
1
100
AcDbBlockReference
  2
_1
 10
1969.529315804172
 20
-657.723138730747
 30
0.0
  0
INSERT
  5
4A
330
48
100
AcDbEntity
  8
0
100
AcDbBlockReference
  2
Top__4
 10
2412.375326245207
 20
-1419.472951939294
 30
0.0
  0
POINT
  5
F3
330
48
100
AcDbEntity
  8
1
 62
     3
 60
     1
100
AcDbPoint
 10
2080.529315804172
 20
-754.1731696141662
 30
0.0
  0
POINT
  5
F4
330
48
100
AcDbEntity
  8
1
 62
     3
 60
     1
100
AcDbPoint
 10
2081.529315804172
 20
-754.1731696141662
 30
0.0
  0
POINT
  5
F5
330
48
100
AcDbEntity
  8
1
 62
     3
 60
     1
100
AcDbPoint
 10
2080.529315804172
 20
-755.1731696141662
 30
0.0
  0
POINT
  5
F6
330
48
100
AcDbEntity
  8
1
 62
     3
 60
     1
100
AcDbPoint
 10
1895.529315804172
 20
-754.1731696141662
 30
0.0
  0
POINT
  5
F7
330
48
100
AcDbEntity
  8
1
 62
     3
 60
     1
100
AcDbPoint
 10
1895.529315804172
 20
-755.1731696141662
 30
0.0
  0
POINT
  5
F8
330
48
100
AcDbEntity
  8
1
 62
     3
 60
     1
100
AcDbPoint
 10
1894.529315804172
 20
-754.1731696141662
 30
0.0
  0
ENDBLK
  5
4C
330
48
100
AcDbEntity
  8
0
100
AcDbBlockEnd
  0
BLOCK
  5
4E
330
4D
100
AcDbEntity
  8
0
100
AcDbBlockBegin
  2
Top__5
 70
     0
 71
     0
 10
1808.648340788294
 20
-809.702495612916
 30
0.0
  3
Top__5
  1

  0
POINT
  5
F9
330
4D
100
AcDbEntity
  8
1
 62
     3
 60
     1
100
AcDbPoint
 10
1724.436084708185
 20
-862.4579787743052
 30
0.0
  0
POINT
  5
FA
330
4D
100
AcDbEntity
  8
1
 62
     3
 60
     1
100
AcDbPoint
 10
1722.936084708185
 20
-863.9579787743052
 30
0.0
  0
POINT
  5
FB
330
4D
100
AcDbEntity
  8
1
 62
     3
 60
     1
100
AcDbPoint
 10
1722.936084708185
 20
-862.4579787743052
 30
0.0
  0
POINT
  5
FC
330
4D
100
AcDbEntity
  8
1
 62
     3
 60
     1
100
AcDbPoint
 10
1722.936084708185
 20
-723.9579787743052
 30
0.0
  0
POINT
  5
FD
330
4D
100
AcDbEntity
  8
1
 62
     3
 60
     1
100
AcDbPoint
 10
1724.436084708185
 20
-725.4579787743052
 30
0.0
  0
POINT
  5
FE
330
4D
100
AcDbEntity
  8
1
 62
     3
 60
     1
100
AcDbPoint
 10
1722.936084708185
 20
-723.9579787743052
 30
0.0
  0
ENDBLK
  5
4F
330
4D
100
AcDbEntity
  8
0
100
AcDbBlockEnd
  0
BLOCK
  5
53
330
50
100
AcDbEntity
  8
0
100
AcDbBlockBegin
  2
Top__6
 70
     0
 71
     0
 10
735.825642707994
 20
-31.559243732276
 30
0.0
  3
Top__6
  1

  0
INSERT
  5
51
330
50
100
AcDbEntity
  8
0
100
AcDbBlockReference
  2
TOP
 10
1383.358649085057
 20
-300.820974043154
 30
0.0
  0
INSERT
  5
52
330
50
100
AcDbEntity
  8
0
100
AcDbBlockReference
  2
Top__5
 10
1808.648340788294
 20
-809.702495612916
 30
0.0
  0
ENDBLK
  5
54
330
50
100
AcDbEntity
  8
0
100
AcDbBlockEnd
  0
BLOCK
  5
168
330
15E
100
AcDbEntity
  8
0
100
AcDbBlockBegin
  2
*D09
 70
     1
 71
     0
 10
0.0
 20
0.0
 30
0.0
  3
*D09
  1

  0
LINE
  5
15F
330
15E
100
AcDbEntity
  8
1
  6
Continuous
 62
     2
100
AcDbLine
 10
130.425806451613
 20
-349.260582427054
 30
0.0
 11
581.4258064516132
 21
-349.260582427054
 31
0.0
  0
LINE
  5
160
330
15E
100
AcDbEntity
  8
1
  6
Continuous
 62
     2
100
AcDbLine
 10
581.4258064516132
 20
-144.166935483871
 30
0.0
 11
581.4258064516132
 21
-350.260582427054
 31
0.0
  0
LINE
  5
161
330
15E
100
AcDbEntity
  8
1
  6
Continuous
 62
     2
100
AcDbLine
 10
130.425806451613
 20
-144.166935483871
 30
0.0
 11
130.425806451613
 21
-350.260582427054
 31
0.0
  0
LINE
  5
162
330
15E
100
AcDbEntity
  8
1
 62
     2
100
AcDbLine
 10
130.425806451613
 20
-349.260582427054
 30
0.0
 11
140.425806451613
 21
-346.5810905027428
 31
0.0
  0
LINE
  5
163
330
15E
100
AcDbEntity
  8
1
 62
     2
100
AcDbLine
 10
130.425806451613
 20
-349.260582427054
 30
0.0
 11
140.425806451613
 21
-351.9400743513652
 31
0.0
  0
LINE
  5
164
330
15E
100
AcDbEntity
  8
1
 62
     2
100
AcDbLine
 10
581.4258064516132
 20
-349.260582427054
 30
0.0
 11
571.4258064516132
 21
-351.9400743513652
 31
0.0
  0
LINE
  5
165
330
15E
100
AcDbEntity
  8
1
 62
     2
100
AcDbLine
 10
581.4258064516132
 20
-349.260582427054
 30
0.0
 11
571.4258064516132
 21
-346.5810905027428
 31
0.0
  0
MTEXT
  5
167
330
15E
100
AcDbEntity
  8
1
 62
     2
100
AcDbMText
 10
343.641901051363
 20
-347.660582427054
 30
0.0
 40
10.0
 41
0.0
 71
     7
 72
     1
  1
451
  7
CONVERTER_2
 11
0.9999999999970621
 21
2.424068405545307E-6
 31
0.0
 73
     1
 44
0.60024009603842
  0
ENDBLK
  5
169
330
15E
100
AcDbEntity
  8
0
100
AcDbBlockEnd
  0
BLOCK
  5
16B
330
16A
100
AcDbEntity
  8
0
100
AcDbBlockBegin
  2
_Open30
 70
     0
 71
     0
 10
0.0
 20
0.0
 30
0.0
  3
_Open30
  1

  0
LINE
  5
16D
330
16A
100
AcDbEntity
  8
0
  6
ByBlock
 62
     0
370
    -2
100
AcDbLine
 10
-1.0
 20
0.267949
 30
0.0
 11
0.0
 21
0.0
 31
0.0
  0
LINE
  5
16E
330
16A
100
AcDbEntity
  8
0
  6
ByBlock
 62
     0
370
    -2
100
AcDbLine
 10
0.0
 20
0.0
 30
0.0
 11
-1.0
 21
-0.267949
 31
0.0
  0
LINE
  5
16F
330
16A
100
AcDbEntity
  8
0
  6
ByBlock
 62
     0
370
    -2
100
AcDbLine
 10
0.0
 20
0.0
 30
0.0
 11
-1.0
 21
0.0
 31
0.0
  0
ENDBLK
  5
16C
330
16A
100
AcDbEntity
  8
0
100
AcDbBlockEnd
  0
BLOCK
  5
17B
330
172
100
AcDbEntity
  8
0
100
AcDbBlockBegin
  2
*D111
 70
     1
 71
     0
 10
0.0
 20
0.0
 30
0.0
  3
*D111
  1

  0
LINE
  5
173
330
172
100
AcDbEntity
  8
1
  6
Continuous
 62
     2
100
AcDbLine
 10
611.617483640608
 20
136.8330645161289
 30
0.0
 11
611.617483640608
 21
-143.166935483871
 31
0.0
  0
LINE
  5
174
330
172
100
AcDbEntity
  8
1
  6
Continuous
 62
     2
100
AcDbLine
 10
582.4258064516132
 20
-143.166935483871
 30
0.0
 11
612.617483640608
 21
-143.166935483871
 31
0.0
  0
LINE
  5
175
330
172
100
AcDbEntity
  8
1
  6
Continuous
 62
     2
100
AcDbLine
 10
582.425806451613
 20
136.8330645161289
 30
0.0
 11
612.617483640608
 21
136.8330645161289
 31
0.0
  0
LINE
  5
176
330
172
100
AcDbEntity
  8
1
 62
     2
100
AcDbLine
 10
611.617483640608
 20
136.8330645161289
 30
0.0
 11
614.2969755649193
 21
126.8330645161289
 31
0.0
  0
LINE
  5
177
330
172
100
AcDbEntity
  8
1
 62
     2
100
AcDbLine
 10
611.617483640608
 20
136.8330645161289
 30
0.0
 11
608.9379917162968
 21
126.8330645161289
 31
0.0
  0
LINE
  5
178
330
172
100
AcDbEntity
  8
1
 62
     2
100
AcDbLine
 10
611.617483640608
 20
-143.166935483871
 30
0.0
 11
608.9379917162968
 21
-133.166935483871
 31
0.0
  0
LINE
  5
179
330
172
100
AcDbEntity
  8
1
 62
     2
100
AcDbLine
 10
611.617483640608
 20
-143.166935483871
 30
0.0
 11
614.2969755649193
 21
-133.166935483871
 31
0.0
  0
MTEXT
  5
17A
330
172
100
AcDbEntity
  8
1
 62
     2
100
AcDbMText
 10
610.017483640608
 20
-40.79921527284958
 30
0.0
 40
10.0
 41
0.0
 71
     7
 72
     1
  1
280
  7
CONVERTER_2
 11
0.0
 21
1.0
 31
0.0
 73
     1
 44
0.60024009603842
  0
ENDBLK
  5
17C
330
172
100
AcDbEntity
  8
0
100
AcDbBlockEnd
  0
BLOCK
  5
188
330
17F
100
AcDbEntity
  8
0
100
AcDbBlockBegin
  2
*D212
 70
     1
 71
     0
 10
0.0
 20
0.0
 30
0.0
  3
*D212
  1

  0
LINE
  5
180
330
17F
100
AcDbEntity
  8
1
  6
Continuous
 62
     2
100
AcDbLine
 10
638.306375405421
 20
-3.1669354838711
 30
0.0
 11
638.306375405421
 21
-313.1669354838709
 31
0.0
  0
LINE
  5
181
330
17F
100
AcDbEntity
  8
1
  6
Continuous
 62
     2
100
AcDbLine
 10
496.9258064516131
 20
-313.166935483871
 30
0.0
 11
639.306375405421
 21
-313.166935483871
 31
0.0
  0
LINE
  5
182
330
17F
100
AcDbEntity
  8
1
  6
Continuous
 62
     2
100
AcDbLine
 10
596.5211596460161
 20
-3.1669354838711
 30
0.0
 11
639.306375405421
 21
-3.1669354838711
 31
0.0
  0
LINE
  5
183
330
17F
100
AcDbEntity
  8
1
 62
     2
100
AcDbLine
 10
638.306375405421
 20
-3.1669354838711
 30
0.0
 11
640.9858673297323
 21
-13.1669354838711
 31
0.0
  0
LINE
  5
184
330
17F
100
AcDbEntity
  8
1
 62
     2
100
AcDbLine
 10
638.306375405421
 20
-3.1669354838711
 30
0.0
 11
635.6268834811098
 21
-13.1669354838711
 31
0.0
  0
LINE
  5
185
330
17F
100
AcDbEntity
  8
1
 62
     2
100
AcDbLine
 10
638.306375405421
 20
-313.1669354838709
 30
0.0
 11
635.6268834811098
 21
-303.1669354838709
 31
0.0
  0
LINE
  5
186
330
17F
100
AcDbEntity
  8
1
 62
     2
100
AcDbLine
 10
638.306375405421
 20
-313.1669354838709
 30
0.0
 11
640.9858673297323
 21
-303.1669354838709
 31
0.0
  0
MTEXT
  5
187
330
17F
100
AcDbEntity
  8
1
 62
     2
100
AcDbMText
 10
636.706375405421
 20
-182.8975804385544
 30
0.0
 40
10.0
 41
0.0
 71
     7
 72
     1
  1
310
  7
CONVERTER_2
 11
0.0
 21
1.0
 31
0.0
 73
     1
 44
0.60024009603842
  0
ENDBLK
  5
189
330
17F
100
AcDbEntity
  8
0
100
AcDbBlockEnd
  0
BLOCK
  5
195
330
18C
100
AcDbEntity
  8
0
100
AcDbBlockBegin
  2
*D313
 70
     1
 71
     0
 10
0.0
 20
0.0
 30
0.0
  3
*D313
  1

  0
LINE
  5
18D
330
18C
100
AcDbEntity
  8
1
  6
Continuous
 62
     2
100
AcDbLine
 10
638.306375405421
 20
-3.16693548387104
 30
0.0
 11
638.306375405421
 21
206.833064516129
 31
0.0
  0
LINE
  5
18E
330
18C
100
AcDbEntity
  8
1
  6
Continuous
 62
     2
100
AcDbLine
 10
386.9258064516131
 20
206.833064516129
 30
0.0
 11
639.306375405421
 21
206.833064516129
 31
0.0
  0
LINE
  5
18F
330
18C
100
AcDbEntity
  8
1
  6
Continuous
 62
     2
100
AcDbLine
 10
596.5211596460161
 20
-3.16693548387106
 30
0.0
 11
639.306375405421
 21
-3.16693548387106
 31
0.0
  0
LINE
  5
190
330
18C
100
AcDbEntity
  8
1
 62
     2
100
AcDbLine
 10
638.306375405421
 20
-3.16693548387104
 30
0.0
 11
635.6268834811098
 21
6.83306451612896
 31
0.0
  0
LINE
  5
191
330
18C
100
AcDbEntity
  8
1
 62
     2
100
AcDbLine
 10
638.306375405421
 20
-3.16693548387104
 30
0.0
 11
640.9858673297323
 21
6.83306451612896
 31
0.0
  0
LINE
  5
192
330
18C
100
AcDbEntity
  8
1
 62
     2
100
AcDbLine
 10
638.306375405421
 20
206.833064516129
 30
0.0
 11
640.9858673297323
 21
196.833064516129
 31
0.0
  0
LINE
  5
193
330
18C
100
AcDbEntity
  8
1
 62
     2
100
AcDbLine
 10
638.306375405421
 20
206.833064516129
 30
0.0
 11
635.6268834811098
 21
196.833064516129
 31
0.0
  0
MTEXT
  5
194
330
18C
100
AcDbEntity
  8
1
 62
     2
100
AcDbMText
 10
636.706375405421
 20
82.40213117469899
 30
0.0
 40
10.0
 41
0.0
 71
     7
 72
     1
  1
210
  7
CONVERTER_2
 11
0.0
 21
1.0
 31
0.0
 73
     1
 44
0.60024009603842
  0
ENDBLK
  5
196
330
18C
100
AcDbEntity
  8
0
100
AcDbBlockEnd
  0
BLOCK
  5
1A2
330
199
100
AcDbEntity
  8
0
100
AcDbBlockBegin
  2
*D414
 70
     1
 71
     0
 10
0.0
 20
0.0
 30
0.0
  3
*D414
  1

  0
LINE
  5
19A
330
199
100
AcDbEntity
  8
1
  6
Continuous
 62
     2
100
AcDbLine
 10
638.171501742151
 20
206.833064516129
 30
0.0
 11
638.171501742151
 21
377.333064516129
 31
0.0
  0
LINE
  5
19B
330
199
100
AcDbEntity
  8
1
  6
Continuous
 62
     2
100
AcDbLine
 10
360.4758095516127
 20
377.333064516129
 30
0.0
 11
639.171501742151
 21
377.333064516129
 31
0.0
  0
LINE
  5
19C
330
199
100
AcDbEntity
  8
1
  6
Continuous
 62
     2
100
AcDbLine
 10
386.9258064516131
 20
206.833064516129
 30
0.0
 11
639.171501742151
 21
206.833064516129
 31
0.0
  0
LINE
  5
19D
330
199
100
AcDbEntity
  8
1
 62
     2
100
AcDbLine
 10
638.171501742151
 20
206.833064516129
 30
0.0
 11
635.4920098178397
 21
216.833064516129
 31
0.0
  0
LINE
  5
19E
330
199
100
AcDbEntity
  8
1
 62
     2
100
AcDbLine
 10
638.171501742151
 20
206.833064516129
 30
0.0
 11
640.8509936664623
 21
216.833064516129
 31
0.0
  0
LINE
  5
19F
330
199
100
AcDbEntity
  8
1
 62
     2
100
AcDbLine
 10
638.171501742151
 20
377.333064516129
 30
0.0
 11
640.8509936664623
 21
367.333064516129
 31
0.0
  0
LINE
  5
1A0
330
199
100
AcDbEntity
  8
1
 62
     2
100
AcDbLine
 10
638.171501742151
 20
377.333064516129
 30
0.0
 11
635.4920098178397
 21
367.333064516129
 31
0.0
  0
MTEXT
  5
1A1
330
199
100
AcDbEntity
  8
1
 62
     2
100
AcDbMText
 10
636.571501742151
 20
293.401386085312
 30
0.0
 40
10.0
 41
0.0
 71
     7
 72
     1
  1
170.5
  7
CONVERTER_2
 11
0.0
 21
1.0
 31
0.0
 73
     1
 44
0.60024009603842
  0
ENDBLK
  5
1A3
330
199
100
AcDbEntity
  8
0
100
AcDbBlockEnd
  0
ENDSEC
  0
SECTION
  2
ENTITIES
  0
INSERT
  5
55
330
1F
100
AcDbEntity
  8
0
100
AcDbBlockReference
  2
Top__2
 10
741.4004069993511
 20
-0.00000000000009
 30
0.0
  0
INSERT
  5
56
330
1F
100
AcDbEntity
  8
0
100
AcDbBlockReference
  2
Top__3
 10
1086.10293541184
 20
-642.582105628333
 30
0.0
  0
INSERT
  5
57
330
1F
100
AcDbEntity
  8
0
100
AcDbBlockReference
  2
Top__6
 10
735.825642707994
 20
-31.559243732276
 30
0.0
  0
LINE
  5
FF
330
1F
100
AcDbEntity
  8
1
  6
Continuous
 62
     7
100
AcDbLine
 10
241.9258064516131
 20
-95.66693548387107
 30
0.0
 11
241.9258064516131
 21
-113.0619316681906
 31
0.0
  0
LINE
  5
100
330
1F
100
AcDbEntity
  8
1
  6
Continuous
 62
     7
100
AcDbLine
 10
156.4258064516131
 20
-95.66693548387107
 30
0.0
 11
241.9258064516131
 21
-95.66693548387107
 31
0.0
  0
LINE
  5
101
330
1F
100
AcDbEntity
  8
1
  6
Continuous
 62
     7
100
AcDbLine
 10
156.4258064516131
 20
-95.66693548387107
 30
0.0
 11
156.425806451613
 21
-141.166935483871
 31
0.0
  0
LINE
  5
102
330
1F
100
AcDbEntity
  8
1
  6
Continuous
 62
     7
100
AcDbLine
 10
156.4258064516131
 20
-95.66693548387107
 30
0.0
 11
182.1589760651502
 21
-86.54979500814937
 31
0.0
  0
LINE
  5
103
330
1F
100
AcDbEntity
  8
1
  6
Continuous
 62
     7
100
AcDbLine
 10
555.4258064516131
 20
89.33306451612896
 30
0.0
 11
446.1629939077833
 21
89.33306451612896
 31
0.0
  0
LINE
  5
104
330
1F
100
AcDbEntity
  8
1
  6
Continuous
 62
     7
100
AcDbLine
 10
555.4258064516131
 20
89.33306451612896
 30
0.0
 11
555.425806451613
 21
134.8330645161289
 31
0.0
  0
LINE
  5
105
330
1F
100
AcDbEntity
  8
1
  6
Continuous
 62
     7
100
AcDbLine
 10
555.4258064516131
 20
89.33306451612896
 30
0.0
 11
527.3374855615402
 21
79.6329390101894
 31
0.0
  0
LINE
  5
106
330
1F
100
AcDbEntity
  8
1
  6
Continuous
 62
     7
100
AcDbLine
 10
378.4258064516131
 20
136.440664622431
 30
0.0
 11
378.425806451613
 21
176.833064516129
 31
0.0
  0
LINE
  5
107
330
1F
100
AcDbEntity
  8
1
  6
Continuous
 62
     7
100
AcDbLine
 10
333.4258064516131
 20
138.833064516129
 30
0.0
 11
333.425806451613
 21
176.833064516129
 31
0.0
  0
LINE
  5
108
330
1F
100
AcDbEntity
  8
1
  6
Continuous
 62
     7
100
AcDbLine
 10
333.425806451613
 20
176.833064516129
 30
0.0
 11
378.425806451613
 21
176.833064516129
 31
0.0
  0
LINE
  5
109
330
1F
100
AcDbEntity
  8
1
  6
Continuous
 62
     7
100
AcDbLine
 10
378.425806451613
 20
176.833064516129
 30
0.0
 11
385.9258064516131
 21
176.833064516129
 31
0.0
  0
LINE
  5
10A
330
1F
100
AcDbEntity
  8
WORKLAYER
  6
Continuous
 62
     7
100
AcDbLine
 10
335.4428047516128
 20
62.58914521612888
 30
0.0
 11
349.6232246516129
 21
62.58914521612888
 31
0.0
  0
LINE
  5
10B
330
1F
100
AcDbEntity
  8
WORKLAYER
  6
Continuous
 62
     7
100
AcDbLine
 10
349.6232246516129
 20
62.58914521612888
 30
0.0
 11
349.6232246516129
 21
46.83306451612893
 31
0.0
  0
LINE
  5
10C
330
1F
100
AcDbEntity
  8
WORKLAYER
  6
Continuous
 62
     7
100
AcDbLine
 10
335.4428047516128
 20
62.58914521612888
 30
0.0
 11
349.6232246516129
 21
46.83306451612893
 31
0.0
  0
LINE
  5
10D
330
1F
100
AcDbEntity
  8
WORKLAYER
  6
Continuous
 62
     7
100
AcDbLine
 10
361.4404243516128
 20
62.58914521612888
 30
0.0
 11
361.4404243516128
 21
52.34756421612889
 31
0.0
  0
LINE
  5
10E
330
1F
100
AcDbEntity
  8
WORKLAYER
  6
Continuous
 62
     7
100
AcDbLine
 10
355.925806451613
 20
46.83306451612893
 30
0.0
 11
350.805017851613
 21
46.83306451612893
 31
0.0
  0
LINE
  5
10F
330
1F
100
AcDbEntity
  8
WORKLAYER
  6
Continuous
 62
     7
100
AcDbLine
 10
338.9878181516128
 20
31.07675501612908
 30
0.0
 11
350.805017851613
 21
46.83306451612893
 31
0.0
  0
LINE
  5
110
330
1F
100
AcDbEntity
  8
WORKLAYER
  6
Continuous
 62
     7
100
AcDbLine
 10
338.9878181516128
 20
31.07675501612908
 30
0.0
 11
352.7746223516126
 21
31.07675501612908
 31
0.0
  0
LINE
  5
111
330
1F
100
AcDbEntity
  8
WORKLAYER
  6
Continuous
 62
     7
100
AcDbLine
 10
376.0147346516128
 20
62.58914521612888
 30
0.0
 11
361.4404243516128
 21
62.58914521612888
 31
0.0
  0
LINE
  5
112
330
1F
100
AcDbEntity
  8
WORKLAYER
  6
Continuous
 62
     7
100
AcDbLine
 10
376.0147346516128
 20
62.58914521612888
 30
0.0
 11
352.7746223516126
 21
31.07675501612908
 31
0.0
  0
LINE
  5
113
330
1F
100
AcDbEntity
  8
1
  6
Continuous
 62
     7
100
AcDbLine
 10
373.425806451613
 20
-93.16693548387106
 30
0.0
 11
383.925806451613
 21
-93.16693548387106
 31
0.0
  0
LINE
  5
114
330
1F
100
AcDbEntity
  8
1
  6
Continuous
 62
     7
100
AcDbLine
 10
325.925806451613
 20
-93.16693548387106
 30
0.0
 11
360.1970498962901
 21
-93.16693548387106
 31
0.0
  0
LINE
  5
115
330
1F
100
AcDbEntity
  8
1
  6
Continuous
 62
     7
100
AcDbLine
 10
383.925806451613
 20
-95.66693548387106
 30
0.0
 11
383.925806451613
 21
-93.16693548387106
 31
0.0
  0
LINE
  5
116
330
1F
100
AcDbEntity
  8
1
  6
Continuous
 62
     7
100
AcDbLine
 10
395.925806451613
 20
-90.66693548387106
 30
0.0
 11
383.925806451613
 21
-95.66693548387106
 31
0.0
  0
LINE
  5
117
330
1F
100
AcDbEntity
  8
1
  6
Continuous
 62
     7
100
AcDbLine
 10
383.925806451613
 20
-85.66693548387106
 30
0.0
 11
395.925806451613
 21
-90.66693548387106
 31
0.0
  0
LINE
  5
118
330
1F
100
AcDbEntity
  8
1
  6
Continuous
 62
     7
100
AcDbLine
 10
383.925806451613
 20
-88.16693548387106
 30
0.0
 11
383.925806451613
 21
-85.66693548387106
 31
0.0
  0
LINE
  5
119
330
1F
100
AcDbEntity
  8
1
  6
Continuous
 62
     7
100
AcDbLine
 10
325.925806451613
 20
-88.16693548387106
 30
0.0
 11
325.925806451613
 21
-93.16693548387106
 31
0.0
  0
LINE
  5
11A
330
1F
100
AcDbEntity
  8
1
  6
Continuous
 62
     7
100
AcDbLine
 10
383.925806451613
 20
-88.16693548387106
 30
0.0
 11
325.925806451613
 21
-88.16693548387106
 31
0.0
  0
LINE
  5
11B
330
1F
100
AcDbEntity
  8
1
  6
Continuous
 62
     7
100
AcDbLine
 10
353.425806451613
 20
-108.1669354838711
 30
0.0
 11
353.425806451613
 21
-113.1669354838711
 31
0.0
  0
LINE
  5
11C
330
1F
100
AcDbEntity
  8
1
  6
Continuous
 62
     7
100
AcDbLine
 10
358.425806451613
 20
-113.1669354838711
 30
0.0
 11
358.425806451613
 21
-108.1669354838711
 31
0.0
  0
LINE
  5
11D
330
1F
100
AcDbEntity
  8
1
  6
Continuous
 62
     7
100
AcDbLine
 10
353.425806451613
 20
-113.1669354838711
 30
0.0
 11
358.425806451613
 21
-113.1669354838711
 31
0.0
  0
LINE
  5
11E
330
1F
100
AcDbEntity
  8
1
  6
Continuous
 62
     7
100
AcDbLine
 10
505.9258064516132
 20
-128.5715321333014
 30
0.0
 11
505.9258064516132
 21
-160.166935483871
 31
0.0
  0
LINE
  5
11F
330
1F
100
AcDbEntity
  8
1
  6
Continuous
 62
     7
100
AcDbLine
 10
505.9258064516132
 20
-160.166935483871
 30
0.0
 11
463.425806451613
 21
-160.166935483871
 31
0.0
  0
LINE
  5
120
330
1F
100
AcDbEntity
  8
1
  6
Continuous
 62
     7
100
AcDbLine
 10
241.9258064516131
 20
-65.55984163902704
 30
0.0
 11
241.9258064516131
 21
-95.66693548387107
 31
0.0
  0
LINE
  5
121
330
1F
100
AcDbEntity
  8
1
  6
Continuous
 62
     7
100
AcDbLine
 10
235.3460078848699
 20
-122.4588578760497
 30
0.0
 11
212.5056050183565
 21
-130.772084658109
 31
0.0
  0
LINE
  5
122
330
1F
100
AcDbEntity
  8
1
  6
Continuous
 62
     7
100
AcDbLine
 10
205.9258064516131
 20
-140.1690108659681
 30
0.0
 11
205.925806451613
 21
-160.166935483871
 31
0.0
  0
LINE
  5
123
330
1F
100
AcDbEntity
  8
1
  6
Continuous
 62
     7
100
AcDbLine
 10
205.925806451613
 20
-160.166935483871
 30
0.0
 11
248.425806451613
 21
-160.166935483871
 31
0.0
  0
LINE
  5
124
330
1F
100
AcDbEntity
  8
1
  6
Continuous
 62
     7
100
AcDbLine
 10
463.425806451613
 20
-160.166935483871
 30
0.0
 11
463.425806451613
 21
-163.666935483871
 31
0.0
  0
LINE
  5
125
330
1F
100
AcDbEntity
  8
1
  6
Continuous
 62
     7
100
AcDbLine
 10
248.425806451613
 20
-160.166935483871
 30
0.0
 11
248.425806451613
 21
-163.666935483871
 31
0.0
  0
LINE
  5
126
330
1F
100
AcDbEntity
  8
1
  6
Continuous
 62
     7
100
AcDbLine
 10
248.425806451613
 20
-163.666935483871
 30
0.0
 11
463.425806451613
 21
-163.666935483871
 31
0.0
  0
LINE
  5
127
330
1F
100
AcDbEntity
  8
1
  6
Continuous
 62
     7
100
AcDbLine
 10
285.9258064516131
 20
138.8330645161289
 30
0.0
 11
333.4258064516131
 21
138.833064516129
 31
0.0
  0
LINE
  5
128
330
1F
100
AcDbEntity
  8
1
  6
Continuous
 62
     7
100
AcDbLine
 10
325.925806451613
 20
176.833064516129
 30
0.0
 11
333.425806451613
 21
176.833064516129
 31
0.0
  0
LINE
  5
129
330
1F
100
AcDbEntity
  8
1
  6
Continuous
 62
     7
100
AcDbLine
 10
378.9045747602777
 20
206.833064516129
 30
0.0
 11
332.9470381429484
 21
206.833064516129
 31
0.0
  0
LINE
  5
12A
330
1F
100
AcDbEntity
  8
1
  6
Continuous
 62
     7
100
AcDbLine
 10
334.9470381429484
 20
214.333064516129
 30
0.0
 11
376.9045747602776
 21
214.333064516129
 31
0.0
  0
LINE
  5
12B
330
1F
100
AcDbEntity
  8
1
  6
Continuous
 62
     7
100
AcDbLine
 10
376.9045747602776
 20
214.333064516129
 30
0.0
 11
378.9045747602776
 21
214.333064516129
 31
0.0
  0
LINE
  5
12C
330
1F
100
AcDbEntity
  8
1
  6
Continuous
 62
     7
100
AcDbLine
 10
378.9045747602776
 20
214.333064516129
 30
0.0
 11
378.9045747602777
 21
206.833064516129
 31
0.0
  0
LINE
  5
12D
330
1F
100
AcDbEntity
  8
1
  6
Continuous
 62
     7
100
AcDbLine
 10
378.9045747602777
 20
206.833064516129
 30
0.0
 11
385.9258064516131
 21
206.833064516129
 31
0.0
  0
LINE
  5
12E
330
1F
100
AcDbEntity
  8
1
  6
Continuous
 62
     7
100
AcDbLine
 10
379.725806451613
 20
238.833064516129
 30
0.0
 11
379.7258064516132
 21
230.333064516129
 31
0.0
  0
LINE
  5
12F
330
1F
100
AcDbEntity
  8
1
  6
Continuous
 62
     7
100
AcDbLine
 10
379.7258064516132
 20
230.333064516129
 30
0.0
 11
376.9045747602776
 21
214.333064516129
 31
0.0
  0
LINE
  5
130
330
1F
100
AcDbEntity
  8
1
  6
Continuous
 62
     7
100
AcDbLine
 10
325.925806451613
 20
206.833064516129
 30
0.0
 11
332.9470381429484
 21
206.833064516129
 31
0.0
  0
LINE
  5
131
330
1F
100
AcDbEntity
  8
1
  6
Continuous
 62
     7
100
AcDbLine
 10
332.9470381429484
 20
206.833064516129
 30
0.0
 11
332.9470381429484
 21
214.333064516129
 31
0.0
  0
LINE
  5
132
330
1F
100
AcDbEntity
  8
1
  6
Continuous
 62
     7
100
AcDbLine
 10
332.9470381429484
 20
214.333064516129
 30
0.0
 11
334.9470381429484
 21
214.333064516129
 31
0.0
  0
LINE
  5
133
330
1F
100
AcDbEntity
  8
1
  6
Continuous
 62
     7
100
AcDbLine
 10
334.9470381429484
 20
214.333064516129
 30
0.0
 11
332.125806451613
 21
230.333064516129
 31
0.0
  0
LINE
  5
134
330
1F
100
AcDbEntity
  8
1
  6
Continuous
 62
     7
100
AcDbLine
 10
332.125806451613
 20
230.333064516129
 30
0.0
 11
332.125806451613
 21
238.833064516129
 31
0.0
  0
LINE
  5
135
330
1F
100
AcDbEntity
  8
1
  6
Continuous
 62
     7
100
AcDbLine
 10
332.125806451613
 20
238.833064516129
 30
0.0
 11
379.725806451613
 21
238.833064516129
 31
0.0
  0
LINE
  5
136
330
1F
100
AcDbEntity
  8
1
  6
Continuous
 62
     7
100
AcDbLine
 10
385.9258064516131
 20
206.833064516129
 30
0.0
 11
385.9258064516131
 21
176.833064516129
 31
0.0
  0
LINE
  5
137
330
1F
100
AcDbEntity
  8
1
  6
Continuous
 62
     7
100
AcDbLine
 10
325.925806451613
 20
206.833064516129
 30
0.0
 11
325.925806451613
 21
176.833064516129
 31
0.0
  0
LINE
  5
138
330
1F
100
AcDbEntity
  8
1
  6
Continuous
 62
     7
100
AcDbLine
 10
549.423616899968
 20
-92.86806853024108
 30
0.0
 11
555.4258064516131
 21
-95.66693548387107
 31
0.0
  0
LINE
  5
139
330
1F
100
AcDbEntity
  8
1
  6
Continuous
 62
     7
100
AcDbLine
 10
165.1469317390861
 20
85.26633700685119
 30
0.0
 11
156.4258064516131
 21
89.33306451612896
 31
0.0
  0
LINE
  5
13A
330
1F
100
AcDbEntity
  8
1
  6
DOT_CENTER
 62
     1
100
AcDbLine
 10
355.925806451613
 20
138.833064516129
 30
0.0
 11
355.925806451613
 21
255.607584883143
 31
0.0
  0
LINE
  5
13B
330
1F
100
AcDbEntity
  8
1
  6
DOT_CENTER
 62
     1
100
AcDbLine
 10
114.5405257202302
 20
-3.16693548387106
 30
0.0
 11
595.5211596460161
 21
-3.16693548387106
 31
0.0
  0
LINE
  5
13C
330
1F
100
AcDbEntity
  8
1
  6
Continuous
 62
     7
100
AcDbLine
 10
581.425806451613
 20
136.8330645161289
 30
0.0
 11
581.4258064516132
 21
-143.166935483871
 31
0.0
  0
LINE
  5
13D
330
1F
100
AcDbEntity
  8
1
  6
Continuous
 62
     7
100
AcDbLine
 10
581.4258064516132
 20
-143.166935483871
 30
0.0
 11
557.425806451613
 21
-143.1669354838711
 31
0.0
  0
LINE
  5
13E
330
1F
100
AcDbEntity
  8
1
  6
Continuous
 62
     7
100
AcDbLine
 10
555.425806451613
 20
-141.1669354838711
 30
0.0
 11
555.4258064516131
 21
89.33306451612896
 31
0.0
  0
LINE
  5
13F
330
1F
100
AcDbEntity
  8
1
  6
Continuous
 62
     7
100
AcDbLine
 10
557.425806451613
 20
136.8330645161289
 30
0.0
 11
581.425806451613
 21
136.8330645161289
 31
0.0
  0
LINE
  5
140
330
1F
100
AcDbEntity
  8
1
  6
Continuous
 62
     7
100
AcDbLine
 10
156.425806451613
 20
134.833064516129
 30
0.0
 11
156.4258064516131
 21
-95.66693548387107
 31
0.0
  0
LINE
  5
141
330
1F
100
AcDbEntity
  8
1
  6
Continuous
 62
     7
100
AcDbLine
 10
154.425806451613
 20
-143.166935483871
 30
0.0
 11
130.425806451613
 21
-143.166935483871
 31
0.0
  0
LINE
  5
142
330
1F
100
AcDbEntity
  8
1
  6
Continuous
 62
     7
100
AcDbLine
 10
130.425806451613
 20
-143.166935483871
 30
0.0
 11
130.425806451613
 21
136.833064516129
 31
0.0
  0
LINE
  5
143
330
1F
100
AcDbEntity
  8
1
  6
Continuous
 62
     7
100
AcDbLine
 10
130.425806451613
 20
136.833064516129
 30
0.0
 11
154.425806451613
 21
136.833064516129
 31
0.0
  0
LINE
  5
144
330
1F
100
AcDbEntity
  8
1
  6
Continuous
 62
     7
100
AcDbLine
 10
463.4258064516132
 20
-122.4588578760497
 30
0.0
 11
235.3460078848699
 21
-122.4588578760497
 31
0.0
  0
LINE
  5
145
330
1F
100
AcDbEntity
  8
1
  6
Continuous
 62
     7
100
AcDbLine
 10
355.925806451613
 20
138.833064516129
 30
0.0
 11
333.4258064516131
 21
138.833064516129
 31
0.0
  0
LINE
  5
146
330
1F
100
AcDbEntity
  8
1
  6
DOT_CENTER
 62
     1
100
AcDbLine
 10
355.925806451613
 20
-182.476300117008
 30
0.0
 11
355.925806451613
 21
138.833064516129
 31
0.0
  0
ARC
  5
147
330
1F
100
AcDbEntity
  8
1
  6
Continuous
 62
     7
100
AcDbCircle
 10
355.925806451613
 20
31.83306451612894
 30
0.0
 40
107.0000000000001
100
AcDbArc
 50
11.77860442562947
 51
32.50567745257458
  0
ARC
  5
148
330
1F
100
AcDbEntity
  8
WORKLAYER
  6
Continuous
 62
     7
100
AcDbCircle
 10
355.925806451613
 20
52.34756421612889
 30
0.0
 40
5.51463990000002
100
AcDbArc
 50
-90.0
 51
0.0
  0
ARC
  5
149
330
1F
100
AcDbEntity
  8
1
  6
Continuous
 62
     7
100
AcDbCircle
 10
373.425806451613
 20
-108.1669354838711
 30
0.0
 40
20.00000000000003
100
AcDbArc
 50
131.4096221092707
 51
180.0
  0
ARC
  5
14A
330
1F
100
AcDbEntity
  8
1
  6
Continuous
 62
     7
100
AcDbCircle
 10
373.425806451613
 20
-108.1669354838711
 30
0.0
 40
15.00000000000004
100
AcDbArc
 50
90.0
 51
180.0
  0
ARC
  5
14B
330
1F
100
AcDbEntity
  8
1
  6
Continuous
 62
     7
100
AcDbCircle
 10
570.4258064516132
 20
-173.166935483871
 30
0.0
 40
82.99999999999996
100
AcDbArc
 50
104.657383851116
 51
134.9386477074656
  0
ARC
  5
14C
330
1F
100
AcDbEntity
  8
1
  6
Continuous
 62
     7
100
AcDbCircle
 10
525.9258064516132
 20
-128.5715321333014
 30
0.0
 40
20.00000000000003
100
AcDbArc
 50
133.3283996759471
 51
180.0
  0
ARC
  5
14D
330
1F
100
AcDbEntity
  8
1
  6
Continuous
 62
     7
100
AcDbCircle
 10
146.4258064516132
 20
14.30723543281782
 30
0.0
 40
106.9999999999999
100
AcDbArc
 50
-70.49100417553302
 51
-43.0490798002364
  0
ARC
  5
14E
330
1F
100
AcDbEntity
  8
1
  6
Continuous
 62
     7
100
AcDbCircle
 10
231.9258064516131
 20
-65.55984163902704
 30
0.0
 40
10.0
100
AcDbArc
 50
0.0
 51
136.9509201997637
  0
ARC
  5
14F
330
1F
100
AcDbEntity
  8
1
  6
Continuous
 62
     7
100
AcDbCircle
 10
285.9258064516131
 20
31.83306451612893
 30
0.0
 40
107.0
100
AcDbArc
 50
90.0
 51
134.5075653462306
  0
ARC
  5
150
330
1F
100
AcDbEntity
  8
1
  6
Continuous
 62
     7
100
AcDbCircle
 10
152.7351536264242
 20
167.333064516129
 30
0.0
 40
83.00000000000007
100
AcDbArc
 50
-81.39975940906247
 51
-45.49243465376944
  0
ARC
  5
151
330
1F
100
AcDbEntity
  8
1
  6
Continuous
 62
     7
100
AcDbCircle
 10
470.4622174895172
 20
55.71633369261065
 30
0.0
 40
9.999999999999959
100
AcDbArc
 50
-168.2213955743705
 51
-45.25369393868711
  0
ARC
  5
152
330
1F
100
AcDbEntity
  8
1
  6
Continuous
 62
     7
100
AcDbCircle
 10
355.925806451613
 20
31.83306451612894
 30
0.0
 40
107.0000000000001
100
AcDbArc
 50
32.50567745257458
 51
90.0
  0
ARC
  5
153
330
1F
100
AcDbEntity
  8
1
  6
Continuous
 62
     7
100
AcDbCircle
 10
570.4258064516132
 20
-45.13643464726756
 30
0.0
 40
132.0000000000001
100
AcDbArc
 50
109.0520319880315
 51
134.7463060613127
  0
ARC
  5
154
330
1F
100
AcDbEntity
  8
1
  6
Continuous
 62
     7
100
AcDbCircle
 10
231.9258064516131
 20
-113.0619316681906
 30
0.0
 40
10.00000000000006
100
AcDbArc
 50
-69.99999999999956
 51
0.0
  0
ARC
  5
155
330
1F
100
AcDbEntity
  8
1
  6
Continuous
 62
     7
100
AcDbCircle
 10
215.9258064516131
 20
-140.1690108659681
 30
0.0
 40
9.99999999999997
100
AcDbArc
 50
109.9999999999996
 51
180.0
  0
ARC
  5
156
330
1F
100
AcDbEntity
  8
1
  6
Continuous
 62
     7
100
AcDbCircle
 10
557.425806451613
 20
-141.1669354838711
 30
0.0
 40
2.0
100
AcDbArc
 50
180.0
 51
-90.0
  0
ARC
  5
157
330
1F
100
AcDbEntity
  8
1
  6
Continuous
 62
     7
100
AcDbCircle
 10
557.4258064516132
 20
134.833064516129
 30
0.0
 40
1.999999999999886
100
AcDbArc
 50
90.00000000000651
 51
-179.9999999999967
  0
ARC
  5
158
330
1F
100
AcDbEntity
  8
1
  6
Continuous
 62
     7
100
AcDbCircle
 10
154.4258064516132
 20
-141.1669354838711
 30
0.0
 40
1.999999999999886
100
AcDbArc
 50
-90.0000000000057
 51
0.00000000000326
  0
ARC
  5
159
330
1F
100
AcDbEntity
  8
1
  6
Continuous
 62
     7
100
AcDbCircle
 10
154.425806451613
 20
134.833064516129
 30
0.0
 40
2.0
100
AcDbArc
 50
0.0
 51
90.0
  0
MTEXT
  5
15A
330
1F
100
AcDbEntity
  8
1
 62
     7
100
AcDbMText
 10
209.1238879620548
 20
-3.16693548387107
 30
0.0
 40
15.0
 41
0.0
 71
     5
 72
     1
  1
A
  7
CONVERTER_1
 73
     1
 44
0.84033613445378
  0
MTEXT
  5
15B
330
1F
100
AcDbEntity
  8
1
 62
     7
100
AcDbMText
 10
503.3121240837918
 20
-3.16693548387107
 30
0.0
 40
15.0
 41
0.0
 71
     5
 72
     1
  1
AB
  7
CONVERTER_1
 73
     1
 44
0.84033613445378
  0
MTEXT
  5
15C
330
1F
100
AcDbEntity
  8
1
 62
     7
100
AcDbMText
 10
355.925806451613
 20
-28.16693548387107
 30
0.0
 40
42.0
 41
0.0
 71
     2
 72
     1
  1
6
  7
CONVERTER_1
 73
     1
 44
0.84033613445378
  0
MTEXT
  5
15D
330
1F
100
AcDbEntity
  8
1
 62
     7
100
AcDbMText
 10
355.925806451613
 20
-140.166935483871
 30
0.0
 40
12.0
 41
0.0
 71
     2
 72
     1
  1
10K
  7
CONVERTER_1
 73
     1
 44
0.84033613445378
  0
DIMENSION
  5
171
330
1F
100
AcDbEntity
  8
1
100
AcDbDimension
  2
*D09
 10
130.425806451613
 20
-349.260582427054
 30
0.0
 11
354.141901051363
 21
-342.660582427054
 31
0.0
  1
<>
 71
     5
 42
0.0
 53
0.00013888888889
  3
ME10_DIM_0
100
AcDbAlignedDimension
 13
581.4258064516132
 23
-143.166935483871
 33
0.0
 14
130.425806451613
 24
-143.166935483871
 34
0.0
100
AcDbRotatedDimension
  0
DIMENSION
  5
17E
330
1F
100
AcDbEntity
  8
1
100
AcDbDimension
  2
*D111
 10
611.617483640608
 20
136.8330645161289
 30
0.0
 11
605.017483640608
 21
-28.79921527284958
 31
0.0
  1
<>
 71
     5
 42
0.0
 53
90.0
  3
ME10_DIM_1
100
AcDbAlignedDimension
 13
581.4258064516132
 23
-143.166935483871
 33
0.0
 14
581.425806451613
 24
136.8330645161289
 34
0.0
 50
90.0
100
AcDbRotatedDimension
  0
DIMENSION
  5
18B
330
1F
100
AcDbEntity
  8
1
100
AcDbDimension
  2
*D212
 10
638.306375405421
 20
-3.1669354838711
 30
0.0
 11
631.706375405421
 21
-172.3975804385544
 31
0.0
  1
<>
 71
     5
 42
0.0
 53
90.0
  3
ME10_DIM_2
100
AcDbAlignedDimension
 13
495.925806451613
 23
-313.166935483871
 33
0.0
 14
595.5211596460161
 24
-3.16693548387106
 34
0.0
 50
90.0
100
AcDbRotatedDimension
  0
DIMENSION
  5
198
330
1F
100
AcDbEntity
  8
1
100
AcDbDimension
  2
*D313
 10
638.306375405421
 20
-3.16693548387104
 30
0.0
 11
631.706375405421
 21
92.90213117469899
 31
0.0
  1
<>
 71
     5
 42
0.0
 53
90.0
  3
ME10_DIM_3
100
AcDbAlignedDimension
 13
385.9258064516131
 23
206.833064516129
 33
0.0
 14
595.5211596460161
 24
-3.16693548387106
 34
0.0
 50
90.0
100
AcDbRotatedDimension
  0
DIMENSION
  5
1A5
330
1F
100
AcDbEntity
  8
1
100
AcDbDimension
  2
*D414
 10
638.171501742151
 20
206.833064516129
 30
0.0
 11
631.571501742151
 21
310.026386085312
 31
0.0
  1
<>
 71
     5
 42
0.0
 53
90.0
  3
ME10_DIM_4
100
AcDbAlignedDimension
 13
359.4758095516127
 23
377.333064516129
 33
0.0
 14
385.9258064516131
 24
206.833064516129
 34
0.0
 50
90.0
100
AcDbRotatedDimension
  0
ENDSEC
  0
SECTION
  2
OBJECTS
  0
DICTIONARY
  5
C
330
0
100
AcDbDictionary
281
     1
  3
ACAD_GROUP
350
D
  3
ACAD_LAYOUT
350
1A
  3
ACAD_MLINESTYLE
350
17
  3
ACAD_PLOTSETTINGS
350
19
  3
ACAD_PLOTSTYLENAME
350
E
  3
ACAD_TABLESTYLE
350
2A
  3
AcDbVariableDictionary
350
2C
  0
DICTIONARY
  5
D
102
{ACAD_REACTORS
330
C
102
}
330
C
100
AcDbDictionary
281
     1
  0
DICTIONARY
  5
1A
102
{ACAD_REACTORS
330
C
102
}
330
C
100
AcDbDictionary
281
     1
  3
Layout1
350
1E
  3
Layout2
350
26
  3
Model
350
22
  0
DICTIONARY
  5
17
102
{ACAD_REACTORS
330
C
102
}
330
C
100
AcDbDictionary
281
     1
  3
Standard
350
18
  0
DICTIONARY
  5
19
102
{ACAD_REACTORS
330
C
102
}
330
C
100
AcDbDictionary
281
     1
  0
ACDBDICTIONARYWDFLT
  5
E
102
{ACAD_REACTORS
330
C
102
}
330
C
100
AcDbDictionary
281
     1
  3
Normal
350
F
100
AcDbDictionaryWithDefault
340
F
  0
DICTIONARY
  5
2A
102
{ACAD_REACTORS
330
C
102
}
330
C
100
AcDbDictionary
281
     1
  3
Standard
350
2B
  0
DICTIONARY
  5
2C
102
{ACAD_REACTORS
330
C
102
}
330
C
100
AcDbDictionary
281
     1
  3
CTABLESTYLE
350
2D
  0
LAYOUT
  5
1E
102
{ACAD_REACTORS
330
1A
102
}
330
1A
100
AcDbPlotSettings
  1

  2

  4

  6

 40
0.0
 41
0.0
 42
0.0
 43
0.0
 44
0.0
 45
0.0
 46
0.0
 47
0.0
 48
0.0
 49
0.0
140
0.0
141
0.0
142
1.0
143
1.0
 70
   688
 72
     0
 73
     0
 74
     5
  7

 75
    16
147
1.0
148
0.0
149
0.0
100
AcDbLayout
  1
Layout1
 70
     1
 71
     1
 10
0.0
 20
0.0
 11
12.0
 21
9.0
 12
0.0
 22
0.0
 32
0.0
 14
1.00000000000000E+20
 24
1.00000000000000E+20
 34
1.00000000000000E+20
 15
-1.00000000000000E+20
 25
-1.00000000000000E+20
 35
-1.00000000000000E+20
146
0.0
 13
0.0
 23
0.0
 33
0.0
 16
1.0
 26
0.0
 36
0.0
 17
0.0
 27
1.0
 37
0.0
 76
     0
330
1B
  0
LAYOUT
  5
26
102
{ACAD_REACTORS
330
1A
102
}
330
1A
100
AcDbPlotSettings
  1

  2

  4

  6

 40
0.0
 41
0.0
 42
0.0
 43
0.0
 44
0.0
 45
0.0
 46
0.0
 47
0.0
 48
0.0
 49
0.0
140
0.0
141
0.0
142
1.0
143
1.0
 70
   688
 72
     0
 73
     0
 74
     5
  7

 75
    16
147
1.0
148
0.0
149
0.0
100
AcDbLayout
  1
Layout2
 70
     1
 71
     2
 10
0.0
 20
0.0
 11
0.0
 21
0.0
 12
0.0
 22
0.0
 32
0.0
 14
0.0
 24
0.0
 34
0.0
 15
0.0
 25
0.0
 35
0.0
146
0.0
 13
0.0
 23
0.0
 33
0.0
 16
1.0
 26
0.0
 36
0.0
 17
0.0
 27
1.0
 37
0.0
 76
     0
330
23
  0
LAYOUT
  5
22
102
{ACAD_REACTORS
330
1A
102
}
330
1A
100
AcDbPlotSettings
  1

  2

  4

  6

 40
0.0
 41
0.0
 42
0.0
 43
0.0
 44
0.0
 45
0.0
 46
0.0
 47
0.0
 48
0.0
 49
0.0
140
0.0
141
0.0
142
1.0
143
1.0
 70
  1712
 72
     0
 73
     0
 74
     0
  7

 75
     0
147
1.0
148
0.0
149
0.0
100
AcDbLayout
  1
Model
 70
     1
 71
     0
 10
0.0
 20
0.0
 11
0.0
 21
0.0
 12
0.0
 22
0.0
 32
0.0
 14
114.5405257202302
 24
-351.9400743513652
 34
0.0
 15
640.9858673297323
 25
380.6012913882143
 35
0.0
146
0.0
 13
0.0
 23
0.0
 33
0.0
 16
1.0
 26
0.0
 36
0.0
 17
0.0
 27
1.0
 37
0.0
 76
     0
330
1F
  0
MLINESTYLE
  5
18
102
{ACAD_REACTORS
330
17
102
}
330
17
100
AcDbMlineStyle
  2
Standard
 70
     0
  3

 62
   256
 51
90.0
 52
90.0
 71
     2
 49
0.5
 62
   256
  6
BYLAYER
 49
-0.5
 62
   256
  6
BYLAYER
  0
ACDBPLACEHOLDER
  5
F
102
{ACAD_REACTORS
330
E
102
}
330
E
  0
TABLESTYLE
  5
2B
102
{ACAD_REACTORS
330
2A
102
}
330
2A
100
AcDbTableStyle
  3
Standard
 70
     0
 71
     0
 40
0.06
 41
0.06
280
     0
281
     0
  7
Standard
140
0.18
170
     2
 62
     0
 63
     7
283
     0
274
    -2
284
     1
 64
     0
275
    -2
285
     1
 65
     0
276
    -2
286
     1
 66
     0
277
    -2
287
     1
 67
     0
278
    -2
288
     1
 68
     0
279
    -2
289
     1
 69
     0
  7
Standard
140
0.25
170
     5
 62
     0
 63
     7
283
     0
274
    -2
284
     1
 64
     0
275
    -2
285
     1
 65
     0
276
    -2
286
     1
 66
     0
277
    -2
287
     1
 67
     0
278
    -2
288
     1
 68
     0
279
    -2
289
     1
 69
     0
  7
Standard
140
0.18
170
     5
 62
     0
 63
     7
283
     0
274
    -2
284
     1
 64
     0
275
    -2
285
     1
 65
     0
276
    -2
286
     1
 66
     0
277
    -2
287
     1
 67
     0
278
    -2
288
     1
 68
     0
279
    -2
289
     1
 69
     0
  0
DICTIONARYVAR
  5
2D
102
{ACAD_REACTORS
330
2C
102
}
330
2C
100
DictionaryVariables
280
     0
  1
Standard
  0
ENDSEC
  0
EOF
