  0
SECTION
  2
HEADER
  9
$ACADVER
  1
AC1015
  9
$ACADMAINTVER
 70
     6
  9
$DWGCODEPAGE
  3
DOS932
  9
$INSBASE
 10
0.0
 20
0.0
 30
0.0
  9
$EXTMIN
 10
-1648.625770687507
 20
-287.3579138645642
 30
0.0
  9
$EXTMAX
 10
-1276.015093790119
 20
257.908992216129
 30
0.0
  9
$LIMMIN
 10
0.0
 20
0.0
  9
$LIMMAX
 10
12.0
 20
9.0
  9
$ORTHOMODE
 70
     0
  9
$REGENMODE
 70
     1
  9
$FILLMODE
 70
     1
  9
$QTEXTMODE
 70
     0
  9
$MIRRTEXT
 70
     1
  9
$LTSCALE
 40
1.0
  9
$ATTMODE
 70
     1
  9
$TEXTSIZE
 40
0.2
  9
$TRACEWID
 40
0.05
  9
$TEXTSTYLE
  7
Standard
  9
$CLAYER
  8
0
  9
$CELTYPE
  6
ByLayer
  9
$CECOLOR
 62
   256
  9
$CELTSCALE
 40
1.0
  9
$DISPSILH
 70
     0
  9
$DIMSCALE
 40
1.0
  9
$DIMASZ
 40
0.18
  9
$DIMEXO
 40
0.0625
  9
$DIMDLI
 40
0.38
  9
$DIMRND
 40
0.0
  9
$DIMDLE
 40
0.0
  9
$DIMEXE
 40
0.18
  9
$DIMTP
 40
0.0
  9
$DIMTM
 40
0.0
  9
$DIMTXT
 40
0.18
  9
$DIMCEN
 40
0.09
  9
$DIMTSZ
 40
0.0
  9
$DIMTOL
 70
     0
  9
$DIMLIM
 70
     0
  9
$DIMTIH
 70
     1
  9
$DIMTOH
 70
     1
  9
$DIMSE1
 70
     0
  9
$DIMSE2
 70
     0
  9
$DIMTAD
 70
     0
  9
$DIMZIN
 70
     0
  9
$DIMBLK
  1

  9
$DIMASO
 70
     1
  9
$DIMSHO
 70
     1
  9
$DIMPOST
  1

  9
$DIMAPOST
  1

  9
$DIMALT
 70
     0
  9
$DIMALTD
 70
     2
  9
$DIMALTF
 40
25.4
  9
$DIMLFAC
 40
1.0
  9
$DIMTOFL
 70
     0
  9
$DIMTVP
 40
0.0
  9
$DIMTIX
 70
     0
  9
$DIMSOXD
 70
     0
  9
$DIMSAH
 70
     0
  9
$DIMBLK1
  1

  9
$DIMBLK2
  1

  9
$DIMSTYLE
  2
Standard
  9
$DIMCLRD
 70
     0
  9
$DIMCLRE
 70
     0
  9
$DIMCLRT
 70
     0
  9
$DIMTFAC
 40
1.0
  9
$DIMGAP
 40
0.09
  9
$DIMJUST
 70
     0
  9
$DIMSD1
 70
     0
  9
$DIMSD2
 70
     0
  9
$DIMTOLJ
 70
     1
  9
$DIMTZIN
 70
     0
  9
$DIMALTZ
 70
     0
  9
$DIMALTTZ
 70
     0
  9
$DIMUPT
 70
     0
  9
$DIMDEC
 70
     4
  9
$DIMTDEC
 70
     4
  9
$DIMALTU
 70
     2
  9
$DIMALTTD
 70
     2
  9
$DIMTXSTY
  7
Standard
  9
$DIMAUNIT
 70
     0
  9
$DIMADEC
 70
     0
  9
$DIMALTRND
 40
0.0
  9
$DIMAZIN
 70
     0
  9
$DIMDSEP
 70
    46
  9
$DIMATFIT
 70
     3
  9
$DIMFRAC
 70
     0
  9
$DIMLDRBLK
  1

  9
$DIMLUNIT
 70
     2
  9
$DIMLWD
 70
    -2
  9
$DIMLWE
 70
    -2
  9
$DIMTMOVE
 70
     0
  9
$LUNITS
 70
     2
  9
$LUPREC
 70
     4
  9
$SKETCHINC
 40
0.1
  9
$FILLETRAD
 40
0.5
  9
$AUNITS
 70
     0
  9
$AUPREC
 70
     0
  9
$MENU
  1
.
  9
$ELEVATION
 40
0.0
  9
$PELEVATION
 40
0.0
  9
$THICKNESS
 40
0.0
  9
$LIMCHECK
 70
     0
  9
$CHAMFERA
 40
0.5
  9
$CHAMFERB
 40
0.5
  9
$CHAMFERC
 40
1.0
  9
$CHAMFERD
 40
0.0
  9
$SKPOLY
 70
     0
  9
$TDCREATE
 40
2453873.553161343
  9
$TDUCREATE
 40
2453873.178161343
  9
$TDUPDATE
 40
2453873.553161354
  9
$TDUUPDATE
 40
2453873.178161354
  9
$TDINDWG
 40
0.0000000116
  9
$TDUSRTIMER
 40
0.0000000116
  9
$USRTIMER
 70
     1
  9
$ANGBASE
 50
0.0
  9
$ANGDIR
 70
     0
  9
$PDMODE
 70
     0
  9
$PDSIZE
 40
0.0
  9
$PLINEWID
 40
0.0
  9
$SPLFRAME
 70
     0
  9
$SPLINETYPE
 70
     6
  9
$SPLINESEGS
 70
     8
  9
$HANDSEED
  5
280
  9
$SURFTAB1
 70
     6
  9
$SURFTAB2
 70
     6
  9
$SURFTYPE
 70
     6
  9
$SURFU
 70
     6
  9
$SURFV
 70
     6
  9
$UCSBASE
  2

  9
$UCSNAME
  2

  9
$UCSORG
 10
0.0
 20
0.0
 30
0.0
  9
$UCSXDIR
 10
1.0
 20
0.0
 30
0.0
  9
$UCSYDIR
 10
0.0
 20
1.0
 30
0.0
  9
$UCSORTHOREF
  2

  9
$UCSORTHOVIEW
 70
     0
  9
$UCSORGTOP
 10
0.0
 20
0.0
 30
0.0
  9
$UCSORGBOTTOM
 10
0.0
 20
0.0
 30
0.0
  9
$UCSORGLEFT
 10
0.0
 20
0.0
 30
0.0
  9
$UCSORGRIGHT
 10
0.0
 20
0.0
 30
0.0
  9
$UCSORGFRONT
 10
0.0
 20
0.0
 30
0.0
  9
$UCSORGBACK
 10
0.0
 20
0.0
 30
0.0
  9
$PUCSBASE
  2

  9
$PUCSNAME
  2

  9
$PUCSORG
 10
0.0
 20
0.0
 30
0.0
  9
$PUCSXDIR
 10
1.0
 20
0.0
 30
0.0
  9
$PUCSYDIR
 10
0.0
 20
1.0
 30
0.0
  9
$PUCSORTHOREF
  2

  9
$PUCSORTHOVIEW
 70
     0
  9
$PUCSORGTOP
 10
0.0
 20
0.0
 30
0.0
  9
$PUCSORGBOTTOM
 10
0.0
 20
0.0
 30
0.0
  9
$PUCSORGLEFT
 10
0.0
 20
0.0
 30
0.0
  9
$PUCSORGRIGHT
 10
0.0
 20
0.0
 30
0.0
  9
$PUCSORGFRONT
 10
0.0
 20
0.0
 30
0.0
  9
$PUCSORGBACK
 10
0.0
 20
0.0
 30
0.0
  9
$USERI1
 70
     0
  9
$USERI2
 70
     0
  9
$USERI3
 70
     0
  9
$USERI4
 70
     0
  9
$USERI5
 70
     0
  9
$USERR1
 40
13.01
  9
$USERR2
 40
0.0
  9
$USERR3
 40
0.0
  9
$USERR4
 40
0.0
  9
$USERR5
 40
0.0
  9
$WORLDVIEW
 70
     1
  9
$SHADEDGE
 70
     3
  9
$SHADEDIF
 70
    70
  9
$TILEMODE
 70
     1
  9
$MAXACTVP
 70
    64
  9
$PINSBASE
 10
0.0
 20
0.0
 30
0.0
  9
$PLIMCHECK
 70
     0
  9
$PEXTMIN
 10
1.00000000000000E+20
 20
1.00000000000000E+20
 30
1.00000000000000E+20
  9
$PEXTMAX
 10
-1.00000000000000E+20
 20
-1.00000000000000E+20
 30
-1.00000000000000E+20
  9
$PLIMMIN
 10
0.0
 20
0.0
  9
$PLIMMAX
 10
12.0
 20
9.0
  9
$UNITMODE
 70
     0
  9
$VISRETAIN
 70
     1
  9
$PLINEGEN
 70
     0
  9
$PSLTSCALE
 70
     1
  9
$TREEDEPTH
 70
  3020
  9
$CMLSTYLE
  2
Standard
  9
$CMLJUST
 70
     0
  9
$CMLSCALE
 40
1.0
  9
$PROXYGRAPHICS
 70
     1
  9
$MEASUREMENT
 70
     1
  9
$CELWEIGHT
370
    -1
  9
$ENDCAPS
280
     0
  9
$JOINSTYLE
280
     0
  9
$LWDISPLAY
290
     0
  9
$INSUNITS
 70
     1
  9
$HYPERLINKBASE
  1

  9
$STYLESHEET
  1

  9
$XEDIT
290
     1
  9
$CEPSNTYPE
380
     0
  9
$PSTYLEMODE
290
     0
  9
$FINGERPRINTGUID
  2
{FAEB1C30-E019-11D5-929B-00C0DF256EC4}
  9
$VERSIONGUID
  2
{FAEB1C32-E019-11D5-929B-00C0DF256EC4}
  9
$EXTNAMES
290
     1
  9
$PSVPSCALE
 40
0.0
  9
$OLESTARTUP
290
     0
  0
ENDSEC
  0
SECTION
  2
CLASSES
  0
CLASS
  1
ACDBDICTIONARYWDFLT
  2
AcDbDictionaryWithDefault
  3
ObjectDBX Classes
 90
        0
280
     0
281
     0
  0
CLASS
  1
TABLESTYLE
  2
AcDbTableStyle
  3
ObjectDBX Classes
 90
     2047
280
     0
281
     0
  0
CLASS
  1
DICTIONARYVAR
  2
AcDbDictionaryVar
  3
ObjectDBX Classes
 90
        0
280
     0
281
     0
  0
CLASS
  1
ACDBPLACEHOLDER
  2
AcDbPlaceHolder
  3
ObjectDBX Classes
 90
        0
280
     0
281
     0
  0
CLASS
  1
LAYOUT
  2
AcDbLayout
  3
ObjectDBX Classes
 90
        0
280
     0
281
     0
  0
ENDSEC
  0
SECTION
  2
TABLES
  0
TABLE
  2
VPORT
  5
8
330
0
100
AcDbSymbolTable
 70
     2
  0
VPORT
  5
29
330
8
100
AcDbSymbolTableRecord
100
AcDbViewportTableRecord
  2
*Active
 70
     0
 10
0.0
 20
0.0
 11
1.0
 21
1.0
 12
-1462.320432238813
 22
-14.7244608242176
 13
0.0
 23
0.0
 14
0.5
 24
0.5
 15
0.5
 25
0.5
 16
0.0
 26
0.0
 36
1.0
 17
0.0
 27
0.0
 37
0.0
 40
599.7935966887625
 41
1.60267857142857
 42
50.0
 43
0.0
 44
0.0
 50
0.0
 51
0.0
 71
     0
 72
   100
 73
     1
 74
     3
 75
     0
 76
     0
 77
     0
 78
     0
281
     0
 65
     1
110
0.0
120
0.0
130
0.0
111
1.0
121
0.0
131
0.0
112
0.0
122
1.0
132
0.0
 79
     0
146
0.0
  0
ENDTAB
  0
TABLE
  2
LTYPE
  5
5
330
0
100
AcDbSymbolTable
 70
     9
  0
LTYPE
  5
14
330
5
100
AcDbSymbolTableRecord
100
AcDbLinetypeTableRecord
  2
ByBlock
 70
     0
  3

 72
    65
 73
     0
 40
0.0
  0
LTYPE
  5
15
330
5
100
AcDbSymbolTableRecord
100
AcDbLinetypeTableRecord
  2
ByLayer
 70
     0
  3

 72
    65
 73
     0
 40
0.0
  0
LTYPE
  5
16
330
5
100
AcDbSymbolTableRecord
100
AcDbLinetypeTableRecord
  2
Continuous
 70
     0
  3
Solid line
 72
    65
 73
     0
 40
0.0
  0
LTYPE
  5
2E
330
5
100
AcDbSymbolTableRecord
100
AcDbLinetypeTableRecord
  2
DASHED
 70
     0
  3
Dashed
 72
    65
 73
     2
 40
15.0
 49
7.0
 74
     0
 49
-8.0
 74
     0
  0
LTYPE
  5
2F
330
5
100
AcDbSymbolTableRecord
100
AcDbLinetypeTableRecord
  2
DOTTED
 70
     0
  3
Dotted
 72
    65
 73
     2
 40
1.0
 49
0.0
 74
     0
 49
-1.0
 74
     0
  0
LTYPE
  5
30
330
5
100
AcDbSymbolTableRecord
100
AcDbLinetypeTableRecord
  2
DOT_CENTER
 70
     0
  3
Dot_Center
 72
    65
 73
     4
 40
14.0
 49
12.0
 74
     0
 49
-1.0
 74
     0
 49
0.0
 74
     0
 49
-1.0
 74
     0
  0
LTYPE
  5
31
330
5
100
AcDbSymbolTableRecord
100
AcDbLinetypeTableRecord
  2
LONG_DASHED
 70
     0
  3
Long_Dashed
 72
    65
 73
     2
 40
15.0
 49
10.0
 74
     0
 49
-5.0
 74
     0
  0
LTYPE
  5
32
330
5
100
AcDbSymbolTableRecord
100
AcDbLinetypeTableRecord
  2
DASH_CENTER
 70
     0
  3
Dash_Center
 72
    65
 73
     4
 40
14.0
 49
11.0
 74
     0
 49
-1.0
 74
     0
 49
1.0
 74
     0
 49
-1.0
 74
     0
  0
LTYPE
  5
33
330
5
100
AcDbSymbolTableRecord
100
AcDbLinetypeTableRecord
  2
PHANTOM
 70
     0
  3
Phantom
 72
    65
 73
     6
 40
13.0
 49
10.0
 74
     0
 49
-1.0
 74
     0
 49
0.0
 74
     0
 49
-1.0
 74
     0
 49
0.0
 74
     0
 49
-1.0
 74
     0
  0
LTYPE
  5
34
330
5
100
AcDbSymbolTableRecord
100
AcDbLinetypeTableRecord
  2
CENTER_DASH_DASH
 70
     0
  3
Center_Dash_Dash
 72
    65
 73
     6
 40
14.0
 49
9.0
 74
     0
 49
-1.0
 74
     0
 49
1.0
 74
     0
 49
-1.0
 74
     0
 49
1.0
 74
     0
 49
-1.0
 74
     0
  0
LTYPE
  5
35
330
5
100
AcDbSymbolTableRecord
100
AcDbLinetypeTableRecord
  2
CENTER
 70
     0
  3
CENTER
 72
    65
 73
     4
 40
22.0
 49
13.0
 74
     0
 49
-3.0
 74
     0
 49
3.0
 74
     0
 49
-3.0
 74
     0
  0
ENDTAB
  0
TABLE
  2
LAYER
  5
2
330
0
100
AcDbSymbolTable
 70
     3
  0
LAYER
  5
10
330
2
100
AcDbSymbolTableRecord
100
AcDbLayerTableRecord
  2
0
 70
     0
 62
     7
  6
Continuous
370
    -3
390
F
  0
LAYER
  5
36
330
2
100
AcDbSymbolTableRecord
100
AcDbLayerTableRecord
  2
1
 70
     0
 62
     7
  6
Continuous
370
    -3
390
F
  0
LAYER
  5
37
330
2
100
AcDbSymbolTableRecord
100
AcDbLayerTableRecord
  2
WORKLAYER
 70
     0
 62
     7
  6
Continuous
370
    -3
390
F
  0
ENDTAB
  0
TABLE
  2
STYLE
  5
3
330
0
100
AcDbSymbolTable
 70
     3
  0
STYLE
  5
11
330
3
100
AcDbSymbolTableRecord
100
AcDbTextStyleTableRecord
  2
Standard
 70
     0
 40
0.0
 41
1.0
 50
0.0
 71
     0
 42
0.2
  3
txt
  4

  0
STYLE
  5
143
330
3
100
AcDbSymbolTableRecord
100
AcDbTextStyleTableRecord
  2
CONVERTER_1
 70
     0
 40
0.0
 41
1.14
 50
0.0
 71
     0
 42
0.2
  3
complex.shx
  4

  0
STYLE
  5
240
330
3
100
AcDbSymbolTableRecord
100
AcDbTextStyleTableRecord
  2
CONVERTER_2
 70
     0
 40
0.0
 41
0.9
 50
0.0
 71
     0
 42
0.2
  3
txt.shx
  4

  0
ENDTAB
  0
TABLE
  2
VIEW
  5
6
330
0
100
AcDbSymbolTable
 70
     0
  0
ENDTAB
  0
TABLE
  2
UCS
  5
7
330
0
100
AcDbSymbolTable
 70
     0
  0
ENDTAB
  0
TABLE
  2
APPID
  5
9
330
0
100
AcDbSymbolTable
 70
     1
  0
APPID
  5
12
330
9
100
AcDbSymbolTableRecord
100
AcDbRegAppTableRecord
  2
ACAD
 70
     0
  0
ENDTAB
  0
TABLE
  2
DIMSTYLE
  5
A
330
0
100
AcDbSymbolTable
 70
     6
100
AcDbDimStyleTable
  0
DIMSTYLE
105
27
330
A
100
AcDbSymbolTableRecord
100
AcDbDimStyleTableRecord
  2
Standard
 70
     0
340
11
  0
DIMSTYLE
105
24A
102
{ACAD_REACTORS
330
24B
102
}
330
A
100
AcDbSymbolTableRecord
100
AcDbDimStyleTableRecord
  2
ME10_DIM_0
 70
     0
 41
10.0
 42
1.0
 44
1.0
 73
     0
 74
     0
 77
     1
 78
     8
140
10.0
147
0.625
172
     1
173
     1
176
     2
177
     2
178
     2
271
     3
340
240
343
244
344
244
  0
DIMSTYLE
105
257
102
{ACAD_REACTORS
330
258
102
}
330
A
100
AcDbSymbolTableRecord
100
AcDbDimStyleTableRecord
  2
ME10_DIM_1
 70
     0
 41
10.0
 42
1.0
 44
1.0
 73
     0
 74
     0
 77
     1
 78
     8
140
10.0
147
0.625
172
     1
173
     1
176
     2
177
     2
178
     2
271
     3
340
240
343
244
344
244
  0
DIMSTYLE
105
264
102
{ACAD_REACTORS
330
265
102
}
330
A
100
AcDbSymbolTableRecord
100
AcDbDimStyleTableRecord
  2
ME10_DIM_2
 70
     0
 41
10.0
 42
1.0
 44
1.0
 73
     0
 74
     0
 77
     1
 78
     8
140
10.0
147
0.625
172
     1
173
     1
176
     2
177
     2
178
     2
271
     3
340
240
343
244
344
244
  0
DIMSTYLE
105
271
102
{ACAD_REACTORS
330
272
102
}
330
A
100
AcDbSymbolTableRecord
100
AcDbDimStyleTableRecord
  2
ME10_DIM_3
 70
     0
 41
10.0
 42
1.0
 44
1.0
 73
     0
 74
     0
 77
     1
 78
     8
140
10.0
147
0.625
172
     1
173
     1
176
     2
177
     2
178
     2
271
     3
340
240
343
244
344
244
  0
DIMSTYLE
105
27E
102
{ACAD_REACTORS
330
27F
102
}
330
A
100
AcDbSymbolTableRecord
100
AcDbDimStyleTableRecord
  2
ME10_DIM_4
 70
     0
 41
10.0
 42
1.0
 44
1.0
 73
     0
 74
     0
 77
     1
 78
     8
140
10.0
147
0.625
172
     1
173
     1
176
     2
177
     2
178
     2
271
     3
340
240
343
244
344
244
  0
ENDTAB
  0
TABLE
  2
BLOCK_RECORD
  5
1
330
0
100
AcDbSymbolTable
 70
    39
  0
BLOCK_RECORD
  5
1F
330
1
100
AcDbSymbolTableRecord
100
AcDbBlockTableRecord
  2
*Model_Space
340
22
  0
BLOCK_RECORD
  5
1B
330
1
100
AcDbSymbolTableRecord
100
AcDbBlockTableRecord
  2
*Paper_Space
340
1E
  0
BLOCK_RECORD
  5
23
330
1
100
AcDbSymbolTableRecord
100
AcDbBlockTableRecord
  2
*Paper_Space0
340
26
  0
BLOCK_RECORD
  5
38
330
1
100
AcDbSymbolTableRecord
100
AcDbBlockTableRecord
  2
DXF198
340
0
102
{BLKREFS
331
3C
102
}
  0
BLOCK_RECORD
  5
3B
330
1
100
AcDbSymbolTableRecord
100
AcDbBlockTableRecord
  2
TOP__1
340
0
102
{BLKREFS
331
B2
102
}
  0
BLOCK_RECORD
  5
3F
330
1
100
AcDbSymbolTableRecord
100
AcDbBlockTableRecord
  2
Top__2
340
0
102
{BLKREFS
331
43
102
}
  0
BLOCK_RECORD
  5
42
330
1
100
AcDbSymbolTableRecord
100
AcDbBlockTableRecord
  2
Top__3
340
0
102
{BLKREFS
331
B3
102
}
  0
BLOCK_RECORD
  5
46
330
1
100
AcDbSymbolTableRecord
100
AcDbBlockTableRecord
  2
Top__4
340
0
102
{BLKREFS
331
B4
102
}
  0
BLOCK_RECORD
  5
49
330
1
100
AcDbSymbolTableRecord
100
AcDbBlockTableRecord
  2
Top__5
340
0
102
{BLKREFS
331
4D
102
}
  0
BLOCK_RECORD
  5
4C
330
1
100
AcDbSymbolTableRecord
100
AcDbBlockTableRecord
  2
TOP__6
340
0
102
{BLKREFS
331
54
102
}
  0
BLOCK_RECORD
  5
50
330
1
100
AcDbSymbolTableRecord
100
AcDbBlockTableRecord
  2
Top__7
340
0
102
{BLKREFS
331
55
102
}
  0
BLOCK_RECORD
  5
53
330
1
100
AcDbSymbolTableRecord
100
AcDbBlockTableRecord
  2
Top__8
340
0
102
{BLKREFS
331
B5
102
}
  0
BLOCK_RECORD
  5
58
330
1
100
AcDbSymbolTableRecord
100
AcDbBlockTableRecord
  2
_2
340
0
102
{BLKREFS
331
B6
102
}
  0
BLOCK_RECORD
  5
5B
330
1
100
AcDbSymbolTableRecord
100
AcDbBlockTableRecord
  2
Top__9
340
0
102
{BLKREFS
331
5F
102
}
  0
BLOCK_RECORD
  5
5E
330
1
100
AcDbSymbolTableRecord
100
AcDbBlockTableRecord
  2
TOP__10
340
0
102
{BLKREFS
331
AA
102
}
  0
BLOCK_RECORD
  5
62
330
1
100
AcDbSymbolTableRecord
100
AcDbBlockTableRecord
  2
Top__11
340
0
102
{BLKREFS
331
66
102
}
  0
BLOCK_RECORD
  5
65
330
1
100
AcDbSymbolTableRecord
100
AcDbBlockTableRecord
  2
Top__12
340
0
102
{BLKREFS
331
7C
102
}
  0
BLOCK_RECORD
  5
69
330
1
100
AcDbSymbolTableRecord
100
AcDbBlockTableRecord
  2
Top__13
340
0
102
{BLKREFS
331
7D
102
}
  0
BLOCK_RECORD
  5
6C
330
1
100
AcDbSymbolTableRecord
100
AcDbBlockTableRecord
  2
Top__14
340
0
102
{BLKREFS
331
70
102
}
  0
BLOCK_RECORD
  5
6F
330
1
100
AcDbSymbolTableRecord
100
AcDbBlockTableRecord
  2
TOP__15
340
0
102
{BLKREFS
331
77
102
}
  0
BLOCK_RECORD
  5
73
330
1
100
AcDbSymbolTableRecord
100
AcDbBlockTableRecord
  2
Top__16
340
0
102
{BLKREFS
331
78
102
}
  0
BLOCK_RECORD
  5
76
330
1
100
AcDbSymbolTableRecord
100
AcDbBlockTableRecord
  2
Top__17
340
0
102
{BLKREFS
331
7E
102
}
  0
BLOCK_RECORD
  5
7B
330
1
100
AcDbSymbolTableRecord
100
AcDbBlockTableRecord
  2
Top__18
340
0
102
{BLKREFS
331
AB
102
}
  0
BLOCK_RECORD
  5
81
330
1
100
AcDbSymbolTableRecord
100
AcDbBlockTableRecord
  2
Top__19
340
0
102
{BLKREFS
331
8C
102
}
  0
BLOCK_RECORD
  5
84
330
1
100
AcDbSymbolTableRecord
100
AcDbBlockTableRecord
  2
Top__20
340
0
102
{BLKREFS
331
88
102
}
  0
BLOCK_RECORD
  5
87
330
1
100
AcDbSymbolTableRecord
100
AcDbBlockTableRecord
  2
TOP__21
340
0
102
{BLKREFS
331
8D
102
}
  0
BLOCK_RECORD
  5
8B
330
1
100
AcDbSymbolTableRecord
100
AcDbBlockTableRecord
  2
Top__22
340
0
102
{BLKREFS
331
AC
102
}
  0
BLOCK_RECORD
  5
90
330
1
100
AcDbSymbolTableRecord
100
AcDbBlockTableRecord
  2
Top__23
340
0
102
{BLKREFS
331
94
102
}
  0
BLOCK_RECORD
  5
93
330
1
100
AcDbSymbolTableRecord
100
AcDbBlockTableRecord
  2
Top__24
340
0
102
{BLKREFS
331
AD
102
}
  0
BLOCK_RECORD
  5
97
330
1
100
AcDbSymbolTableRecord
100
AcDbBlockTableRecord
  2
Top__25
340
0
102
{BLKREFS
331
AE
102
}
  0
BLOCK_RECORD
  5
9A
330
1
100
AcDbSymbolTableRecord
100
AcDbBlockTableRecord
  2
Top__26
340
0
102
{BLKREFS
331
9E
102
}
  0
BLOCK_RECORD
  5
9D
330
1
100
AcDbSymbolTableRecord
100
AcDbBlockTableRecord
  2
TOP__27
340
0
102
{BLKREFS
331
A5
102
}
  0
BLOCK_RECORD
  5
A1
330
1
100
AcDbSymbolTableRecord
100
AcDbBlockTableRecord
  2
Top__28
340
0
102
{BLKREFS
331
A6
102
}
  0
BLOCK_RECORD
  5
A4
330
1
100
AcDbSymbolTableRecord
100
AcDbBlockTableRecord
  2
Top__29
340
0
102
{BLKREFS
331
AF
102
}
  0
BLOCK_RECORD
  5
A9
330
1
100
AcDbSymbolTableRecord
100
AcDbBlockTableRecord
  2
Top__30
340
0
102
{BLKREFS
331
B7
102
}
  0
BLOCK_RECORD
  5
238
330
1
100
AcDbSymbolTableRecord
100
AcDbBlockTableRecord
  2
*D033
340
0
  0
BLOCK_RECORD
  5
244
330
1
100
AcDbSymbolTableRecord
100
AcDbBlockTableRecord
  2
_Open30
340
0
  0
BLOCK_RECORD
  5
24C
330
1
100
AcDbSymbolTableRecord
100
AcDbBlockTableRecord
  2
*D135
340
0
  0
BLOCK_RECORD
  5
259
330
1
100
AcDbSymbolTableRecord
100
AcDbBlockTableRecord
  2
*D236
340
0
  0
BLOCK_RECORD
  5
266
330
1
100
AcDbSymbolTableRecord
100
AcDbBlockTableRecord
  2
*D337
340
0
  0
BLOCK_RECORD
  5
273
330
1
100
AcDbSymbolTableRecord
100
AcDbBlockTableRecord
  2
*D438
340
0
  0
ENDTAB
  0
ENDSEC
  0
SECTION
  2
BLOCKS
  0
BLOCK
  5
20
330
1F
100
AcDbEntity
  8
0
100
AcDbBlockBegin
  2
*Model_Space
 70
     0
 71
     0
 10
0.0
 20
0.0
 30
0.0
  3
*Model_Space
  1

  0
ENDBLK
  5
21
330
1F
100
AcDbEntity
  8
0
100
AcDbBlockEnd
  0
BLOCK
  5
1C
330
1B
100
AcDbEntity
 67
     1
  8
0
100
AcDbBlockBegin
  2
*Paper_Space
 70
     0
 71
     0
 10
0.0
 20
0.0
 30
0.0
  3
*Paper_Space
  1

  0
ENDBLK
  5
1D
330
1B
100
AcDbEntity
 67
     1
  8
0
100
AcDbBlockEnd
  0
BLOCK
  5
24
330
23
100
AcDbEntity
  8
0
100
AcDbBlockBegin
  2
*Paper_Space0
 70
     0
 71
     0
 10
0.0
 20
0.0
 30
0.0
  3
*Paper_Space0
  1

  0
ENDBLK
  5
25
330
23
100
AcDbEntity
  8
0
100
AcDbBlockEnd
  0
BLOCK
  5
39
330
38
100
AcDbEntity
  8
0
100
AcDbBlockBegin
  2
DXF198
 70
     0
 71
     0
 10
-501.13957489157
 20
144.0133588640917
 30
0.0
  3
DXF198
  1

  0
LINE
  5
B8
330
38
100
AcDbEntity
  8
1
  6
Continuous
 62
     7
100
AcDbLine
 10
-1481.428431124195
 20
249.533076716129
 30
0.0
 11
-1490.128321224195
 21
249.533076716129
 31
0.0
  0
LINE
  5
B9
330
38
100
AcDbEntity
  8
1
  6
Continuous
 62
     7
100
AcDbLine
 10
-1490.128290915908
 20
252.73695359806
 30
0.0
 11
-1481.428431124195
 21
252.737117216129
 31
0.0
  0
LINE
  5
BA
330
38
100
AcDbEntity
  8
WORKLAYER
  6
Continuous
 62
     1
100
AcDbLine
 10
-1482.778284624195
 20
200.6361040161289
 30
0.0
 11
-1482.778284624195
 21
221.8463702161291
 31
0.0
  0
LINE
  5
BB
330
38
100
AcDbEntity
  8
WORKLAYER
  6
Continuous
 62
     7
100
AcDbLine
 10
-1472.778284624195
 20
186.3330645161289
 30
0.0
 11
-1472.778284624195
 21
182.8330645161289
 31
0.0
  0
LINE
  5
BC
330
38
100
AcDbEntity
  8
WORKLAYER
  6
Continuous
 62
     7
100
AcDbLine
 10
-1480.778284624195
 20
192.3330645161289
 30
0.0
 11
-1480.778284624195
 21
193.9042925161289
 31
0.0
  0
LINE
  5
BD
330
38
100
AcDbEntity
  8
WORKLAYER
  6
Continuous
 62
     7
100
AcDbLine
 10
-1495.578333424195
 20
227.833064516129
 30
0.0
 11
-1475.978174724195
 21
227.833064516129
 31
0.0
  0
LINE
  5
BE
330
38
100
AcDbEntity
  8
WORKLAYER
  6
Continuous
 62
     7
100
AcDbLine
 10
-1482.228174724195
 20
255.833064516129
 30
0.0
 11
-1489.328333424195
 21
255.833064516129
 31
0.0
  0
LINE
  5
BF
330
38
100
AcDbEntity
  8
WORKLAYER
  6
Continuous
 62
     7
100
AcDbLine
 10
-1495.578333424195
 20
246.386470316129
 30
0.0
 11
-1495.578333424195
 21
227.833064516129
 31
0.0
  0
LINE
  5
C0
330
38
100
AcDbEntity
  8
WORKLAYER
  6
Continuous
 62
     7
100
AcDbLine
 10
-1495.578333424195
 20
246.386470316129
 30
0.0
 11
-1490.128321224195
 21
249.533076716129
 31
0.0
  0
LINE
  5
C1
330
38
100
AcDbEntity
  8
WORKLAYER
  6
Continuous
 62
     7
100
AcDbLine
 10
-1492.778284624195
 20
254.619380416129
 30
0.0
 11
-1492.778284624195
 21
253.746821816129
 31
0.0
  0
LINE
  5
C2
330
38
100
AcDbEntity
  8
WORKLAYER
  6
Continuous
 62
     7
100
AcDbLine
 10
-1490.128321224195
 20
252.737117216129
 30
0.0
 11
-1490.128321224195
 21
249.533076716129
 31
0.0
  0
LINE
  5
C3
330
38
100
AcDbEntity
  8
WORKLAYER
  6
Continuous
 62
     7
100
AcDbLine
 10
-1475.978174724195
 20
246.386470316129
 30
0.0
 11
-1481.428431124195
 21
249.533076716129
 31
0.0
  0
LINE
  5
C4
330
38
100
AcDbEntity
  8
WORKLAYER
  6
Continuous
 62
     7
100
AcDbLine
 10
-1478.778284624195
 20
254.619380416129
 30
0.0
 11
-1478.778284624195
 21
253.746821816129
 31
0.0
  0
LINE
  5
C5
330
38
100
AcDbEntity
  8
WORKLAYER
  6
Continuous
 62
     7
100
AcDbLine
 10
-1481.428431124195
 20
252.737117216129
 30
0.0
 11
-1481.428431124195
 21
249.533076716129
 31
0.0
  0
LINE
  5
C6
330
38
100
AcDbEntity
  8
WORKLAYER
  6
Continuous
 62
     7
100
AcDbLine
 10
-1475.978174724195
 20
246.386470316129
 30
0.0
 11
-1475.978174724195
 21
227.833064516129
 31
0.0
  0
LINE
  5
C7
330
38
100
AcDbEntity
  8
WORKLAYER
  6
CENTER
 62
     1
100
AcDbLine
 10
-1485.778284624195
 20
257.908992216129
 30
0.0
 11
-1485.778284624195
 21
175.2410286653779
 31
0.0
  0
LINE
  5
C8
330
38
100
AcDbEntity
  8
WORKLAYER
  6
Continuous
 62
     7
100
AcDbLine
 10
-1497.278284624195
 20
192.3330645161289
 30
0.0
 11
-1490.778284624195
 21
192.3330645161289
 31
0.0
  0
LINE
  5
C9
330
38
100
AcDbEntity
  8
WORKLAYER
  6
Continuous
 62
     7
100
AcDbLine
 10
-1480.778284624195
 20
192.3330645161289
 30
0.0
 11
-1474.278284624195
 21
192.3330645161289
 31
0.0
  0
LINE
  5
CA
330
38
100
AcDbEntity
  8
WORKLAYER
  6
Continuous
 62
     7
100
AcDbLine
 10
-1497.778284624195
 20
187.3330645161289
 30
0.0
 11
-1497.278284624195
 21
187.3330645161289
 31
0.0
  0
LINE
  5
CB
330
38
100
AcDbEntity
  8
WORKLAYER
  6
Continuous
 62
     7
100
AcDbLine
 10
-1474.278284624195
 20
187.3330645161289
 30
0.0
 11
-1473.778284624195
 21
187.3330645161289
 31
0.0
  0
LINE
  5
CC
330
38
100
AcDbEntity
  8
WORKLAYER
  6
Continuous
 62
     7
100
AcDbLine
 10
-1497.778284624195
 20
187.3330645161289
 30
0.0
 11
-1498.778284624195
 21
186.3330645161289
 31
0.0
  0
LINE
  5
CD
330
38
100
AcDbEntity
  8
WORKLAYER
  6
Continuous
 62
     7
100
AcDbLine
 10
-1498.778284624195
 20
186.3330645161289
 30
0.0
 11
-1498.778284624195
 21
182.8330645161289
 31
0.0
  0
LINE
  5
CE
330
38
100
AcDbEntity
  8
WORKLAYER
  6
Continuous
 62
     7
100
AcDbLine
 10
-1472.778284624195
 20
186.3330645161289
 30
0.0
 11
-1473.778284624195
 21
187.3330645161289
 31
0.0
  0
LINE
  5
CF
330
38
100
AcDbEntity
  8
WORKLAYER
  6
Continuous
 62
     7
100
AcDbLine
 10
-1474.278284624195
 20
192.3330645161289
 30
0.0
 11
-1474.278284624195
 21
187.3330645161289
 31
0.0
  0
LINE
  5
D0
330
38
100
AcDbEntity
  8
WORKLAYER
  6
Continuous
 62
     7
100
AcDbLine
 10
-1497.278284624195
 20
192.3330645161289
 30
0.0
 11
-1497.278284624195
 21
187.3330645161289
 31
0.0
  0
LINE
  5
D1
330
38
100
AcDbEntity
  8
WORKLAYER
  6
Continuous
 62
     7
100
AcDbLine
 10
-1502.778284624195
 20
180.8330645161289
 30
0.0
 11
-1497.966272824195
 21
180.8330645161289
 31
0.0
  0
LINE
  5
D2
330
38
100
AcDbEntity
  8
WORKLAYER
  6
Continuous
 62
     7
100
AcDbLine
 10
-1473.590174224195
 20
180.8330645161289
 30
0.0
 11
-1468.778284624195
 21
180.8330645161289
 31
0.0
  0
LINE
  5
D3
330
38
100
AcDbEntity
  8
WORKLAYER
  6
Continuous
 62
     7
100
AcDbLine
 10
-1468.778284624195
 20
180.8330645161289
 30
0.0
 11
-1468.778284624195
 21
182.8330645161289
 31
0.0
  0
LINE
  5
D4
330
38
100
AcDbEntity
  8
WORKLAYER
  6
Continuous
 62
     7
100
AcDbLine
 10
-1468.778284624195
 20
182.8330645161289
 30
0.0
 11
-1497.966272824197
 21
182.833064516129
 31
0.0
  0
LINE
  5
D5
330
38
100
AcDbEntity
  8
WORKLAYER
  6
Continuous
 62
     7
100
AcDbLine
 10
-1497.966272824195
 20
182.8330645161289
 30
0.0
 11
-1502.778284624195
 21
182.8330645161289
 31
0.0
  0
LINE
  5
D6
330
38
100
AcDbEntity
  8
WORKLAYER
  6
Continuous
 62
     7
100
AcDbLine
 10
-1502.778284624195
 20
182.8330645161289
 30
0.0
 11
-1502.778284624195
 21
180.8330645161289
 31
0.0
  0
LINE
  5
D7
330
38
100
AcDbEntity
  8
WORKLAYER
  6
Continuous
 62
     7
100
AcDbLine
 10
-1502.178186924195
 20
180.8330645161289
 30
0.0
 11
-1497.966272824195
 21
180.8330645161289
 31
0.0
  0
LINE
  5
D8
330
38
100
AcDbEntity
  8
WORKLAYER
  6
Continuous
 62
     7
100
AcDbLine
 10
-1473.590174224195
 20
180.8330645161289
 30
0.0
 11
-1469.378321224195
 21
180.8330645161289
 31
0.0
  0
LINE
  5
D9
330
38
100
AcDbEntity
  8
WORKLAYER
  6
Continuous
 62
     7
100
AcDbLine
 10
-1489.778284624195
 20
197.6361040161289
 30
0.0
 11
-1490.778284624195
 21
193.9042925161289
 31
0.0
  0
LINE
  5
DA
330
38
100
AcDbEntity
  8
WORKLAYER
  6
Continuous
 62
     7
100
AcDbLine
 10
-1481.778284624195
 20
197.6361040161289
 30
0.0
 11
-1480.778284624195
 21
193.9042925161289
 31
0.0
  0
LINE
  5
DB
330
38
100
AcDbEntity
  8
WORKLAYER
  6
Continuous
 62
     7
100
AcDbLine
 10
-1481.778284624195
 20
197.6361040161289
 30
0.0
 11
-1489.778284624195
 21
197.6361040161289
 31
0.0
  0
LINE
  5
DC
330
38
100
AcDbEntity
  8
WORKLAYER
  6
Continuous
 62
     1
100
AcDbLine
 10
-1481.778284624195
 20
200.6361040161289
 30
0.0
 11
-1489.778284624195
 21
200.6361040161289
 31
0.0
  0
LINE
  5
DD
330
38
100
AcDbEntity
  8
WORKLAYER
  6
Continuous
 62
     7
100
AcDbLine
 10
-1490.778284624195
 20
193.9042925161289
 30
0.0
 11
-1480.778284624195
 21
193.9042925161289
 31
0.0
  0
LINE
  5
DE
330
38
100
AcDbEntity
  8
WORKLAYER
  6
Continuous
 62
     1
100
AcDbLine
 10
-1489.778284624195
 20
198.9042925161289
 30
0.0
 11
-1488.778284624195
 21
200.6361040161289
 31
0.0
  0
LINE
  5
DF
330
38
100
AcDbEntity
  8
WORKLAYER
  6
Continuous
 62
     1
100
AcDbLine
 10
-1481.778284624195
 20
198.9042925161289
 30
0.0
 11
-1482.778284624195
 21
200.6361040161289
 31
0.0
  0
LINE
  5
E0
330
38
100
AcDbEntity
  8
WORKLAYER
  6
Continuous
 62
     7
100
AcDbLine
 10
-1481.778284624195
 20
197.6361040161289
 30
0.0
 11
-1481.778284624195
 21
221.8463702161291
 31
0.0
  0
LINE
  5
E1
330
38
100
AcDbEntity
  8
WORKLAYER
  6
Continuous
 62
     7
100
AcDbLine
 10
-1490.778284624195
 20
193.9042925161289
 30
0.0
 11
-1490.778284624195
 21
192.3330645161289
 31
0.0
  0
LINE
  5
E2
330
38
100
AcDbEntity
  8
1
  6
Continuous
 62
     7
100
AcDbLine
 10
-1497.278284624195
 20
187.3330645161289
 30
0.0
 11
-1474.278284624195
 21
187.3330645161289
 31
0.0
  0
LINE
  5
E3
330
38
100
AcDbEntity
  8
WORKLAYER
  6
Continuous
 62
     7
100
AcDbLine
 10
-1480.878275424195
 20
246.386470316129
 30
0.0
 11
-1480.878275424195
 21
227.833064516129
 31
0.0
  0
LINE
  5
E4
330
38
100
AcDbEntity
  8
WORKLAYER
  6
Continuous
 62
     7
100
AcDbLine
 10
-1490.678263724195
 20
246.386470316129
 30
0.0
 11
-1490.678263724195
 21
227.833064516129
 31
0.0
  0
LINE
  5
E5
330
38
100
AcDbEntity
  8
WORKLAYER
  6
Continuous
 62
     7
100
AcDbLine
 10
-1489.778284624195
 20
221.8463702161291
 30
0.0
 11
-1489.778284624195
 21
197.6361040161289
 31
0.0
  0
LINE
  5
E6
330
38
100
AcDbEntity
  8
WORKLAYER
  6
Continuous
 62
     1
100
AcDbLine
 10
-1488.778284624195
 20
221.8463702161291
 30
0.0
 11
-1488.778284624195
 21
200.6361040161289
 31
0.0
  0
LINE
  5
E7
330
38
100
AcDbEntity
  8
WORKLAYER
  6
Continuous
 62
     7
100
AcDbLine
 10
-1494.271326624195
 20
221.8463702161291
 30
0.0
 11
-1477.285364724195
 21
221.8463702161291
 31
0.0
  0
LINE
  5
E8
330
38
100
AcDbEntity
  8
WORKLAYER
  6
Continuous
 62
     7
100
AcDbLine
 10
-1475.971277824195
 20
227.0744586161292
 30
0.0
 11
-1475.971277824195
 21
222.6050677161292
 31
0.0
  0
LINE
  5
E9
330
38
100
AcDbEntity
  8
WORKLAYER
  6
Continuous
 62
     7
100
AcDbLine
 10
-1495.586268024195
 20
227.0744586161292
 30
0.0
 11
-1495.586268024195
 21
222.6050677161292
 31
0.0
  0
LINE
  5
EA
330
38
100
AcDbEntity
  8
WORKLAYER
  6
Continuous
 62
     7
100
AcDbLine
 10
-1490.682337824195
 20
226.9917560161291
 30
0.0
 11
-1490.682337824195
 21
222.6879535161292
 31
0.0
  0
LINE
  5
EB
330
38
100
AcDbEntity
  8
WORKLAYER
  6
Continuous
 62
     7
100
AcDbLine
 10
-1480.875330524195
 20
226.9917560161291
 30
0.0
 11
-1480.875330524195
 21
222.6878619161291
 31
0.0
  0
LINE
  5
EC
330
38
100
AcDbEntity
  8
WORKLAYER
  6
Continuous
 62
     7
100
AcDbLine
 10
-1477.285364724195
 20
221.8463702161291
 30
0.0
 11
-1475.971277824195
 21
222.6050677161292
 31
0.0
  0
LINE
  5
ED
330
38
100
AcDbEntity
  8
WORKLAYER
  6
Continuous
 62
     7
100
AcDbLine
 10
-1494.272303224195
 20
221.8463702161291
 30
0.0
 11
-1495.586268024195
 21
222.6050677161292
 31
0.0
  0
LINE
  5
EE
330
38
100
AcDbEntity
  8
WORKLAYER
  6
Continuous
 62
     7
100
AcDbLine
 10
-1477.285364724195
 20
227.8331561161292
 30
0.0
 11
-1475.971277824195
 21
227.0744586161292
 31
0.0
  0
LINE
  5
EF
330
38
100
AcDbEntity
  8
WORKLAYER
  6
Continuous
 62
     7
100
AcDbLine
 10
-1494.272303224195
 20
227.8331561161292
 30
0.0
 11
-1495.586268024195
 21
227.0744586161292
 31
0.0
  0
LINE
  5
F0
330
38
100
AcDbEntity
  8
1
  6
Continuous
 62
     7
100
AcDbLine
 10
-1492.778290657752
 20
254.619359850537
 30
0.0
 11
-1478.778284341037
 21
254.619362648301
 31
0.0
  0
LINE
  5
F1
330
38
100
AcDbEntity
  8
1
  6
Continuous
 62
     7
100
AcDbLine
 10
-1478.778284624195
 20
253.746821816129
 30
0.0
 11
-1492.778290657752
 21
253.746781381721
 31
0.0
  0
ARC
  5
F2
330
38
100
AcDbEntity
  8
WORKLAYER
  6
Continuous
 62
     7
100
AcDbCircle
 10
-1485.778284624195
 20
240.231868216129
 30
0.0
 40
15.99999999999967
100
AcDbArc
 50
102.8191986000006
 51
115.9445037999994
  0
ARC
  5
F3
330
38
100
AcDbEntity
  8
WORKLAYER
  6
Continuous
 62
     7
100
AcDbCircle
 10
-1485.778284624195
 20
268.134273016129
 30
0.0
 40
15.99999999999978
100
AcDbArc
 50
-115.9445037999995
 51
-105.7758942000003
  0
ARC
  5
F4
330
38
100
AcDbEntity
  8
WORKLAYER
  6
Continuous
 62
     7
100
AcDbCircle
 10
-1485.778284624195
 20
240.231868216129
 30
0.0
 40
15.99999999999977
100
AcDbArc
 50
64.0555191000005
 51
77.18081669999982
  0
ARC
  5
F5
330
38
100
AcDbEntity
  8
WORKLAYER
  6
Continuous
 62
     7
100
AcDbCircle
 10
-1485.778284624195
 20
268.134273016129
 30
0.0
 40
15.99999999999942
100
AcDbArc
 50
-74.22409060000069
 51
-64.0555114999992
  0
ARC
  5
F6
330
38
100
AcDbEntity
  8
WORKLAYER
  6
Continuous
 62
     7
100
AcDbCircle
 10
-1485.778269624195
 20
237.077571316129
 30
0.0
 40
10.51978020000001
100
AcDbArc
 50
62.23868939999768
 51
117.7612991
  0
ARC
  5
F7
330
38
100
AcDbEntity
  8
WORKLAYER
  6
Continuous
 62
     7
100
AcDbCircle
 10
-1478.428263724195
 20
242.142970516129
 30
0.0
 40
4.90000489999975
100
AcDbArc
 50
59.99999999999756
 51
120.0000000000025
  0
ARC
  5
F8
330
38
100
AcDbEntity
  8
WORKLAYER
  6
Continuous
 62
     7
100
AcDbCircle
 10
-1493.128275424195
 20
242.142970516129
 30
0.0
 40
4.90000489999975
100
AcDbArc
 50
59.99999999999756
 51
120.0000000000025
  0
ARC
  5
F9
330
38
100
AcDbEntity
  8
WORKLAYER
  6
Continuous
 62
     7
100
AcDbCircle
 10
-1494.271326624195
 20
229.9251666161292
 30
0.0
 40
8.078769699999981
100
AcDbArc
 50
-90.0
 51
-63.61898800000177
  0
ARC
  5
FA
330
38
100
AcDbEntity
  8
WORKLAYER
  6
Continuous
 62
     7
100
AcDbCircle
 10
-1485.778284624195
 20
236.557368716129
 30
0.0
 40
14.71088979999952
100
AcDbArc
 50
-109.4712066999993
 51
-70.52880859999726
  0
ARC
  5
FB
330
38
100
AcDbEntity
  8
WORKLAYER
  6
Continuous
 62
     7
100
AcDbCircle
 10
-1477.285364724195
 20
229.9251666161292
 30
0.0
 40
8.07876970000016
100
AcDbArc
 50
-116.3809967000025
 51
-90.0
  0
ARC
  5
FC
330
38
100
AcDbEntity
  8
WORKLAYER
  6
Continuous
 62
     7
100
AcDbCircle
 10
-1477.285364724195
 20
219.754359716129
 30
0.0
 40
8.078769700000123
100
AcDbArc
 50
90.0
 51
116.3809967000024
  0
ARC
  5
FD
330
38
100
AcDbEntity
  8
WORKLAYER
  6
Continuous
 62
     7
100
AcDbCircle
 10
-1485.778284624195
 20
213.1221576161291
 30
0.0
 40
14.71088979999985
100
AcDbArc
 50
70.52880859999752
 51
109.4711990000004
  0
ARC
  5
FE
330
38
100
AcDbEntity
  8
WORKLAYER
  6
Continuous
 62
     7
100
AcDbCircle
 10
-1494.271326624195
 20
219.754359716129
 30
0.0
 40
8.078769699999784
100
AcDbArc
 50
63.6189919000003
 51
90.0
  0
ENDBLK
  5
3A
330
38
100
AcDbEntity
  8
0
100
AcDbBlockEnd
  0
BLOCK
  5
3D
330
3B
100
AcDbEntity
  8
0
100
AcDbBlockBegin
  2
TOP__1
 70
     0
 71
     0
 10
-1118.58784759157
 20
-68.2428972359083
 30
0.0
  3
TOP__1
  1

  0
INSERT
  5
3C
330
3B
100
AcDbEntity
  8
WORKLAYER
100
AcDbBlockReference
  2
DXF198
 10
-501.13957489157
 20
144.0133588640917
 30
0.0
  0
ENDBLK
  5
3E
330
3B
100
AcDbEntity
  8
0
100
AcDbBlockEnd
  0
BLOCK
  5
40
330
3F
100
AcDbEntity
  8
0
100
AcDbBlockBegin
  2
Top__2
 70
     0
 71
     0
 10
849.8146032361451
 20
-778.14325188064
 30
0.0
  3
Top__2
  1

  0
POINT
  5
FF
330
3F
100
AcDbEntity
  8
1
 62
     3
 60
     1
100
AcDbPoint
 10
764.1023471560361
 20
-692.3987350420292
 30
0.0
  0
POINT
  5
100
330
3F
100
AcDbEntity
  8
1
 62
     3
 60
     1
100
AcDbPoint
 10
765.6023471560361
 20
-693.8987350420292
 30
0.0
  0
POINT
  5
101
330
3F
100
AcDbEntity
  8
1
 62
     3
 60
     1
100
AcDbPoint
 10
764.1023471560361
 20
-692.3987350420292
 30
0.0
  0
POINT
  5
102
330
3F
100
AcDbEntity
  8
1
 62
     3
 60
     1
100
AcDbPoint
 10
764.1023471560361
 20
-830.8987350420293
 30
0.0
  0
POINT
  5
103
330
3F
100
AcDbEntity
  8
1
 62
     3
 60
     1
100
AcDbPoint
 10
764.1023471560361
 20
-832.3987350420293
 30
0.0
  0
POINT
  5
104
330
3F
100
AcDbEntity
  8
1
 62
     3
 60
     1
100
AcDbPoint
 10
765.6023471560361
 20
-830.8987350420293
 30
0.0
  0
ENDBLK
  5
41
330
3F
100
AcDbEntity
  8
0
100
AcDbBlockEnd
  0
BLOCK
  5
44
330
42
100
AcDbEntity
  8
0
100
AcDbBlockBegin
  2
Top__3
 70
     0
 71
     0
 10
-223.0080948441549
 20
-0.00000000000009
 30
0.0
  3
Top__3
  1

  0
INSERT
  5
43
330
42
100
AcDbEntity
  8
0
100
AcDbBlockReference
  2
Top__2
 10
849.8146032361451
 20
-778.14325188064
 30
0.0
  0
ENDBLK
  5
45
330
42
100
AcDbEntity
  8
0
100
AcDbBlockEnd
  0
BLOCK
  5
47
330
46
100
AcDbEntity
  8
0
100
AcDbBlockBegin
  2
Top__4
 70
     0
 71
     0
 10
121.694433568334
 20
-642.582105628333
 30
0.0
  3
Top__4
  1

  0
POINT
  5
105
330
46
100
AcDbEntity
  8
1
 62
     3
 60
     1
100
AcDbPoint
 10
20.85959844472291
 20
-710.3375887897222
 30
0.0
  0
POINT
  5
106
330
46
100
AcDbEntity
  8
1
 62
     3
 60
     1
100
AcDbPoint
 10
19.35959844472291
 20
-711.8375887897222
 30
0.0
  0
POINT
  5
107
330
46
100
AcDbEntity
  8
1
 62
     3
 60
     1
100
AcDbPoint
 10
20.85959844472291
 20
-543.3375887897222
 30
0.0
  0
POINT
  5
108
330
46
100
AcDbEntity
  8
1
 62
     3
 60
     1
100
AcDbPoint
 10
19.35959844472291
 20
-571.8375887897222
 30
0.0
  0
ENDBLK
  5
48
330
46
100
AcDbEntity
  8
0
100
AcDbBlockEnd
  0
BLOCK
  5
4A
330
49
100
AcDbEntity
  8
0
100
AcDbBlockBegin
  2
Top__5
 70
     0
 71
     0
 10
1447.966824401701
 20
-1419.472951939294
 30
0.0
  3
Top__5
  1

  0
POINT
  5
109
330
49
100
AcDbEntity
  8
1
 62
     3
 60
     1
100
AcDbPoint
 10
1152.900838599571
 20
-1597.594271518029
 30
0.0
  0
POINT
  5
10A
330
49
100
AcDbEntity
  8
1
 62
     3
 60
     1
100
AcDbPoint
 10
1153.900838599571
 20
-1597.594271518029
 30
0.0
  0
POINT
  5
10B
330
49
100
AcDbEntity
  8
1
 62
     3
 60
     1
100
AcDbPoint
 10
1152.900838599571
 20
-1588.794271518029
 30
0.0
  0
POINT
  5
10C
330
49
100
AcDbEntity
  8
1
 62
     3
 60
     1
100
AcDbPoint
 10
1152.900838599571
 20
-1596.594271518029
 30
0.0
  0
POINT
  5
10D
330
49
100
AcDbEntity
  8
1
 62
     3
 60
     1
100
AcDbPoint
 10
1152.900838599571
 20
-1550.994271518029
 30
0.0
  0
POINT
  5
10E
330
49
100
AcDbEntity
  8
1
 62
     3
 60
     1
100
AcDbPoint
 10
1153.900838599571
 20
-1549.994271518029
 30
0.0
  0
POINT
  5
10F
330
49
100
AcDbEntity
  8
1
 62
     3
 60
     1
100
AcDbPoint
 10
1152.900838599571
 20
-1549.994271518029
 30
0.0
  0
POINT
  5
110
330
49
100
AcDbEntity
  8
1
 62
     3
 60
     1
100
AcDbPoint
 10
1152.900838599571
 20
-1558.794271518029
 30
0.0
  0
POINT
  5
111
330
49
100
AcDbEntity
  8
1
 62
     3
 60
     1
100
AcDbPoint
 10
1330.014555820987
 20
-1387.865291535166
 30
0.0
  0
POINT
  5
112
330
49
100
AcDbEntity
  8
1
 62
     3
 60
     1
100
AcDbPoint
 10
1331.014555820987
 20
-1387.865291535166
 30
0.0
  0
POINT
  5
113
330
49
100
AcDbEntity
  8
1
 62
     3
 60
     1
100
AcDbPoint
 10
1330.014555820987
 20
-1396.665291535166
 30
0.0
  0
POINT
  5
114
330
49
100
AcDbEntity
  8
1
 62
     3
 60
     1
100
AcDbPoint
 10
1330.014555820987
 20
-1395.665291535166
 30
0.0
  0
POINT
  5
115
330
49
100
AcDbEntity
  8
1
 62
     3
 60
     1
100
AcDbPoint
 10
1331.014555820987
 20
-1396.665291535166
 30
0.0
  0
POINT
  5
116
330
49
100
AcDbEntity
  8
1
 62
     3
 60
     1
100
AcDbPoint
 10
1331.014555820987
 20
-1357.865291535166
 30
0.0
  0
POINT
  5
117
330
49
100
AcDbEntity
  8
1
 62
     3
 60
     1
100
AcDbPoint
 10
1330.014555820987
 20
-1357.865291535166
 30
0.0
  0
POINT
  5
118
330
49
100
AcDbEntity
  8
1
 62
     3
 60
     1
100
AcDbPoint
 10
1330.014555820987
 20
-1349.065291535166
 30
0.0
  0
POINT
  5
119
330
49
100
AcDbEntity
  8
1
 62
     3
 60
     1
100
AcDbPoint
 10
1330.014555820987
 20
-1350.065291535166
 30
0.0
  0
POINT
  5
11A
330
49
100
AcDbEntity
  8
1
 62
     3
 60
     1
100
AcDbPoint
 10
1331.014555820987
 20
-1349.065291535166
 30
0.0
  0
ENDBLK
  5
4B
330
49
100
AcDbEntity
  8
0
100
AcDbBlockEnd
  0
BLOCK
  5
4E
330
4C
100
AcDbEntity
  8
0
100
AcDbBlockBegin
  2
TOP__6
 70
     0
 71
     0
 10
418.9501472415511
 20
-300.820974043154
 30
0.0
  3
TOP__6
  1

  0
INSERT
  5
4D
330
4C
100
AcDbEntity
  8
0
100
AcDbBlockReference
  2
Top__5
 10
1447.966824401701
 20
-1419.472951939294
 30
0.0
  0
POINT
  5
11B
330
4C
100
AcDbEntity
  8
1
 62
     3
 60
     1
100
AcDbPoint
 10
1116.120813960666
 20
-754.1731696141662
 30
0.0
  0
POINT
  5
11C
330
4C
100
AcDbEntity
  8
1
 62
     3
 60
     1
100
AcDbPoint
 10
1117.120813960666
 20
-754.1731696141662
 30
0.0
  0
POINT
  5
11D
330
4C
100
AcDbEntity
  8
1
 62
     3
 60
     1
100
AcDbPoint
 10
1116.120813960666
 20
-755.1731696141662
 30
0.0
  0
POINT
  5
11E
330
4C
100
AcDbEntity
  8
1
 62
     3
 60
     1
100
AcDbPoint
 10
931.1208139606661
 20
-754.1731696141662
 30
0.0
  0
POINT
  5
11F
330
4C
100
AcDbEntity
  8
1
 62
     3
 60
     1
100
AcDbPoint
 10
931.1208139606661
 20
-755.1731696141662
 30
0.0
  0
POINT
  5
120
330
4C
100
AcDbEntity
  8
1
 62
     3
 60
     1
100
AcDbPoint
 10
930.1208139606661
 20
-754.1731696141662
 30
0.0
  0
ENDBLK
  5
4F
330
4C
100
AcDbEntity
  8
0
100
AcDbBlockEnd
  0
BLOCK
  5
51
330
50
100
AcDbEntity
  8
0
100
AcDbBlockBegin
  2
Top__7
 70
     0
 71
     0
 10
844.2398389447881
 20
-809.702495612916
 30
0.0
  3
Top__7
  1

  0
POINT
  5
121
330
50
100
AcDbEntity
  8
1
 62
     3
 60
     1
100
AcDbPoint
 10
760.0275828646791
 20
-862.4579787743052
 30
0.0
  0
POINT
  5
122
330
50
100
AcDbEntity
  8
1
 62
     3
 60
     1
100
AcDbPoint
 10
758.5275828646791
 20
-863.9579787743052
 30
0.0
  0
POINT
  5
123
330
50
100
AcDbEntity
  8
1
 62
     3
 60
     1
100
AcDbPoint
 10
758.5275828646791
 20
-862.4579787743052
 30
0.0
  0
POINT
  5
124
330
50
100
AcDbEntity
  8
1
 62
     3
 60
     1
100
AcDbPoint
 10
758.5275828646791
 20
-723.9579787743052
 30
0.0
  0
POINT
  5
125
330
50
100
AcDbEntity
  8
1
 62
     3
 60
     1
100
AcDbPoint
 10
760.0275828646791
 20
-725.4579787743052
 30
0.0
  0
POINT
  5
126
330
50
100
AcDbEntity
  8
1
 62
     3
 60
     1
100
AcDbPoint
 10
758.5275828646791
 20
-723.9579787743052
 30
0.0
  0
ENDBLK
  5
52
330
50
100
AcDbEntity
  8
0
100
AcDbBlockEnd
  0
BLOCK
  5
56
330
53
100
AcDbEntity
  8
0
100
AcDbBlockBegin
  2
Top__8
 70
     0
 71
     0
 10
-228.582859135512
 20
-31.559243732276
 30
0.0
  3
Top__8
  1

  0
INSERT
  5
54
330
53
100
AcDbEntity
  8
0
100
AcDbBlockReference
  2
TOP__6
 10
418.9501472415511
 20
-300.820974043154
 30
0.0
  0
INSERT
  5
55
330
53
100
AcDbEntity
  8
0
100
AcDbBlockReference
  2
Top__7
 10
844.2398389447881
 20
-809.702495612916
 30
0.0
  0
ENDBLK
  5
57
330
53
100
AcDbEntity
  8
0
100
AcDbBlockEnd
  0
BLOCK
  5
59
330
58
100
AcDbEntity
  8
0
100
AcDbBlockBegin
  2
_2
 70
     0
 71
     0
 10
-1578.278284624195
 20
-249.738691069153
 30
0.0
  3
_2
  1

  0
LINE
  5
127
330
58
100
AcDbEntity
  8
1
  6
Continuous
 62
     7
100
AcDbLine
 10
-1548.778284624195
 20
-126.166935483871
 30
0.0
 11
-1548.778284624195
 21
-123.666935483871
 31
0.0
  0
LINE
  5
128
330
58
100
AcDbEntity
  8
1
  6
Continuous
 62
     7
100
AcDbLine
 10
-1548.778284624195
 20
-123.666935483871
 30
0.0
 11
-1422.778284624195
 21
-123.666935483871
 31
0.0
  0
LINE
  5
129
330
58
100
AcDbEntity
  8
1
  6
Continuous
 62
     7
100
AcDbLine
 10
-1422.778284624195
 20
-123.666935483871
 30
0.0
 11
-1422.778284624195
 21
-126.166935483871
 31
0.0
  0
LINE
  5
12A
330
58
100
AcDbEntity
  8
1
  6
Continuous
 62
     7
100
AcDbLine
 10
-1422.778284624195
 20
-126.166935483871
 30
0.0
 11
-1393.778284624195
 21
-126.166935483871
 31
0.0
  0
LINE
  5
12B
330
58
100
AcDbEntity
  8
1
  6
Continuous
 62
     7
100
AcDbLine
 10
-1393.778284624195
 20
-126.166935483871
 30
0.0
 11
-1393.778284624195
 21
-146.166935483871
 31
0.0
  0
LINE
  5
12C
330
58
100
AcDbEntity
  8
1
  6
Continuous
 62
     7
100
AcDbLine
 10
-1548.778284624195
 20
-126.166935483871
 30
0.0
 11
-1577.778284624195
 21
-126.166935483871
 31
0.0
  0
LINE
  5
12D
330
58
100
AcDbEntity
  8
1
  6
Continuous
 62
     7
100
AcDbLine
 10
-1577.778284624195
 20
-126.166935483871
 30
0.0
 11
-1577.778284624195
 21
-146.166935483871
 31
0.0
  0
LINE
  5
12E
330
58
100
AcDbEntity
  8
1
  6
Continuous
 62
     7
100
AcDbLine
 10
-1393.778284624195
 20
-146.166935483871
 30
0.0
 11
-1422.516583842285
 21
-146.166935483871
 31
0.0
  0
LINE
  5
12F
330
58
100
AcDbEntity
  8
1
  6
Continuous
 62
     7
100
AcDbLine
 10
-1577.778284624195
 20
-146.166935483871
 30
0.0
 11
-1548.962766972486
 21
-146.166935483871
 31
0.0
  0
LINE
  5
130
330
58
100
AcDbEntity
  8
1
  6
Continuous
 62
     7
100
AcDbLine
 10
-1393.278284624195
 20
-243.166935483871
 30
0.0
 11
-1578.278284624195
 21
-243.166935483871
 31
0.0
  0
LINE
  5
131
330
58
100
AcDbEntity
  8
1
  6
Continuous
 62
     7
100
AcDbLine
 10
-1578.278284624195
 20
-243.166935483871
 30
0.0
 11
-1578.278284624195
 21
-224.166935483871
 31
0.0
  0
LINE
  5
132
330
58
100
AcDbEntity
  8
1
  6
Continuous
 62
     7
100
AcDbLine
 10
-1393.278284624195
 20
-243.166935483871
 30
0.0
 11
-1393.278284624195
 21
-224.166935483871
 31
0.0
  0
LINE
  5
133
330
58
100
AcDbEntity
  8
1
  6
Continuous
 62
     7
100
AcDbLine
 10
-1396.278284624195
 20
-221.166935483871
 30
0.0
 11
-1428.797122653378
 21
-221.166935483871
 31
0.0
  0
LINE
  5
134
330
58
100
AcDbEntity
  8
1
  6
Continuous
 62
     7
100
AcDbLine
 10
-1427.092650751194
 20
-149.152087686843
 30
0.0
 11
-1434.584308824171
 21
-166.166935483871
 31
0.0
  0
LINE
  5
135
330
58
100
AcDbEntity
  8
1
  6
Continuous
 62
     7
100
AcDbLine
 10
-1544.43175065441
 20
-149.0527237808175
 30
0.0
 11
-1536.446110318757
 21
-166.166935483871
 31
0.0
  0
LINE
  5
136
330
58
100
AcDbEntity
  8
1
  6
Continuous
 62
     7
100
AcDbLine
 10
-1536.446110318757
 20
-166.166935483871
 30
0.0
 11
-1534.235266784741
 21
-197.166935483871
 31
0.0
  0
LINE
  5
137
330
58
100
AcDbEntity
  8
1
  6
Continuous
 62
     7
100
AcDbLine
 10
-1434.584308824171
 20
-166.166935483871
 30
0.0
 11
-1435.912880252742
 21
-197.166935483871
 31
0.0
  0
LINE
  5
138
330
58
100
AcDbEntity
  8
1
  6
Continuous
 62
     7
100
AcDbLine
 10
-1433.767265948835
 20
-216.7125320588486
 30
0.0
 11
-1435.912880252742
 21
-197.166935483871
 31
0.0
  0
LINE
  5
139
330
58
100
AcDbEntity
  8
1
  6
Continuous
 62
     7
100
AcDbLine
 10
-1537.575910063764
 20
-216.9975278483574
 30
0.0
 11
-1534.235266784741
 21
-197.166935483871
 31
0.0
  0
LINE
  5
13A
330
58
100
AcDbEntity
  8
1
  6
Continuous
 62
     7
100
AcDbLine
 10
-1548.962766972486
 20
-146.166935483871
 30
0.0
 11
-1422.516583842285
 21
-146.166935483871
 31
0.0
  0
LINE
  5
13B
330
58
100
AcDbEntity
  8
1
  6
DOT_CENTER
 62
     1
100
AcDbLine
 10
-1485.778284624195
 20
-116.367538082031
 30
0.0
 11
-1485.778284624195
 21
-250.238691069153
 31
0.0
  0
LINE
  5
13C
330
58
100
AcDbEntity
  8
1
  6
Continuous
 62
     7
100
AcDbLine
 10
-1575.278284624195
 20
-221.166935483871
 30
0.0
 11
-1542.506439074333
 21
-221.166935483871
 31
0.0
  0
ARC
  5
13D
330
58
100
AcDbEntity
  8
1
  6
Continuous
 62
     7
100
AcDbCircle
 10
-1428.797122653378
 20
-216.166935483871
 30
0.0
 40
5.00000000000044
100
AcDbArc
 50
-173.7354495610128
 51
-90.0
  0
ARC
  5
13E
330
58
100
AcDbEntity
  8
1
  6
Continuous
 62
     7
100
AcDbCircle
 10
-1542.506439074333
 20
-216.166935483871
 30
0.0
 40
5.0
100
AcDbArc
 50
-90.0
 51
-9.56221498985844
  0
ARC
  5
13F
330
58
100
AcDbEntity
  8
1
  6
Continuous
 62
     7
100
AcDbCircle
 10
-1396.278284624195
 20
-224.166935483871
 30
0.0
 40
3.0
100
AcDbArc
 50
0.0
 51
90.0
  0
ARC
  5
140
330
58
100
AcDbEntity
  8
1
  6
Continuous
 62
     7
100
AcDbCircle
 10
-1575.278284624195
 20
-224.166935483871
 30
0.0
 40
3.0
100
AcDbArc
 50
90.0
 51
180.0
  0
ARC
  5
141
330
58
100
AcDbEntity
  8
1
  6
Continuous
 62
     7
100
AcDbCircle
 10
-1422.516583842285
 20
-151.166935483871
 30
0.0
 40
5.0
100
AcDbArc
 50
90.0
 51
156.2360482808771
  0
ARC
  5
142
330
58
100
AcDbEntity
  8
1
  6
Continuous
 62
     7
100
AcDbCircle
 10
-1548.962766972486
 20
-151.166935483871
 30
0.0
 40
4.999999999999839
100
AcDbArc
 50
25.01416683606941
 51
90.0
  0
MTEXT
  5
144
330
58
100
AcDbEntity
  8
1
 62
     7
100
AcDbMText
 10
-1485.778284624195
 20
-181.666935483871
 30
0.0
 40
18.0
 41
0.0
 71
     5
 72
     1
  1
B
  7
CONVERTER_1
 73
     1
 44
0.84033613445378
  0
ENDBLK
  5
5A
330
58
100
AcDbEntity
  8
0
100
AcDbBlockEnd
  0
BLOCK
  5
5C
330
5B
100
AcDbEntity
  8
0
100
AcDbBlockBegin
  2
Top__9
 70
     0
 71
     0
 10
617.7433799733474
 20
-1801.807021612155
 30
0.0
  3
Top__9
  1

  0
POINT
  5
145
330
5B
100
AcDbEntity
  8
1
 62
     3
 60
     1
100
AcDbPoint
 10
322.677394171217
 20
-1979.92834119089
 30
0.0
  0
POINT
  5
146
330
5B
100
AcDbEntity
  8
1
 62
     3
 60
     1
100
AcDbPoint
 10
323.677394171217
 20
-1979.92834119089
 30
0.0
  0
POINT
  5
147
330
5B
100
AcDbEntity
  8
1
 62
     3
 60
     1
100
AcDbPoint
 10
322.677394171217
 20
-1971.12834119089
 30
0.0
  0
POINT
  5
148
330
5B
100
AcDbEntity
  8
1
 62
     3
 60
     1
100
AcDbPoint
 10
322.677394171217
 20
-1978.92834119089
 30
0.0
  0
POINT
  5
149
330
5B
100
AcDbEntity
  8
1
 62
     3
 60
     1
100
AcDbPoint
 10
322.677394171217
 20
-1933.32834119089
 30
0.0
  0
POINT
  5
14A
330
5B
100
AcDbEntity
  8
1
 62
     3
 60
     1
100
AcDbPoint
 10
323.677394171217
 20
-1932.32834119089
 30
0.0
  0
POINT
  5
14B
330
5B
100
AcDbEntity
  8
1
 62
     3
 60
     1
100
AcDbPoint
 10
322.677394171217
 20
-1932.32834119089
 30
0.0
  0
POINT
  5
14C
330
5B
100
AcDbEntity
  8
1
 62
     3
 60
     1
100
AcDbPoint
 10
322.677394171217
 20
-1941.12834119089
 30
0.0
  0
POINT
  5
14D
330
5B
100
AcDbEntity
  8
1
 62
     3
 60
     1
100
AcDbPoint
 10
499.7911113926331
 20
-1770.199361208027
 30
0.0
  0
POINT
  5
14E
330
5B
100
AcDbEntity
  8
1
 62
     3
 60
     1
100
AcDbPoint
 10
500.7911113926331
 20
-1770.199361208027
 30
0.0
  0
POINT
  5
14F
330
5B
100
AcDbEntity
  8
1
 62
     3
 60
     1
100
AcDbPoint
 10
499.7911113926331
 20
-1778.999361208027
 30
0.0
  0
POINT
  5
150
330
5B
100
AcDbEntity
  8
1
 62
     3
 60
     1
100
AcDbPoint
 10
499.7911113926331
 20
-1777.999361208027
 30
0.0
  0
POINT
  5
151
330
5B
100
AcDbEntity
  8
1
 62
     3
 60
     1
100
AcDbPoint
 10
500.7911113926331
 20
-1778.999361208027
 30
0.0
  0
POINT
  5
152
330
5B
100
AcDbEntity
  8
1
 62
     3
 60
     1
100
AcDbPoint
 10
500.7911113926331
 20
-1740.199361208027
 30
0.0
  0
POINT
  5
153
330
5B
100
AcDbEntity
  8
1
 62
     3
 60
     1
100
AcDbPoint
 10
499.7911113926331
 20
-1740.199361208027
 30
0.0
  0
POINT
  5
154
330
5B
100
AcDbEntity
  8
1
 62
     3
 60
     1
100
AcDbPoint
 10
499.7911113926331
 20
-1731.399361208027
 30
0.0
  0
POINT
  5
155
330
5B
100
AcDbEntity
  8
1
 62
     3
 60
     1
100
AcDbPoint
 10
499.7911113926331
 20
-1732.399361208027
 30
0.0
  0
POINT
  5
156
330
5B
100
AcDbEntity
  8
1
 62
     3
 60
     1
100
AcDbPoint
 10
500.7911113926331
 20
-1731.399361208027
 30
0.0
  0
ENDBLK
  5
5D
330
5B
100
AcDbEntity
  8
0
100
AcDbBlockEnd
  0
BLOCK
  5
60
330
5E
100
AcDbEntity
  8
0
100
AcDbBlockBegin
  2
TOP__10
 70
     0
 71
     0
 10
-411.2732971868029
 20
-683.1550437160154
 30
0.0
  3
TOP__10
  1

  0
INSERT
  5
5F
330
5E
100
AcDbEntity
  8
0
100
AcDbBlockReference
  2
Top__9
 10
617.7433799733474
 20
-1801.807021612155
 30
0.0
  0
POINT
  5
157
330
5E
100
AcDbEntity
  8
1
 62
     3
 60
     1
100
AcDbPoint
 10
285.8973695323124
 20
-1136.507239287028
 30
0.0
  0
POINT
  5
158
330
5E
100
AcDbEntity
  8
1
 62
     3
 60
     1
100
AcDbPoint
 10
286.8973695323124
 20
-1136.507239287028
 30
0.0
  0
POINT
  5
159
330
5E
100
AcDbEntity
  8
1
 62
     3
 60
     1
100
AcDbPoint
 10
285.8973695323124
 20
-1137.507239287028
 30
0.0
  0
POINT
  5
15A
330
5E
100
AcDbEntity
  8
1
 62
     3
 60
     1
100
AcDbPoint
 10
100.8973695323124
 20
-1136.507239287028
 30
0.0
  0
POINT
  5
15B
330
5E
100
AcDbEntity
  8
1
 62
     3
 60
     1
100
AcDbPoint
 10
100.8973695323124
 20
-1137.507239287028
 30
0.0
  0
POINT
  5
15C
330
5E
100
AcDbEntity
  8
1
 62
     3
 60
     1
100
AcDbPoint
 10
99.8973695323125
 20
-1136.507239287028
 30
0.0
  0
ENDBLK
  5
61
330
5E
100
AcDbEntity
  8
0
100
AcDbBlockEnd
  0
BLOCK
  5
63
330
62
100
AcDbEntity
  8
0
100
AcDbBlockBegin
  2
Top__11
 70
     0
 71
     0
 10
1094.090574071561
 20
-2062.483555683797
 30
0.0
  3
Top__11
  1

  0
POINT
  5
15D
330
62
100
AcDbEntity
  8
1
 62
     3
 60
     1
100
AcDbPoint
 10
1009.878317991452
 20
-2115.239038845186
 30
0.0
  0
POINT
  5
15E
330
62
100
AcDbEntity
  8
1
 62
     3
 60
     1
100
AcDbPoint
 10
1008.378317991452
 20
-2116.739038845186
 30
0.0
  0
POINT
  5
15F
330
62
100
AcDbEntity
  8
1
 62
     3
 60
     1
100
AcDbPoint
 10
1008.378317991452
 20
-2115.239038845186
 30
0.0
  0
POINT
  5
160
330
62
100
AcDbEntity
  8
1
 62
     3
 60
     1
100
AcDbPoint
 10
1008.378317991452
 20
-1976.739038845186
 30
0.0
  0
POINT
  5
161
330
62
100
AcDbEntity
  8
1
 62
     3
 60
     1
100
AcDbPoint
 10
1009.878317991452
 20
-1978.239038845186
 30
0.0
  0
POINT
  5
162
330
62
100
AcDbEntity
  8
1
 62
     3
 60
     1
100
AcDbPoint
 10
1008.378317991452
 20
-1976.739038845186
 30
0.0
  0
ENDBLK
  5
64
330
62
100
AcDbEntity
  8
0
100
AcDbBlockEnd
  0
BLOCK
  5
67
330
65
100
AcDbEntity
  8
0
100
AcDbBlockBegin
  2
Top__12
 70
     0
 71
     0
 10
21.26787599126044
 20
-1284.340303803157
 30
0.0
  3
Top__12
  1

  0
INSERT
  5
66
330
65
100
AcDbEntity
  8
0
100
AcDbBlockReference
  2
Top__11
 10
1094.090574071561
 20
-2062.483555683797
 30
0.0
  0
ENDBLK
  5
68
330
65
100
AcDbEntity
  8
0
100
AcDbBlockEnd
  0
BLOCK
  5
6A
330
69
100
AcDbEntity
  8
0
100
AcDbBlockBegin
  2
Top__13
 70
     0
 71
     0
 10
365.9704044037493
 20
-1926.92240943149
 30
0.0
  3
Top__13
  1

  0
POINT
  5
163
330
69
100
AcDbEntity
  8
1
 62
     3
 60
     1
100
AcDbPoint
 10
263.6355692801383
 20
-1856.177892592879
 30
0.0
  0
POINT
  5
164
330
69
100
AcDbEntity
  8
1
 62
     3
 60
     1
100
AcDbPoint
 10
265.1355692801383
 20
-1827.677892592879
 30
0.0
  0
POINT
  5
165
330
69
100
AcDbEntity
  8
1
 62
     3
 60
     1
100
AcDbPoint
 10
263.6355692801383
 20
-1996.177892592879
 30
0.0
  0
POINT
  5
166
330
69
100
AcDbEntity
  8
1
 62
     3
 60
     1
100
AcDbPoint
 10
265.1355692801383
 20
-1994.677892592879
 30
0.0
  0
ENDBLK
  5
6B
330
69
100
AcDbEntity
  8
0
100
AcDbBlockEnd
  0
BLOCK
  5
6D
330
6C
100
AcDbEntity
  8
0
100
AcDbBlockBegin
  2
Top__14
 70
     0
 71
     0
 10
1692.242795237117
 20
-2703.813255742451
 30
0.0
  3
Top__14
  1

  0
POINT
  5
167
330
6C
100
AcDbEntity
  8
1
 62
     3
 60
     1
100
AcDbPoint
 10
1575.290526656403
 20
-2633.405595338322
 30
0.0
  0
POINT
  5
168
330
6C
100
AcDbEntity
  8
1
 62
     3
 60
     1
100
AcDbPoint
 10
1574.290526656403
 20
-2634.405595338322
 30
0.0
  0
POINT
  5
169
330
6C
100
AcDbEntity
  8
1
 62
     3
 60
     1
100
AcDbPoint
 10
1574.290526656403
 20
-2633.405595338322
 30
0.0
  0
POINT
  5
16A
330
6C
100
AcDbEntity
  8
1
 62
     3
 60
     1
100
AcDbPoint
 10
1574.290526656403
 20
-2642.205595338322
 30
0.0
  0
POINT
  5
16B
330
6C
100
AcDbEntity
  8
1
 62
     3
 60
     1
100
AcDbPoint
 10
1575.290526656403
 20
-2642.205595338322
 30
0.0
  0
POINT
  5
16C
330
6C
100
AcDbEntity
  8
1
 62
     3
 60
     1
100
AcDbPoint
 10
1575.290526656403
 20
-2681.005595338323
 30
0.0
  0
POINT
  5
16D
330
6C
100
AcDbEntity
  8
1
 62
     3
 60
     1
100
AcDbPoint
 10
1574.290526656403
 20
-2680.005595338323
 30
0.0
  0
POINT
  5
16E
330
6C
100
AcDbEntity
  8
1
 62
     3
 60
     1
100
AcDbPoint
 10
1574.290526656403
 20
-2681.005595338323
 30
0.0
  0
POINT
  5
16F
330
6C
100
AcDbEntity
  8
1
 62
     3
 60
     1
100
AcDbPoint
 10
1575.290526656403
 20
-2672.205595338322
 30
0.0
  0
POINT
  5
170
330
6C
100
AcDbEntity
  8
1
 62
     3
 60
     1
100
AcDbPoint
 10
1574.290526656403
 20
-2672.205595338322
 30
0.0
  0
POINT
  5
171
330
6C
100
AcDbEntity
  8
1
 62
     3
 60
     1
100
AcDbPoint
 10
1397.176809434987
 20
-2843.134575321185
 30
0.0
  0
POINT
  5
172
330
6C
100
AcDbEntity
  8
1
 62
     3
 60
     1
100
AcDbPoint
 10
1397.176809434987
 20
-2834.334575321186
 30
0.0
  0
POINT
  5
173
330
6C
100
AcDbEntity
  8
1
 62
     3
 60
     1
100
AcDbPoint
 10
1398.176809434987
 20
-2834.334575321186
 30
0.0
  0
POINT
  5
174
330
6C
100
AcDbEntity
  8
1
 62
     3
 60
     1
100
AcDbPoint
 10
1397.176809434987
 20
-2835.334575321186
 30
0.0
  0
POINT
  5
175
330
6C
100
AcDbEntity
  8
1
 62
     3
 60
     1
100
AcDbPoint
 10
1397.176809434987
 20
-2880.934575321186
 30
0.0
  0
POINT
  5
176
330
6C
100
AcDbEntity
  8
1
 62
     3
 60
     1
100
AcDbPoint
 10
1397.176809434987
 20
-2873.134575321185
 30
0.0
  0
POINT
  5
177
330
6C
100
AcDbEntity
  8
1
 62
     3
 60
     1
100
AcDbPoint
 10
1398.176809434987
 20
-2881.934575321186
 30
0.0
  0
POINT
  5
178
330
6C
100
AcDbEntity
  8
1
 62
     3
 60
     1
100
AcDbPoint
 10
1397.176809434987
 20
-2881.934575321186
 30
0.0
  0
ENDBLK
  5
6E
330
6C
100
AcDbEntity
  8
0
100
AcDbBlockEnd
  0
BLOCK
  5
71
330
6F
100
AcDbEntity
  8
0
100
AcDbBlockBegin
  2
TOP__15
 70
     0
 71
     0
 10
663.2261180769665
 20
-1585.161277846311
 30
0.0
  3
TOP__15
  1

  0
INSERT
  5
70
330
6F
100
AcDbEntity
  8
0
100
AcDbBlockReference
  2
Top__14
 10
1692.242795237117
 20
-2703.813255742451
 30
0.0
  0
POINT
  5
179
330
6F
100
AcDbEntity
  8
1
 62
     3
 60
     1
100
AcDbPoint
 10
1174.396784796081
 20
-2038.513473417323
 30
0.0
  0
POINT
  5
17A
330
6F
100
AcDbEntity
  8
1
 62
     3
 60
     1
100
AcDbPoint
 10
1175.396784796081
 20
-2039.513473417323
 30
0.0
  0
POINT
  5
17B
330
6F
100
AcDbEntity
  8
1
 62
     3
 60
     1
100
AcDbPoint
 10
1175.396784796081
 20
-2038.513473417323
 30
0.0
  0
POINT
  5
17C
330
6F
100
AcDbEntity
  8
1
 62
     3
 60
     1
100
AcDbPoint
 10
1360.396784796081
 20
-2039.513473417323
 30
0.0
  0
POINT
  5
17D
330
6F
100
AcDbEntity
  8
1
 62
     3
 60
     1
100
AcDbPoint
 10
1361.396784796081
 20
-2038.513473417323
 30
0.0
  0
POINT
  5
17E
330
6F
100
AcDbEntity
  8
1
 62
     3
 60
     1
100
AcDbPoint
 10
1360.396784796081
 20
-2038.513473417323
 30
0.0
  0
ENDBLK
  5
72
330
6F
100
AcDbEntity
  8
0
100
AcDbBlockEnd
  0
BLOCK
  5
74
330
73
100
AcDbEntity
  8
0
100
AcDbBlockBegin
  2
Top__16
 70
     0
 71
     0
 10
1088.515809780203
 20
-2094.042799416073
 30
0.0
  3
Top__16
  1

  0
POINT
  5
17F
330
73
100
AcDbEntity
  8
1
 62
     3
 60
     1
100
AcDbPoint
 10
1002.803553700094
 20
-2008.298282577462
 30
0.0
  0
POINT
  5
180
330
73
100
AcDbEntity
  8
1
 62
     3
 60
     1
100
AcDbPoint
 10
1004.303553700094
 20
-2009.798282577462
 30
0.0
  0
POINT
  5
181
330
73
100
AcDbEntity
  8
1
 62
     3
 60
     1
100
AcDbPoint
 10
1002.803553700094
 20
-2008.298282577462
 30
0.0
  0
POINT
  5
182
330
73
100
AcDbEntity
  8
1
 62
     3
 60
     1
100
AcDbPoint
 10
1002.803553700094
 20
-2146.798282577462
 30
0.0
  0
POINT
  5
183
330
73
100
AcDbEntity
  8
1
 62
     3
 60
     1
100
AcDbPoint
 10
1002.803553700094
 20
-2148.298282577462
 30
0.0
  0
POINT
  5
184
330
73
100
AcDbEntity
  8
1
 62
     3
 60
     1
100
AcDbPoint
 10
1004.303553700094
 20
-2146.798282577462
 30
0.0
  0
ENDBLK
  5
75
330
73
100
AcDbEntity
  8
0
100
AcDbBlockEnd
  0
BLOCK
  5
79
330
76
100
AcDbEntity
  8
0
100
AcDbBlockBegin
  2
Top__17
 70
     0
 71
     0
 10
15.6931116999034
 20
-1315.899547535433
 30
0.0
  3
Top__17
  1

  0
INSERT
  5
77
330
76
100
AcDbEntity
  8
0
100
AcDbBlockReference
  2
TOP__15
 10
663.2261180769665
 20
-1585.161277846311
 30
0.0
  0
INSERT
  5
78
330
76
100
AcDbEntity
  8
0
100
AcDbBlockReference
  2
Top__16
 10
1088.515809780203
 20
-2094.042799416073
 30
0.0
  0
ENDBLK
  5
7A
330
76
100
AcDbEntity
  8
0
100
AcDbBlockEnd
  0
BLOCK
  5
7F
330
7B
100
AcDbEntity
  8
0
100
AcDbBlockBegin
  2
Top__18
 70
     0
 71
     0
 10
-720.1325310080906
 20
-1284.340303803157
 30
0.0
  3
Top__18
  1

  0
INSERT
  5
7C
330
7B
100
AcDbEntity
  8
0
100
AcDbBlockReference
  2
Top__12
 10
21.26787599126044
 20
-1284.340303803157
 30
0.0
  0
INSERT
  5
7D
330
7B
100
AcDbEntity
  8
0
100
AcDbBlockReference
  2
Top__13
 10
365.9704044037493
 20
-1926.92240943149
 30
0.0
  0
INSERT
  5
7E
330
7B
100
AcDbEntity
  8
0
100
AcDbBlockReference
  2
Top__17
 10
15.6931116999034
 20
-1315.899547535433
 30
0.0
  0
ENDBLK
  5
80
330
7B
100
AcDbEntity
  8
0
100
AcDbBlockEnd
  0
BLOCK
  5
82
330
81
100
AcDbEntity
  8
0
100
AcDbBlockBegin
  2
Top__19
 70
     0
 71
     0
 10
-215.7671185370616
 20
-2062.483555683797
 30
0.0
  3
Top__19
  1

  0
POINT
  5
185
330
81
100
AcDbEntity
  8
1
 62
     3
 60
     1
100
AcDbPoint
 10
-299.9793746171707
 20
-2115.239038845186
 30
0.0
  0
POINT
  5
186
330
81
100
AcDbEntity
  8
1
 62
     3
 60
     1
100
AcDbPoint
 10
-301.4793746171707
 20
-2116.739038845186
 30
0.0
  0
POINT
  5
187
330
81
100
AcDbEntity
  8
1
 62
     3
 60
     1
100
AcDbPoint
 10
-301.4793746171707
 20
-2115.239038845186
 30
0.0
  0
POINT
  5
188
330
81
100
AcDbEntity
  8
1
 62
     3
 60
     1
100
AcDbPoint
 10
-301.4793746171707
 20
-1976.739038845186
 30
0.0
  0
POINT
  5
189
330
81
100
AcDbEntity
  8
1
 62
     3
 60
     1
100
AcDbPoint
 10
-299.9793746171707
 20
-1978.239038845186
 30
0.0
  0
POINT
  5
18A
330
81
100
AcDbEntity
  8
1
 62
     3
 60
     1
100
AcDbPoint
 10
-301.4793746171707
 20
-1976.739038845186
 30
0.0
  0
ENDBLK
  5
83
330
81
100
AcDbEntity
  8
0
100
AcDbBlockEnd
  0
BLOCK
  5
85
330
84
100
AcDbEntity
  8
0
100
AcDbBlockBegin
  2
Top__20
 70
     0
 71
     0
 10
387.9598669198515
 20
-2672.254012010175
 30
0.0
  3
Top__20
  1

  0
POINT
  5
18B
330
84
100
AcDbEntity
  8
1
 62
     3
 60
     1
100
AcDbPoint
 10
92.89388111772155
 20
-2850.37533158891
 30
0.0
  0
POINT
  5
18C
330
84
100
AcDbEntity
  8
1
 62
     3
 60
     1
100
AcDbPoint
 10
93.89388111772155
 20
-2850.37533158891
 30
0.0
  0
POINT
  5
18D
330
84
100
AcDbEntity
  8
1
 62
     3
 60
     1
100
AcDbPoint
 10
92.89388111772155
 20
-2841.57533158891
 30
0.0
  0
POINT
  5
18E
330
84
100
AcDbEntity
  8
1
 62
     3
 60
     1
100
AcDbPoint
 10
92.89388111772155
 20
-2849.37533158891
 30
0.0
  0
POINT
  5
18F
330
84
100
AcDbEntity
  8
1
 62
     3
 60
     1
100
AcDbPoint
 10
92.89388111772155
 20
-2803.77533158891
 30
0.0
  0
POINT
  5
190
330
84
100
AcDbEntity
  8
1
 62
     3
 60
     1
100
AcDbPoint
 10
93.89388111772155
 20
-2802.77533158891
 30
0.0
  0
POINT
  5
191
330
84
100
AcDbEntity
  8
1
 62
     3
 60
     1
100
AcDbPoint
 10
92.89388111772155
 20
-2802.77533158891
 30
0.0
  0
POINT
  5
192
330
84
100
AcDbEntity
  8
1
 62
     3
 60
     1
100
AcDbPoint
 10
92.89388111772155
 20
-2811.57533158891
 30
0.0
  0
POINT
  5
193
330
84
100
AcDbEntity
  8
1
 62
     3
 60
     1
100
AcDbPoint
 10
270.0075983391375
 20
-2640.646351606047
 30
0.0
  0
POINT
  5
194
330
84
100
AcDbEntity
  8
1
 62
     3
 60
     1
100
AcDbPoint
 10
271.0075983391375
 20
-2640.646351606047
 30
0.0
  0
POINT
  5
195
330
84
100
AcDbEntity
  8
1
 62
     3
 60
     1
100
AcDbPoint
 10
270.0075983391375
 20
-2649.446351606047
 30
0.0
  0
POINT
  5
196
330
84
100
AcDbEntity
  8
1
 62
     3
 60
     1
100
AcDbPoint
 10
270.0075983391375
 20
-2648.446351606047
 30
0.0
  0
POINT
  5
197
330
84
100
AcDbEntity
  8
1
 62
     3
 60
     1
100
AcDbPoint
 10
271.0075983391375
 20
-2649.446351606047
 30
0.0
  0
POINT
  5
198
330
84
100
AcDbEntity
  8
1
 62
     3
 60
     1
100
AcDbPoint
 10
271.0075983391375
 20
-2610.646351606047
 30
0.0
  0
POINT
  5
199
330
84
100
AcDbEntity
  8
1
 62
     3
 60
     1
100
AcDbPoint
 10
270.0075983391375
 20
-2610.646351606047
 30
0.0
  0
POINT
  5
19A
330
84
100
AcDbEntity
  8
1
 62
     3
 60
     1
100
AcDbPoint
 10
270.0075983391375
 20
-2601.846351606047
 30
0.0
  0
POINT
  5
19B
330
84
100
AcDbEntity
  8
1
 62
     3
 60
     1
100
AcDbPoint
 10
270.0075983391375
 20
-2602.846351606047
 30
0.0
  0
POINT
  5
19C
330
84
100
AcDbEntity
  8
1
 62
     3
 60
     1
100
AcDbPoint
 10
271.0075983391375
 20
-2601.846351606047
 30
0.0
  0
ENDBLK
  5
86
330
84
100
AcDbEntity
  8
0
100
AcDbBlockEnd
  0
BLOCK
  5
89
330
87
100
AcDbEntity
  8
0
100
AcDbBlockBegin
  2
TOP__21
 70
     0
 71
     0
 10
-641.0568102402986
 20
-1553.602034114035
 30
0.0
  3
TOP__21
  1

  0
INSERT
  5
88
330
87
100
AcDbEntity
  8
0
100
AcDbBlockReference
  2
Top__20
 10
387.9598669198515
 20
-2672.254012010175
 30
0.0
  0
POINT
  5
19D
330
87
100
AcDbEntity
  8
1
 62
     3
 60
     1
100
AcDbPoint
 10
56.11385647881639
 20
-2006.954229685047
 30
0.0
  0
POINT
  5
19E
330
87
100
AcDbEntity
  8
1
 62
     3
 60
     1
100
AcDbPoint
 10
57.11385647881639
 20
-2006.954229685047
 30
0.0
  0
POINT
  5
19F
330
87
100
AcDbEntity
  8
1
 62
     3
 60
     1
100
AcDbPoint
 10
56.11385647881639
 20
-2007.954229685047
 30
0.0
  0
POINT
  5
1A0
330
87
100
AcDbEntity
  8
1
 62
     3
 60
     1
100
AcDbPoint
 10
-128.8861435211836
 20
-2006.954229685047
 30
0.0
  0
POINT
  5
1A1
330
87
100
AcDbEntity
  8
1
 62
     3
 60
     1
100
AcDbPoint
 10
-128.8861435211836
 20
-2007.954229685047
 30
0.0
  0
POINT
  5
1A2
330
87
100
AcDbEntity
  8
1
 62
     3
 60
     1
100
AcDbPoint
 10
-129.8861435211836
 20
-2006.954229685047
 30
0.0
  0
ENDBLK
  5
8A
330
87
100
AcDbEntity
  8
0
100
AcDbBlockEnd
  0
BLOCK
  5
8E
330
8B
100
AcDbEntity
  8
0
100
AcDbBlockBegin
  2
Top__22
 70
     0
 71
     0
 10
-1288.589816617362
 20
-1284.340303803157
 30
0.0
  3
Top__22
  1

  0
INSERT
  5
8C
330
8B
100
AcDbEntity
  8
0
100
AcDbBlockReference
  2
Top__19
 10
-215.7671185370616
 20
-2062.483555683797
 30
0.0
  0
INSERT
  5
8D
330
8B
100
AcDbEntity
  8
0
100
AcDbBlockReference
  2
TOP__21
 10
-641.0568102402986
 20
-1553.602034114035
 30
0.0
  0
ENDBLK
  5
8F
330
8B
100
AcDbEntity
  8
0
100
AcDbBlockEnd
  0
BLOCK
  5
91
330
90
100
AcDbEntity
  8
0
100
AcDbBlockBegin
  2
Top__23
 70
     0
 71
     0
 10
936.9302087820636
 20
-2062.483555683797
 30
0.0
  3
Top__23
  1

  0
POINT
  5
1A3
330
90
100
AcDbEntity
  8
1
 62
     3
 60
     1
100
AcDbPoint
 10
851.2179527019546
 20
-1976.739038845186
 30
0.0
  0
POINT
  5
1A4
330
90
100
AcDbEntity
  8
1
 62
     3
 60
     1
100
AcDbPoint
 10
852.7179527019546
 20
-1978.239038845186
 30
0.0
  0
POINT
  5
1A5
330
90
100
AcDbEntity
  8
1
 62
     3
 60
     1
100
AcDbPoint
 10
851.2179527019546
 20
-1976.739038845186
 30
0.0
  0
POINT
  5
1A6
330
90
100
AcDbEntity
  8
1
 62
     3
 60
     1
100
AcDbPoint
 10
851.2179527019546
 20
-2115.239038845186
 30
0.0
  0
POINT
  5
1A7
330
90
100
AcDbEntity
  8
1
 62
     3
 60
     1
100
AcDbPoint
 10
851.2179527019546
 20
-2116.739038845186
 30
0.0
  0
POINT
  5
1A8
330
90
100
AcDbEntity
  8
1
 62
     3
 60
     1
100
AcDbPoint
 10
852.7179527019546
 20
-2115.239038845186
 30
0.0
  0
ENDBLK
  5
92
330
90
100
AcDbEntity
  8
0
100
AcDbBlockEnd
  0
BLOCK
  5
95
330
93
100
AcDbEntity
  8
0
100
AcDbBlockBegin
  2
Top__24
 70
     0
 71
     0
 10
-135.8924892982365
 20
-1284.340303803157
 30
0.0
  3
Top__24
  1

  0
INSERT
  5
94
330
93
100
AcDbEntity
  8
0
100
AcDbBlockReference
  2
Top__23
 10
936.9302087820636
 20
-2062.483555683797
 30
0.0
  0
ENDBLK
  5
96
330
93
100
AcDbEntity
  8
0
100
AcDbBlockEnd
  0
BLOCK
  5
98
330
97
100
AcDbEntity
  8
0
100
AcDbBlockBegin
  2
Top__25
 70
     0
 71
     0
 10
208.8100391142525
 20
-1926.92240943149
 30
0.0
  3
Top__25
  1

  0
POINT
  5
1A9
330
97
100
AcDbEntity
  8
1
 62
     3
 60
     1
100
AcDbPoint
 10
107.9752039906414
 20
-1994.677892592879
 30
0.0
  0
POINT
  5
1AA
330
97
100
AcDbEntity
  8
1
 62
     3
 60
     1
100
AcDbPoint
 10
106.4752039906414
 20
-1996.177892592879
 30
0.0
  0
POINT
  5
1AB
330
97
100
AcDbEntity
  8
1
 62
     3
 60
     1
100
AcDbPoint
 10
107.9752039906414
 20
-1827.677892592879
 30
0.0
  0
POINT
  5
1AC
330
97
100
AcDbEntity
  8
1
 62
     3
 60
     1
100
AcDbPoint
 10
106.4752039906414
 20
-1856.177892592879
 30
0.0
  0
ENDBLK
  5
99
330
97
100
AcDbEntity
  8
0
100
AcDbBlockEnd
  0
BLOCK
  5
9B
330
9A
100
AcDbEntity
  8
0
100
AcDbBlockBegin
  2
Top__26
 70
     0
 71
     0
 10
1535.082429947619
 20
-2703.813255742451
 30
0.0
  3
Top__26
  1

  0
POINT
  5
1AD
330
9A
100
AcDbEntity
  8
1
 62
     3
 60
     1
100
AcDbPoint
 10
1240.01644414549
 20
-2881.934575321186
 30
0.0
  0
POINT
  5
1AE
330
9A
100
AcDbEntity
  8
1
 62
     3
 60
     1
100
AcDbPoint
 10
1241.01644414549
 20
-2881.934575321186
 30
0.0
  0
POINT
  5
1AF
330
9A
100
AcDbEntity
  8
1
 62
     3
 60
     1
100
AcDbPoint
 10
1240.01644414549
 20
-2873.134575321185
 30
0.0
  0
POINT
  5
1B0
330
9A
100
AcDbEntity
  8
1
 62
     3
 60
     1
100
AcDbPoint
 10
1240.01644414549
 20
-2880.934575321186
 30
0.0
  0
POINT
  5
1B1
330
9A
100
AcDbEntity
  8
1
 62
     3
 60
     1
100
AcDbPoint
 10
1240.01644414549
 20
-2835.334575321186
 30
0.0
  0
POINT
  5
1B2
330
9A
100
AcDbEntity
  8
1
 62
     3
 60
     1
100
AcDbPoint
 10
1241.01644414549
 20
-2834.334575321186
 30
0.0
  0
POINT
  5
1B3
330
9A
100
AcDbEntity
  8
1
 62
     3
 60
     1
100
AcDbPoint
 10
1240.01644414549
 20
-2834.334575321186
 30
0.0
  0
POINT
  5
1B4
330
9A
100
AcDbEntity
  8
1
 62
     3
 60
     1
100
AcDbPoint
 10
1240.01644414549
 20
-2843.134575321185
 30
0.0
  0
POINT
  5
1B5
330
9A
100
AcDbEntity
  8
1
 62
     3
 60
     1
100
AcDbPoint
 10
1417.130161366905
 20
-2672.205595338322
 30
0.0
  0
POINT
  5
1B6
330
9A
100
AcDbEntity
  8
1
 62
     3
 60
     1
100
AcDbPoint
 10
1418.130161366905
 20
-2672.205595338322
 30
0.0
  0
POINT
  5
1B7
330
9A
100
AcDbEntity
  8
1
 62
     3
 60
     1
100
AcDbPoint
 10
1417.130161366905
 20
-2681.005595338323
 30
0.0
  0
POINT
  5
1B8
330
9A
100
AcDbEntity
  8
1
 62
     3
 60
     1
100
AcDbPoint
 10
1417.130161366905
 20
-2680.005595338323
 30
0.0
  0
POINT
  5
1B9
330
9A
100
AcDbEntity
  8
1
 62
     3
 60
     1
100
AcDbPoint
 10
1418.130161366905
 20
-2681.005595338323
 30
0.0
  0
POINT
  5
1BA
330
9A
100
AcDbEntity
  8
1
 62
     3
 60
     1
100
AcDbPoint
 10
1418.130161366905
 20
-2642.205595338322
 30
0.0
  0
POINT
  5
1BB
330
9A
100
AcDbEntity
  8
1
 62
     3
 60
     1
100
AcDbPoint
 10
1417.130161366905
 20
-2642.205595338322
 30
0.0
  0
POINT
  5
1BC
330
9A
100
AcDbEntity
  8
1
 62
     3
 60
     1
100
AcDbPoint
 10
1417.130161366905
 20
-2633.405595338322
 30
0.0
  0
POINT
  5
1BD
330
9A
100
AcDbEntity
  8
1
 62
     3
 60
     1
100
AcDbPoint
 10
1417.130161366905
 20
-2634.405595338322
 30
0.0
  0
POINT
  5
1BE
330
9A
100
AcDbEntity
  8
1
 62
     3
 60
     1
100
AcDbPoint
 10
1418.130161366905
 20
-2633.405595338322
 30
0.0
  0
ENDBLK
  5
9C
330
9A
100
AcDbEntity
  8
0
100
AcDbBlockEnd
  0
BLOCK
  5
9F
330
9D
100
AcDbEntity
  8
0
100
AcDbBlockBegin
  2
TOP__27
 70
     0
 71
     0
 10
506.0657527874696
 20
-1585.161277846311
 30
0.0
  3
TOP__27
  1

  0
INSERT
  5
9E
330
9D
100
AcDbEntity
  8
0
100
AcDbBlockReference
  2
Top__26
 10
1535.082429947619
 20
-2703.813255742451
 30
0.0
  0
POINT
  5
1BF
330
9D
100
AcDbEntity
  8
1
 62
     3
 60
     1
100
AcDbPoint
 10
1203.236419506585
 20
-2038.513473417323
 30
0.0
  0
POINT
  5
1C0
330
9D
100
AcDbEntity
  8
1
 62
     3
 60
     1
100
AcDbPoint
 10
1204.236419506585
 20
-2038.513473417323
 30
0.0
  0
POINT
  5
1C1
330
9D
100
AcDbEntity
  8
1
 62
     3
 60
     1
100
AcDbPoint
 10
1203.236419506585
 20
-2039.513473417323
 30
0.0
  0
POINT
  5
1C2
330
9D
100
AcDbEntity
  8
1
 62
     3
 60
     1
100
AcDbPoint
 10
1018.236419506585
 20
-2038.513473417323
 30
0.0
  0
POINT
  5
1C3
330
9D
100
AcDbEntity
  8
1
 62
     3
 60
     1
100
AcDbPoint
 10
1018.236419506585
 20
-2039.513473417323
 30
0.0
  0
POINT
  5
1C4
330
9D
100
AcDbEntity
  8
1
 62
     3
 60
     1
100
AcDbPoint
 10
1017.236419506585
 20
-2038.513473417323
 30
0.0
  0
ENDBLK
  5
A0
330
9D
100
AcDbEntity
  8
0
100
AcDbBlockEnd
  0
BLOCK
  5
A2
330
A1
100
AcDbEntity
  8
0
100
AcDbBlockBegin
  2
Top__28
 70
     0
 71
     0
 10
931.3554444907065
 20
-2094.042799416073
 30
0.0
  3
Top__28
  1

  0
POINT
  5
1C5
330
A1
100
AcDbEntity
  8
1
 62
     3
 60
     1
100
AcDbPoint
 10
847.1431884105975
 20
-2146.798282577462
 30
0.0
  0
POINT
  5
1C6
330
A1
100
AcDbEntity
  8
1
 62
     3
 60
     1
100
AcDbPoint
 10
845.6431884105975
 20
-2148.298282577462
 30
0.0
  0
POINT
  5
1C7
330
A1
100
AcDbEntity
  8
1
 62
     3
 60
     1
100
AcDbPoint
 10
845.6431884105975
 20
-2146.798282577462
 30
0.0
  0
POINT
  5
1C8
330
A1
100
AcDbEntity
  8
1
 62
     3
 60
     1
100
AcDbPoint
 10
845.6431884105975
 20
-2008.298282577462
 30
0.0
  0
POINT
  5
1C9
330
A1
100
AcDbEntity
  8
1
 62
     3
 60
     1
100
AcDbPoint
 10
847.1431884105975
 20
-2009.798282577462
 30
0.0
  0
POINT
  5
1CA
330
A1
100
AcDbEntity
  8
1
 62
     3
 60
     1
100
AcDbPoint
 10
845.6431884105975
 20
-2008.298282577462
 30
0.0
  0
ENDBLK
  5
A3
330
A1
100
AcDbEntity
  8
0
100
AcDbBlockEnd
  0
BLOCK
  5
A7
330
A4
100
AcDbEntity
  8
0
100
AcDbBlockBegin
  2
Top__29
 70
     0
 71
     0
 10
-141.4672535895935
 20
-1315.899547535433
 30
0.0
  3
Top__29
  1

  0
INSERT
  5
A5
330
A4
100
AcDbEntity
  8
0
100
AcDbBlockReference
  2
TOP__27
 10
506.0657527874696
 20
-1585.161277846311
 30
0.0
  0
INSERT
  5
A6
330
A4
100
AcDbEntity
  8
0
100
AcDbBlockReference
  2
Top__28
 10
931.3554444907065
 20
-2094.042799416073
 30
0.0
  0
ENDBLK
  5
A8
330
A4
100
AcDbEntity
  8
0
100
AcDbBlockEnd
  0
BLOCK
  5
B0
330
A9
100
AcDbEntity
  8
0
100
AcDbBlockBegin
  2
Top__30
 70
     0
 71
     0
 10
87.11560554591847
 20
-1284.340303803157
 30
0.0
  3
Top__30
  1

  0
INSERT
  5
AA
330
A9
100
AcDbEntity
  8
0
100
AcDbBlockReference
  2
TOP__10
 10
-411.2732971868029
 20
-683.1550437160154
 30
0.0
  0
INSERT
  5
AB
330
A9
100
AcDbEntity
  8
0
100
AcDbBlockReference
  2
Top__18
 10
-720.1325310080906
 20
-1284.340303803157
 30
0.0
  0
INSERT
  5
AC
330
A9
100
AcDbEntity
  8
0
100
AcDbBlockReference
  2
Top__22
 10
-1288.589816617362
 20
-1284.340303803157
 30
0.0
  0
INSERT
  5
AD
330
A9
100
AcDbEntity
  8
0
100
AcDbBlockReference
  2
Top__24
 10
-135.8924892982365
 20
-1284.340303803157
 30
0.0
  0
INSERT
  5
AE
330
A9
100
AcDbEntity
  8
0
100
AcDbBlockReference
  2
Top__25
 10
208.8100391142525
 20
-1926.92240943149
 30
0.0
  0
INSERT
  5
AF
330
A9
100
AcDbEntity
  8
0
100
AcDbBlockReference
  2
Top__29
 10
-141.4672535895935
 20
-1315.899547535433
 30
0.0
  0
ENDBLK
  5
B1
330
A9
100
AcDbEntity
  8
0
100
AcDbBlockEnd
  0
BLOCK
  5
242
330
238
100
AcDbEntity
  8
0
100
AcDbBlockBegin
  2
*D033
 70
     1
 71
     0
 10
0.0
 20
0.0
 30
0.0
  3
*D033
  1

  0
LINE
  5
239
330
238
100
AcDbEntity
  8
1
  6
Continuous
 62
     2
100
AcDbLine
 10
-1278.81047443752
 20
-3.16693548387099
 30
0.0
 11
-1278.81047443752
 21
-243.166935483871
 31
0.0
  0
LINE
  5
23A
330
238
100
AcDbEntity
  8
1
  6
Continuous
 62
     2
100
AcDbLine
 10
-1392.278284624195
 20
-243.166935483871
 30
0.0
 11
-1277.81047443752
 21
-243.166935483871
 31
0.0
  0
LINE
  5
23B
330
238
100
AcDbEntity
  8
1
  6
Continuous
 62
     2
100
AcDbLine
 10
-1319.077923734074
 20
-3.16693548387099
 30
0.0
 11
-1277.81047443752
 21
-3.16693548387099
 31
0.0
  0
LINE
  5
23C
330
238
100
AcDbEntity
  8
1
 62
     2
100
AcDbLine
 10
-1278.81047443752
 20
-3.16693548387099
 30
0.0
 11
-1276.130982513209
 21
-13.16693548387099
 31
0.0
  0
LINE
  5
23D
330
238
100
AcDbEntity
  8
1
 62
     2
100
AcDbLine
 10
-1278.81047443752
 20
-3.16693548387099
 30
0.0
 11
-1281.489966361831
 21
-13.16693548387099
 31
0.0
  0
LINE
  5
23E
330
238
100
AcDbEntity
  8
1
 62
     2
100
AcDbLine
 10
-1278.81047443752
 20
-243.166935483871
 30
0.0
 11
-1281.489966361831
 21
-233.166935483871
 31
0.0
  0
LINE
  5
23F
330
238
100
AcDbEntity
  8
1
 62
     2
100
AcDbLine
 10
-1278.81047443752
 20
-243.166935483871
 30
0.0
 11
-1276.130982513209
 21
-233.166935483871
 31
0.0
  0
MTEXT
  5
241
330
238
100
AcDbEntity
  8
1
 62
     2
100
AcDbMText
 10
-1280.41047443752
 20
-142.2311379132099
 30
0.0
 40
10.0
 41
0.0
 71
     7
 72
     1
  1
240
  7
CONVERTER_2
 11
0.0
 21
1.0
 31
0.0
 73
     1
 44
0.60024009603842
  0
ENDBLK
  5
243
330
238
100
AcDbEntity
  8
0
100
AcDbBlockEnd
  0
BLOCK
  5
245
330
244
100
AcDbEntity
  8
0
100
AcDbBlockBegin
  2
_Open30
 70
     0
 71
     0
 10
0.0
 20
0.0
 30
0.0
  3
_Open30
  1

  0
LINE
  5
247
330
244
100
AcDbEntity
  8
0
  6
ByBlock
 62
     0
370
    -2
100
AcDbLine
 10
-1.0
 20
0.267949
 30
0.0
 11
0.0
 21
0.0
 31
0.0
  0
LINE
  5
248
330
244
100
AcDbEntity
  8
0
  6
ByBlock
 62
     0
370
    -2
100
AcDbLine
 10
0.0
 20
0.0
 30
0.0
 11
-1.0
 21
-0.267949
 31
0.0
  0
LINE
  5
249
330
244
100
AcDbEntity
  8
0
  6
ByBlock
 62
     0
370
    -2
100
AcDbLine
 10
0.0
 20
0.0
 30
0.0
 11
-1.0
 21
0.0
 31
0.0
  0
ENDBLK
  5
246
330
244
100
AcDbEntity
  8
0
100
AcDbBlockEnd
  0
BLOCK
  5
255
330
24C
100
AcDbEntity
  8
0
100
AcDbBlockBegin
  2
*D135
 70
     1
 71
     0
 10
0.0
 20
0.0
 30
0.0
  3
*D135
  1

  0
LINE
  5
24D
330
24C
100
AcDbEntity
  8
1
  6
Continuous
 62
     2
100
AcDbLine
 10
-1278.75596110821
 20
148.8330645161291
 30
0.0
 11
-1278.75596110821
 21
255.8330645161291
 31
0.0
  0
LINE
  5
24E
330
24C
100
AcDbEntity
  8
1
  6
Continuous
 62
     2
100
AcDbLine
 10
-1481.228174724195
 20
255.8330645161291
 30
0.0
 11
-1277.75596110821
 21
255.8330645161291
 31
0.0
  0
LINE
  5
24F
330
24C
100
AcDbEntity
  8
1
  6
Continuous
 62
     2
100
AcDbLine
 10
-1461.778284624195
 20
148.8330645161291
 30
0.0
 11
-1277.75596110821
 21
148.8330645161291
 31
0.0
  0
LINE
  5
250
330
24C
100
AcDbEntity
  8
1
 62
     2
100
AcDbLine
 10
-1278.75596110821
 20
148.8330645161291
 30
0.0
 11
-1281.435453032521
 21
158.8330645161291
 31
0.0
  0
LINE
  5
251
330
24C
100
AcDbEntity
  8
1
 62
     2
100
AcDbLine
 10
-1278.75596110821
 20
148.8330645161291
 30
0.0
 11
-1276.076469183899
 21
158.8330645161291
 31
0.0
  0
LINE
  5
252
330
24C
100
AcDbEntity
  8
1
 62
     2
100
AcDbLine
 10
-1278.75596110821
 20
255.8330645161291
 30
0.0
 11
-1276.076469183899
 21
245.8330645161291
 31
0.0
  0
LINE
  5
253
330
24C
100
AcDbEntity
  8
1
 62
     2
100
AcDbLine
 10
-1278.75596110821
 20
255.8330645161291
 30
0.0
 11
-1281.435453032521
 21
245.8330645161291
 31
0.0
  0
MTEXT
  5
254
330
24C
100
AcDbEntity
  8
1
 62
     2
100
AcDbMText
 10
-1280.35596110821
 20
192.1748941649829
 30
0.0
 40
10.0
 41
0.0
 71
     7
 72
     1
  1
107
  7
CONVERTER_2
 11
0.0
 21
1.0
 31
0.0
 73
     1
 44
0.60024009603842
  0
ENDBLK
  5
256
330
24C
100
AcDbEntity
  8
0
100
AcDbBlockEnd
  0
BLOCK
  5
262
330
259
100
AcDbEntity
  8
0
100
AcDbBlockBegin
  2
*D236
 70
     1
 71
     0
 10
0.0
 20
0.0
 30
0.0
  3
*D236
  1

  0
LINE
  5
25A
330
259
100
AcDbEntity
  8
1
  6
Continuous
 62
     2
100
AcDbLine
 10
-1278.69458571443
 20
-3.16693548387104
 30
0.0
 11
-1278.69458571443
 21
148.833064516129
 31
0.0
  0
LINE
  5
25B
330
259
100
AcDbEntity
  8
1
  6
Continuous
 62
     2
100
AcDbLine
 10
-1319.077923734074
 20
-3.16693548387104
 30
0.0
 11
-1277.69458571443
 21
-3.16693548387104
 31
0.0
  0
LINE
  5
25C
330
259
100
AcDbEntity
  8
1
  6
Continuous
 62
     2
100
AcDbLine
 10
-1461.778284624195
 20
148.833064516129
 30
0.0
 11
-1277.69458571443
 21
148.833064516129
 31
0.0
  0
LINE
  5
25D
330
259
100
AcDbEntity
  8
1
 62
     2
100
AcDbLine
 10
-1278.69458571443
 20
-3.16693548387104
 30
0.0
 11
-1281.374077638741
 21
6.83306451612896
 31
0.0
  0
LINE
  5
25E
330
259
100
AcDbEntity
  8
1
 62
     2
100
AcDbLine
 10
-1278.69458571443
 20
-3.16693548387104
 30
0.0
 11
-1276.015093790119
 21
6.83306451612896
 31
0.0
  0
LINE
  5
25F
330
259
100
AcDbEntity
  8
1
 62
     2
100
AcDbLine
 10
-1278.69458571443
 20
148.833064516129
 30
0.0
 11
-1276.015093790119
 21
138.833064516129
 31
0.0
  0
LINE
  5
260
330
259
100
AcDbEntity
  8
1
 62
     2
100
AcDbLine
 10
-1278.69458571443
 20
148.833064516129
 30
0.0
 11
-1281.374077638741
 21
138.833064516129
 31
0.0
  0
MTEXT
  5
261
330
259
100
AcDbEntity
  8
1
 62
     2
100
AcDbMText
 10
-1280.29458571443
 20
57.11467465045141
 30
0.0
 40
10.0
 41
0.0
 71
     7
 72
     1
  1
152
  7
CONVERTER_2
 11
0.0
 21
1.0
 31
0.0
 73
     1
 44
0.60024009603842
  0
ENDBLK
  5
263
330
259
100
AcDbEntity
  8
0
100
AcDbBlockEnd
  0
BLOCK
  5
26F
330
266
100
AcDbEntity
  8
0
100
AcDbBlockBegin
  2
*D337
 70
     1
 71
     0
 10
0.0
 20
0.0
 30
0.0
  3
*D337
  1

  0
LINE
  5
267
330
266
100
AcDbEntity
  8
1
  6
Continuous
 62
     2
100
AcDbLine
 10
-1301.5032023967
 20
-95.66693548387104
 30
0.0
 11
-1301.5032023967
 21
89.33306451612901
 31
0.0
  0
LINE
  5
268
330
266
100
AcDbEntity
  8
1
  6
Continuous
 62
     2
100
AcDbLine
 10
-1338.778284624195
 20
-95.66693548387104
 30
0.0
 11
-1300.5032023967
 21
-95.66693548387104
 31
0.0
  0
LINE
  5
269
330
266
100
AcDbEntity
  8
1
  6
Continuous
 62
     2
100
AcDbLine
 10
-1338.778284624195
 20
89.3330645161289
 30
0.0
 11
-1300.5032023967
 21
89.3330645161289
 31
0.0
  0
LINE
  5
26A
330
266
100
AcDbEntity
  8
1
 62
     2
100
AcDbLine
 10
-1301.5032023967
 20
-95.66693548387104
 30
0.0
 11
-1304.182694321011
 21
-85.66693548387104
 31
0.0
  0
LINE
  5
26B
330
266
100
AcDbEntity
  8
1
 62
     2
100
AcDbLine
 10
-1301.5032023967
 20
-95.66693548387104
 30
0.0
 11
-1298.823710472389
 21
-85.66693548387104
 31
0.0
  0
LINE
  5
26C
330
266
100
AcDbEntity
  8
1
 62
     2
100
AcDbLine
 10
-1301.5032023967
 20
89.333064516129
 30
0.0
 11
-1298.823710472389
 21
79.333064516129
 31
0.0
  0
LINE
  5
26D
330
266
100
AcDbEntity
  8
1
 62
     2
100
AcDbLine
 10
-1301.5032023967
 20
89.333064516129
 30
0.0
 11
-1304.182694321011
 21
79.333064516129
 31
0.0
  0
MTEXT
  5
26E
330
266
100
AcDbEntity
  8
1
 62
     2
100
AcDbMText
 10
-1303.1032023967
 20
-31.9814842646784
 30
0.0
 40
10.0
 41
0.0
 71
     7
 72
     1
  1
185
  7
CONVERTER_2
 11
0.0
 21
1.0
 31
0.0
 73
     1
 44
0.60024009603842
  0
ENDBLK
  5
270
330
266
100
AcDbEntity
  8
0
100
AcDbBlockEnd
  0
BLOCK
  5
27C
330
273
100
AcDbEntity
  8
0
100
AcDbBlockBegin
  2
*D438
 70
     1
 71
     0
 10
0.0
 20
0.0
 30
0.0
  3
*D438
  1

  0
LINE
  5
274
330
273
100
AcDbEntity
  8
1
  6
Continuous
 62
     2
100
AcDbLine
 10
-1634.778284624195
 20
-284.678421940253
 30
0.0
 11
-1336.778284624195
 21
-284.678421940253
 31
0.0
  0
LINE
  5
275
330
273
100
AcDbEntity
  8
1
  6
Continuous
 62
     2
100
AcDbLine
 10
-1634.778284624195
 20
-93.66693548387102
 30
0.0
 11
-1634.778284624195
 21
-285.678421940253
 31
0.0
  0
LINE
  5
276
330
273
100
AcDbEntity
  8
1
  6
Continuous
 62
     2
100
AcDbLine
 10
-1336.778284624195
 20
-93.66693548387102
 30
0.0
 11
-1336.778284624195
 21
-285.678421940253
 31
0.0
  0
LINE
  5
277
330
273
100
AcDbEntity
  8
1
 62
     2
100
AcDbLine
 10
-1634.778284624195
 20
-284.678421940253
 30
0.0
 11
-1624.778284624195
 21
-281.9989300159418
 31
0.0
  0
LINE
  5
278
330
273
100
AcDbEntity
  8
1
 62
     2
100
AcDbLine
 10
-1634.778284624195
 20
-284.678421940253
 30
0.0
 11
-1624.778284624195
 21
-287.3579138645642
 31
0.0
  0
LINE
  5
279
330
273
100
AcDbEntity
  8
1
 62
     2
100
AcDbLine
 10
-1336.778284624195
 20
-284.678421940253
 30
0.0
 11
-1346.778284624195
 21
-287.3579138645642
 31
0.0
  0
LINE
  5
27A
330
273
100
AcDbEntity
  8
1
 62
     2
100
AcDbLine
 10
-1336.778284624195
 20
-284.678421940253
 30
0.0
 11
-1346.778284624195
 21
-281.9989300159418
 31
0.0
  0
MTEXT
  5
27B
330
273
100
AcDbEntity
  8
1
 62
     2
100
AcDbMText
 10
-1492.78800085419
 20
-283.078421940253
 30
0.0
 40
10.0
 41
0.0
 71
     7
 72
     1
  1
298
  7
CONVERTER_2
 11
0.9999999999970621
 21
2.424068405545307E-6
 31
0.0
 73
     1
 44
0.60024009603842
  0
ENDBLK
  5
27D
330
273
100
AcDbEntity
  8
0
100
AcDbBlockEnd
  0
ENDSEC
  0
SECTION
  2
ENTITIES
  0
INSERT
  5
B2
330
1F
100
AcDbEntity
  8
0
100
AcDbBlockReference
  2
TOP__1
 10
-1118.58784759157
 20
-68.2428972359083
 30
0.0
  0
INSERT
  5
B3
330
1F
100
AcDbEntity
  8
0
100
AcDbBlockReference
  2
Top__3
 10
-223.0080948441549
 20
-0.00000000000009
 30
0.0
  0
INSERT
  5
B4
330
1F
100
AcDbEntity
  8
0
100
AcDbBlockReference
  2
Top__4
 10
121.694433568334
 20
-642.582105628333
 30
0.0
  0
INSERT
  5
B5
330
1F
100
AcDbEntity
  8
0
100
AcDbBlockReference
  2
Top__8
 10
-228.582859135512
 20
-31.559243732276
 30
0.0
  0
INSERT
  5
B6
330
1F
100
AcDbEntity
  8
1
100
AcDbBlockReference
  2
_2
 10
-1578.278284624195
 20
-249.738691069153
 30
0.0
  0
INSERT
  5
B7
330
1F
100
AcDbEntity
  8
0
100
AcDbBlockReference
  2
Top__30
 10
87.11560554591847
 20
-1284.340303803157
 30
0.0
  0
LINE
  5
1CB
330
1F
100
AcDbEntity
  8
1
  6
Continuous
 62
     7
100
AcDbLine
 10
-1559.19009417317
 20
-98.18624486376291
 30
0.0
 11
-1422.778284624195
 21
-98.18624486376291
 31
0.0
  0
LINE
  5
1CC
330
1F
100
AcDbEntity
  8
1
  6
Continuous
 62
     7
100
AcDbLine
 10
-1488.278284624195
 20
-88.16693548387104
 30
0.0
 11
-1483.278284624195
 21
-88.16693548387104
 31
0.0
  0
LINE
  5
1CD
330
1F
100
AcDbEntity
  8
1
  6
Continuous
 62
     7
100
AcDbLine
 10
-1483.278284624195
 20
-88.16693548387104
 30
0.0
 11
-1483.278284624195
 21
-85.16693548387109
 31
0.0
  0
LINE
  5
1CE
330
1F
100
AcDbEntity
  8
1
  6
Continuous
 62
     7
100
AcDbLine
 10
-1488.278284624195
 20
-85.16693548387109
 30
0.0
 11
-1488.278284624195
 21
-88.16693548387104
 31
0.0
  0
LINE
  5
1CF
330
1F
100
AcDbEntity
  8
1
  6
Continuous
 62
     7
100
AcDbLine
 10
-1462.778284624195
 20
-65.16693548387104
 30
0.0
 11
-1510.778284624195
 21
-65.16693548387104
 31
0.0
  0
LINE
  5
1D0
330
1F
100
AcDbEntity
  8
1
  6
Continuous
 62
     7
100
AcDbLine
 10
-1510.778284624195
 20
-65.16693548387104
 30
0.0
 11
-1510.778284624195
 21
-70.16693548387104
 31
0.0
  0
LINE
  5
1D1
330
1F
100
AcDbEntity
  8
1
  6
Continuous
 62
     7
100
AcDbLine
 10
-1462.778284624195
 20
-65.16693548387104
 30
0.0
 11
-1462.778284624195
 21
-62.66693548387104
 31
0.0
  0
LINE
  5
1D2
330
1F
100
AcDbEntity
  8
1
  6
Continuous
 62
     7
100
AcDbLine
 10
-1462.778284624195
 20
-62.66693548387104
 30
0.0
 11
-1450.778284624195
 21
-67.66693548387104
 31
0.0
  0
LINE
  5
1D3
330
1F
100
AcDbEntity
  8
1
  6
Continuous
 62
     7
100
AcDbLine
 10
-1450.778284624195
 20
-67.66693548387104
 30
0.0
 11
-1462.778284624195
 21
-72.66693548387104
 31
0.0
  0
LINE
  5
1D4
330
1F
100
AcDbEntity
  8
1
  6
Continuous
 62
     7
100
AcDbLine
 10
-1462.778284624195
 20
-72.66693548387104
 30
0.0
 11
-1462.778284624195
 21
-70.16693548387104
 31
0.0
  0
LINE
  5
1D5
330
1F
100
AcDbEntity
  8
1
  6
Continuous
 62
     7
100
AcDbLine
 10
-1510.778284624195
 20
-70.16693548387104
 30
0.0
 11
-1481.507041179518
 21
-70.16693548387104
 31
0.0
  0
LINE
  5
1D6
330
1F
100
AcDbEntity
  8
1
  6
Continuous
 62
     7
100
AcDbLine
 10
-1468.278284624195
 20
-70.16693548387104
 30
0.0
 11
-1462.778284624195
 21
-70.16693548387104
 31
0.0
  0
LINE
  5
1D7
330
1F
100
AcDbEntity
  8
WORKLAYER
  6
Continuous
 62
     7
100
AcDbLine
 10
-1465.689356424195
 20
47.58914521612891
 30
0.0
 11
-1488.929468724195
 21
16.07675501612911
 31
0.0
  0
LINE
  5
1D8
330
1F
100
AcDbEntity
  8
WORKLAYER
  6
Continuous
 62
     7
100
AcDbLine
 10
-1465.689356424195
 20
47.58914521612891
 30
0.0
 11
-1480.263666724195
 21
47.58914521612891
 31
0.0
  0
LINE
  5
1D9
330
1F
100
AcDbEntity
  8
WORKLAYER
  6
Continuous
 62
     7
100
AcDbLine
 10
-1502.716272924195
 20
16.07675501612911
 30
0.0
 11
-1488.929468724195
 21
16.07675501612911
 31
0.0
  0
LINE
  5
1DA
330
1F
100
AcDbEntity
  8
WORKLAYER
  6
Continuous
 62
     7
100
AcDbLine
 10
-1502.716272924195
 20
16.07675501612911
 30
0.0
 11
-1490.899073224195
 21
31.83306451612896
 31
0.0
  0
LINE
  5
1DB
330
1F
100
AcDbEntity
  8
WORKLAYER
  6
Continuous
 62
     7
100
AcDbLine
 10
-1485.778284624195
 20
31.83306451612896
 30
0.0
 11
-1490.899073224195
 21
31.83306451612896
 31
0.0
  0
LINE
  5
1DC
330
1F
100
AcDbEntity
  8
WORKLAYER
  6
Continuous
 62
     7
100
AcDbLine
 10
-1480.263666724195
 20
47.58914521612891
 30
0.0
 11
-1480.263666724195
 21
37.34756421612892
 31
0.0
  0
LINE
  5
1DD
330
1F
100
AcDbEntity
  8
WORKLAYER
  6
Continuous
 62
     7
100
AcDbLine
 10
-1506.261286324195
 20
47.58914521612891
 30
0.0
 11
-1492.080866424195
 21
31.83306451612896
 31
0.0
  0
LINE
  5
1DE
330
1F
100
AcDbEntity
  8
WORKLAYER
  6
Continuous
 62
     7
100
AcDbLine
 10
-1492.080866424195
 20
47.58914521612891
 30
0.0
 11
-1492.080866424195
 21
31.83306451612896
 31
0.0
  0
LINE
  5
1DF
330
1F
100
AcDbEntity
  8
WORKLAYER
  6
Continuous
 62
     7
100
AcDbLine
 10
-1506.261286324195
 20
47.58914521612891
 30
0.0
 11
-1492.080866424195
 21
47.58914521612891
 31
0.0
  0
LINE
  5
1E0
330
1F
100
AcDbEntity
  8
1
  6
DOT_CENTER
 62
     1
100
AcDbLine
 10
-1485.778284624195
 20
-135.0407648047561
 30
0.0
 11
-1485.778284624195
 21
195.6700833768299
 31
0.0
  0
LINE
  5
1E1
330
1F
100
AcDbEntity
  8
1
  6
Continuous
 62
     7
100
AcDbLine
 10
-1503.178284624195
 20
162.333064516129
 30
0.0
 11
-1468.378284624195
 21
162.333064516129
 31
0.0
  0
LINE
  5
1E2
330
1F
100
AcDbEntity
  8
1
  6
Continuous
 62
     7
100
AcDbLine
 10
-1469.878284624195
 20
153.333064516129
 30
0.0
 11
-1501.678284624195
 21
153.333064516129
 31
0.0
  0
LINE
  5
1E3
330
1F
100
AcDbEntity
  8
1
  6
Continuous
 62
     7
100
AcDbLine
 10
-1503.178284624195
 20
180.833064516129
 30
0.0
 11
-1503.178284624195
 21
162.333064516129
 31
0.0
  0
LINE
  5
1E4
330
1F
100
AcDbEntity
  8
1
  6
Continuous
 62
     7
100
AcDbLine
 10
-1503.178284624195
 20
162.333064516129
 30
0.0
 11
-1501.678284624195
 21
153.333064516129
 31
0.0
  0
LINE
  5
1E5
330
1F
100
AcDbEntity
  8
1
  6
Continuous
 62
     7
100
AcDbLine
 10
-1501.678284624195
 20
153.333064516129
 30
0.0
 11
-1503.178284624195
 21
153.333064516129
 31
0.0
  0
LINE
  5
1E6
330
1F
100
AcDbEntity
  8
1
  6
Continuous
 62
     7
100
AcDbLine
 10
-1508.778284624195
 20
148.833064516129
 30
0.0
 11
-1503.178284624195
 21
148.833064516129
 31
0.0
  0
LINE
  5
1E7
330
1F
100
AcDbEntity
  8
1
  6
Continuous
 62
     7
100
AcDbLine
 10
-1503.178284624195
 20
153.333064516129
 30
0.0
 11
-1503.178284624195
 21
148.833064516129
 31
0.0
  0
LINE
  5
1E8
330
1F
100
AcDbEntity
  8
1
  6
Continuous
 62
     7
100
AcDbLine
 10
-1503.178284624195
 20
148.833064516129
 30
0.0
 11
-1468.378284624195
 21
148.833064516129
 31
0.0
  0
LINE
  5
1E9
330
1F
100
AcDbEntity
  8
1
  6
Continuous
 62
     7
100
AcDbLine
 10
-1468.378284624195
 20
148.833064516129
 30
0.0
 11
-1468.378284624195
 21
153.333064516129
 31
0.0
  0
LINE
  5
1EA
330
1F
100
AcDbEntity
  8
1
  6
Continuous
 62
     7
100
AcDbLine
 10
-1468.378284624195
 20
153.333064516129
 30
0.0
 11
-1469.878284624195
 21
153.333064516129
 31
0.0
  0
LINE
  5
1EB
330
1F
100
AcDbEntity
  8
1
  6
Continuous
 62
     7
100
AcDbLine
 10
-1469.878284624195
 20
153.333064516129
 30
0.0
 11
-1468.378284624195
 21
162.333064516129
 31
0.0
  0
LINE
  5
1EC
330
1F
100
AcDbEntity
  8
1
  6
Continuous
 62
     7
100
AcDbLine
 10
-1468.378284624195
 20
162.333064516129
 30
0.0
 11
-1468.378284624195
 21
180.833064516129
 31
0.0
  0
LINE
  5
1ED
330
1F
100
AcDbEntity
  8
1
  6
Continuous
 62
     7
100
AcDbLine
 10
-1468.378284624195
 20
180.833064516129
 30
0.0
 11
-1503.178284624195
 21
180.833064516129
 31
0.0
  0
LINE
  5
1EE
330
1F
100
AcDbEntity
  8
1
  6
Continuous
 62
     7
100
AcDbLine
 10
-1468.378284624195
 20
148.833064516129
 30
0.0
 11
-1462.778284624195
 21
148.833064516129
 31
0.0
  0
LINE
  5
1EF
330
1F
100
AcDbEntity
  8
1
  6
Continuous
 62
     7
100
AcDbLine
 10
-1508.778284624195
 20
122.833064516129
 30
0.0
 11
-1508.778284624195
 21
148.833064516129
 31
0.0
  0
LINE
  5
1F0
330
1F
100
AcDbEntity
  8
1
  6
Continuous
 62
     7
100
AcDbLine
 10
-1462.778284624195
 20
148.833064516129
 30
0.0
 11
-1462.778284624195
 21
122.833064516129
 31
0.0
  0
LINE
  5
1F1
330
1F
100
AcDbEntity
  8
1
  6
Continuous
 62
     7
100
AcDbLine
 10
-1462.778284624195
 20
122.833064516129
 30
0.0
 11
-1508.778284624195
 21
122.833064516129
 31
0.0
  0
LINE
  5
1F2
330
1F
100
AcDbEntity
  8
1
  6
Continuous
 62
     7
100
AcDbLine
 10
-1536.903969729295
 20
81.83306451612896
 30
0.0
 11
-1510.396056117398
 21
81.83306451612896
 31
0.0
  0
LINE
  5
1F3
330
1F
100
AcDbEntity
  8
1
  6
Continuous
 62
     7
100
AcDbLine
 10
-1510.396056117398
 20
81.83306451612896
 30
0.0
 11
-1476.778284624195
 21
81.83306451612896
 31
0.0
  0
LINE
  5
1F4
330
1F
100
AcDbEntity
  8
1
  6
Continuous
 62
     7
100
AcDbLine
 10
-1466.778284624195
 20
122.833064516129
 30
0.0
 11
-1466.778284624195
 21
84.82397285559904
 31
0.0
  0
LINE
  5
1F5
330
1F
100
AcDbEntity
  8
1
  6
Continuous
 62
     7
100
AcDbLine
 10
-1510.396056117398
 20
81.83306451612896
 30
0.0
 11
-1509.778284624195
 21
81.83306451612896
 31
0.0
  0
LINE
  5
1F6
330
1F
100
AcDbEntity
  8
1
  6
Continuous
 62
     7
100
AcDbLine
 10
-1504.778284624195
 20
122.833064516129
 30
0.0
 11
-1504.778284624195
 21
86.83306451612896
 31
0.0
  0
LINE
  5
1F7
330
1F
100
AcDbEntity
  8
1
  6
Continuous
 62
     7
100
AcDbLine
 10
-1428.572994458073
 20
49.33306451612896
 30
0.0
 11
-1358.778284624195
 21
49.33306451612896
 31
0.0
  0
LINE
  5
1F8
330
1F
100
AcDbEntity
  8
1
  6
Continuous
 62
     7
100
AcDbLine
 10
-1551.778284624195
 20
-37.03336490558718
 30
0.0
 11
-1551.778284624195
 21
-60.66693548387104
 31
0.0
  0
LINE
  5
1F9
330
1F
100
AcDbEntity
  8
1
  6
Continuous
 62
     7
100
AcDbLine
 10
-1586.241379149544
 20
54.60576816938504
 30
0.0
 11
-1565.641476705299
 21
72.83306451612896
 31
0.0
  0
LINE
  5
1FA
330
1F
100
AcDbEntity
  8
1
  6
Continuous
 62
     7
100
AcDbLine
 10
-1612.778284624195
 20
86.33306451612893
 30
0.0
 11
-1612.778284624195
 21
49.33306451612896
 31
0.0
  0
LINE
  5
1FB
330
1F
100
AcDbEntity
  8
1
  6
Continuous
 62
     7
100
AcDbLine
 10
-1600.157274723373
 20
49.33306451612896
 30
0.0
 11
-1612.778284624195
 21
49.33306451612896
 31
0.0
  0
LINE
  5
1FC
330
1F
100
AcDbEntity
  8
1
  6
Continuous
 62
     7
100
AcDbLine
 10
-1612.778284624195
 20
-55.66693548387104
 30
0.0
 11
-1592.778284624195
 21
-50.7221085114121
 31
0.0
  0
LINE
  5
1FD
330
1F
100
AcDbEntity
  8
1
  6
Continuous
 62
     7
100
AcDbLine
 10
-1383.667212994282
 20
41.60058466884419
 30
0.0
 11
-1358.778284624195
 21
49.33306451612896
 31
0.0
  0
LINE
  5
1FE
330
1F
100
AcDbEntity
  8
1
  6
DOT_CENTER
 62
     1
100
AcDbLine
 10
-1320.077923734074
 20
-3.16693548387104
 30
0.0
 11
-1648.625770687507
 21
-3.16693548387104
 31
0.0
  0
LINE
  5
1FF
330
1F
100
AcDbEntity
  8
1
  6
Continuous
 62
     7
100
AcDbLine
 10
-1358.778284624195
 20
-55.66693548387104
 30
0.0
 11
-1358.778284624195
 21
49.33306451612896
 31
0.0
  0
LINE
  5
200
330
1F
100
AcDbEntity
  8
1
  6
Continuous
 62
     7
100
AcDbLine
 10
-1358.778284624195
 20
-92.66693548387106
 30
0.0
 11
-1358.778284624195
 21
-55.66693548387104
 31
0.0
  0
LINE
  5
201
330
1F
100
AcDbEntity
  8
1
  6
Continuous
 62
     7
100
AcDbLine
 10
-1358.778284624195
 20
-55.66693548387104
 30
0.0
 11
-1374.778284624195
 21
-55.66693548387104
 31
0.0
  0
LINE
  5
202
330
1F
100
AcDbEntity
  8
1
  6
Continuous
 62
     7
100
AcDbLine
 10
-1393.778284624195
 20
-108.166935483871
 30
0.0
 11
-1393.778284624195
 21
-118.166935483871
 31
0.0
  0
LINE
  5
203
330
1F
100
AcDbEntity
  8
1
  6
Continuous
 62
     7
100
AcDbLine
 10
-1385.778284624195
 20
-66.66693548387104
 30
0.0
 11
-1385.778284624195
 21
-100.166935483871
 31
0.0
  0
LINE
  5
204
330
1F
100
AcDbEntity
  8
1
  6
Continuous
 62
     7
100
AcDbLine
 10
-1612.778284624195
 20
49.33306451612896
 30
0.0
 11
-1612.778284624195
 21
-55.66693548387104
 31
0.0
  0
LINE
  5
205
330
1F
100
AcDbEntity
  8
1
  6
Continuous
 62
     7
100
AcDbLine
 10
-1556.778284624195
 20
-55.66693548387104
 30
0.0
 11
-1612.778284624195
 21
-55.66693548387104
 31
0.0
  0
LINE
  5
206
330
1F
100
AcDbEntity
  8
1
  6
Continuous
 62
     7
100
AcDbLine
 10
-1551.778284624195
 20
-60.66693548387104
 30
0.0
 11
-1551.778284624195
 21
-88.52698660087219
 31
0.0
  0
LINE
  5
207
330
1F
100
AcDbEntity
  8
1
  6
Continuous
 62
     7
100
AcDbLine
 10
-1559.19009417317
 20
-98.18624486376291
 30
0.0
 11
-1575.554741759503
 21
-102.5711389689407
 31
0.0
  0
LINE
  5
208
330
1F
100
AcDbEntity
  8
1
  6
Continuous
 62
     7
100
AcDbLine
 10
-1577.778284624195
 20
-105.4689164478078
 30
0.0
 11
-1577.778284624195
 21
-118.166935483871
 31
0.0
  0
LINE
  5
209
330
1F
100
AcDbEntity
  8
1
  6
Continuous
 62
     7
100
AcDbLine
 10
-1574.778284624195
 20
-121.166935483871
 30
0.0
 11
-1548.778284624195
 21
-121.166935483871
 31
0.0
  0
LINE
  5
20A
330
1F
100
AcDbEntity
  8
1
  6
Continuous
 62
     7
100
AcDbLine
 10
-1396.778284624195
 20
-121.166935483871
 30
0.0
 11
-1422.778284624195
 21
-121.166935483871
 31
0.0
  0
LINE
  5
20B
330
1F
100
AcDbEntity
  8
1
  6
Continuous
 62
     7
100
AcDbLine
 10
-1422.778284624195
 20
-121.166935483871
 30
0.0
 11
-1422.778284624195
 21
-123.666935483871
 31
0.0
  0
LINE
  5
20C
330
1F
100
AcDbEntity
  8
1
  6
Continuous
 62
     7
100
AcDbLine
 10
-1422.778284624195
 20
-123.666935483871
 30
0.0
 11
-1548.778284624195
 21
-123.666935483871
 31
0.0
  0
LINE
  5
20D
330
1F
100
AcDbEntity
  8
1
  6
Continuous
 62
     7
100
AcDbLine
 10
-1548.778284624195
 20
-123.666935483871
 30
0.0
 11
-1548.778284624195
 21
-121.166935483871
 31
0.0
  0
LINE
  5
20E
330
1F
100
AcDbEntity
  8
1
  6
Continuous
 62
     7
100
AcDbLine
 10
-1634.778284624195
 20
-92.66693548387104
 30
0.0
 11
-1634.778284624195
 21
86.33306451612896
 31
0.0
  0
LINE
  5
20F
330
1F
100
AcDbEntity
  8
1
  6
Continuous
 62
     7
100
AcDbLine
 10
-1631.778284624195
 20
89.33306451612893
 30
0.0
 11
-1615.778284624195
 21
89.33306451612896
 31
0.0
  0
LINE
  5
210
330
1F
100
AcDbEntity
  8
1
  6
Continuous
 62
     7
100
AcDbLine
 10
-1612.778284624195
 20
-55.66693548387104
 30
0.0
 11
-1612.778284624195
 21
-92.66693548387106
 31
0.0
  0
LINE
  5
211
330
1F
100
AcDbEntity
  8
1
  6
Continuous
 62
     7
100
AcDbLine
 10
-1615.778284624195
 20
-95.66693548387104
 30
0.0
 11
-1631.778284624195
 21
-95.66693548387104
 31
0.0
  0
LINE
  5
212
330
1F
100
AcDbEntity
  8
1
  6
Continuous
 62
     7
100
AcDbLine
 10
-1358.778284624195
 20
49.33306451612896
 30
0.0
 11
-1358.778284624195
 21
86.33306451612894
 31
0.0
  0
LINE
  5
213
330
1F
100
AcDbEntity
  8
1
  6
Continuous
 62
     7
100
AcDbLine
 10
-1355.778284624195
 20
89.33306451612894
 30
0.0
 11
-1339.778284624195
 21
89.33306451612894
 31
0.0
  0
LINE
  5
214
330
1F
100
AcDbEntity
  8
1
  6
Continuous
 62
     7
100
AcDbLine
 10
-1336.778284624195
 20
86.33306451612894
 30
0.0
 11
-1336.778284624195
 21
-92.66693548387106
 31
0.0
  0
LINE
  5
215
330
1F
100
AcDbEntity
  8
1
  6
Continuous
 62
     7
100
AcDbLine
 10
-1339.778284624195
 20
-95.66693548387104
 30
0.0
 11
-1355.778284624195
 21
-95.66693548387104
 31
0.0
  0
ARC
  5
216
330
1F
100
AcDbEntity
  8
1
  6
Continuous
 62
     7
100
AcDbCircle
 10
-1468.278284624195
 20
-85.16693548387109
 30
0.0
 40
15.00000000000004
100
AcDbArc
 50
90.0
 51
180.0
  0
ARC
  5
217
330
1F
100
AcDbEntity
  8
1
  6
Continuous
 62
     7
100
AcDbCircle
 10
-1468.278284624195
 20
-85.16693548387109
 30
0.0
 40
19.99999999999999
100
AcDbArc
 50
131.4096221092707
 51
180.0
  0
ARC
  5
218
330
1F
100
AcDbEntity
  8
WORKLAYER
  6
Continuous
 62
     7
100
AcDbCircle
 10
-1485.778284624195
 20
37.34756421612892
 30
0.0
 40
5.514639900000024
100
AcDbArc
 50
-90.0
 51
0.0
  0
ARC
  5
219
330
1F
100
AcDbEntity
  8
1
  6
Continuous
 62
     7
100
AcDbCircle
 10
-1461.778284624195
 20
84.82397285559904
 30
0.0
 40
5.0
100
AcDbArc
 50
180.0
 51
-105.2575232904533
  0
ARC
  5
21A
330
1F
100
AcDbEntity
  8
1
  6
Continuous
 62
     7
100
AcDbCircle
 10
-1509.778284624195
 20
86.83306451612896
 30
0.0
 40
5.0
100
AcDbArc
 50
-90.0
 51
0.0
  0
ARC
  5
21B
330
1F
100
AcDbEntity
  8
1
  6
Continuous
 62
     7
100
AcDbCircle
 10
-1355.778284624195
 20
-48.16693548387104
 30
0.0
 40
93.99999999999986
100
AcDbArc
 50
107.2589485129283
 51
124.8550935086924
  0
ARC
  5
21C
330
1F
100
AcDbEntity
  8
1
  6
Continuous
 62
     7
100
AcDbCircle
 10
-1415.214585238168
 20
37.17546997394004
 30
0.0
 40
9.999999999999936
100
AcDbArc
 50
-173.1987348212065
 51
-55.14490649130637
  0
ARC
  5
21D
330
1F
100
AcDbEntity
  8
1
  6
Continuous
 62
     7
100
AcDbCircle
 10
-1536.903969729295
 20
32.83306451612896
 30
0.0
 40
49.0
100
AcDbArc
 50
90.0
 51
131.5031860173238
  0
ARC
  5
21E
330
1F
100
AcDbEntity
  8
1
  6
Continuous
 62
     7
100
AcDbCircle
 10
-1606.108104204892
 20
-3.16693548387104
 30
0.0
 40
49.38804077641976
100
AcDbArc
 50
-74.34169885336512
 51
-36.16626475383616
  0
ARC
  5
21F
330
1F
100
AcDbEntity
  8
1
  6
Continuous
 62
     7
100
AcDbCircle
 10
-1559.778284624195
 20
-37.03336490558718
 30
0.0
 40
8.0
100
AcDbArc
 50
0.0
 51
143.8337352461645
  0
ARC
  5
220
330
1F
100
AcDbEntity
  8
1
  6
Continuous
 62
     7
100
AcDbCircle
 10
-1476.778284624195
 20
29.83306451612896
 30
0.0
 40
52.00000000000008
100
AcDbArc
 50
74.74247670954334
 51
90.0
  0
ARC
  5
221
330
1F
100
AcDbEntity
  8
1
  6
Continuous
 62
     7
100
AcDbCircle
 10
-1476.778284624195
 20
29.83306451612896
 30
0.0
 40
52.00000000000021
100
AcDbArc
 50
22.02431283704206
 51
74.74247670954334
  0
ARC
  5
222
330
1F
100
AcDbEntity
  8
1
  6
Continuous
 62
     7
100
AcDbCircle
 10
-1476.778284624195
 20
29.83306451612896
 30
0.0
 40
52.00000000000014
100
AcDbArc
 50
6.80126517879357
 51
22.02431283704206
  0
ARC
  5
223
330
1F
100
AcDbEntity
  8
1
  6
Continuous
 62
     7
100
AcDbCircle
 10
-1600.157274723373
 20
70.33306451612896
 30
0.0
 40
21.0
100
AcDbArc
 50
-90.0
 51
-48.49681398267441
  0
ARC
  5
224
330
1F
100
AcDbEntity
  8
1
  6
Continuous
 62
     7
100
AcDbCircle
 10
-1631.778284624195
 20
86.33306451612896
 30
0.0
 40
2.999999999999972
100
AcDbArc
 50
90.0
 51
-179.9999999999997
  0
ARC
  5
225
330
1F
100
AcDbEntity
  8
1
  6
Continuous
 62
     7
100
AcDbCircle
 10
-1615.778284624195
 20
86.33306451612893
 30
0.0
 40
3.0
100
AcDbArc
 50
0.0
 51
90.0
  0
ARC
  5
226
330
1F
100
AcDbEntity
  8
1
  6
Continuous
 62
     7
100
AcDbCircle
 10
-1631.778284624195
 20
-92.66693548387104
 30
0.0
 40
3.0
100
AcDbArc
 50
180.0
 51
-90.0
  0
ARC
  5
227
330
1F
100
AcDbEntity
  8
1
  6
Continuous
 62
     7
100
AcDbCircle
 10
-1615.778284624195
 20
-92.66693548387106
 30
0.0
 40
2.999999999999986
100
AcDbArc
 50
-90.0
 51
0.0
  0
ARC
  5
228
330
1F
100
AcDbEntity
  8
1
  6
Continuous
 62
     7
100
AcDbCircle
 10
-1355.778284624195
 20
86.33306451612894
 30
0.0
 40
3.0
100
AcDbArc
 50
90.0
 51
180.0
  0
ARC
  5
229
330
1F
100
AcDbEntity
  8
1
  6
Continuous
 62
     7
100
AcDbCircle
 10
-1339.778284624195
 20
86.33306451612896
 30
0.0
 40
3.0
100
AcDbArc
 50
-0.00000000000027
 51
90.0
  0
ARC
  5
22A
330
1F
100
AcDbEntity
  8
1
  6
Continuous
 62
     7
100
AcDbCircle
 10
-1339.778284624195
 20
-92.66693548387106
 30
0.0
 40
2.999999999999986
100
AcDbArc
 50
-90.0
 51
0.0
  0
ARC
  5
22B
330
1F
100
AcDbEntity
  8
1
  6
Continuous
 62
     7
100
AcDbCircle
 10
-1355.778284624195
 20
-92.66693548387106
 30
0.0
 40
3.0
100
AcDbArc
 50
180.0
 51
-90.0
  0
ARC
  5
22C
330
1F
100
AcDbEntity
  8
1
  6
Continuous
 62
     7
100
AcDbCircle
 10
-1374.778284624195
 20
-66.66693548387104
 30
0.0
 40
11.0
100
AcDbArc
 50
90.0
 51
180.0
  0
ARC
  5
22D
330
1F
100
AcDbEntity
  8
1
  6
Continuous
 62
     7
100
AcDbCircle
 10
-1388.778284624195
 20
-100.166935483871
 30
0.0
 40
3.0
100
AcDbArc
 50
-90.0
 51
0.0
  0
ARC
  5
22E
330
1F
100
AcDbEntity
  8
1
  6
Continuous
 62
     7
100
AcDbCircle
 10
-1396.778284624195
 20
-118.166935483871
 30
0.0
 40
3.0
100
AcDbArc
 50
-90.0
 51
0.0
  0
ARC
  5
22F
330
1F
100
AcDbEntity
  8
1
  6
Continuous
 62
     7
100
AcDbCircle
 10
-1388.778284624195
 20
-108.166935483871
 30
0.0
 40
5.0
100
AcDbArc
 50
90.0
 51
180.0
  0
ARC
  5
230
330
1F
100
AcDbEntity
  8
1
  6
Continuous
 62
     7
100
AcDbCircle
 10
-1556.778284624195
 20
-60.66693548387104
 30
0.0
 40
5.0
100
AcDbArc
 50
0.0
 51
90.0
  0
ARC
  5
231
330
1F
100
AcDbEntity
  8
1
  6
Continuous
 62
     7
100
AcDbCircle
 10
-1561.778284624195
 20
-88.52698660087219
 30
0.0
 40
9.999999999999968
100
AcDbArc
 50
-75.00000000000144
 51
0.0
  0
ARC
  5
232
330
1F
100
AcDbEntity
  8
1
  6
Continuous
 62
     7
100
AcDbCircle
 10
-1574.778284624195
 20
-105.4689164478078
 30
0.0
 40
3.000000000000001
100
AcDbArc
 50
105.0000000000079
 51
180.0
  0
ARC
  5
233
330
1F
100
AcDbEntity
  8
1
  6
Continuous
 62
     7
100
AcDbCircle
 10
-1574.778284624195
 20
-118.166935483871
 30
0.0
 40
3.0
100
AcDbArc
 50
180.0
 51
-90.0
  0
MTEXT
  5
234
330
1F
100
AcDbEntity
  8
1
 62
     7
100
AcDbMText
 10
-1485.778284624195
 20
-103.166935483871
 30
0.0
 40
15.0
 41
0.0
 71
     2
 72
     1
  1
10K
  7
CONVERTER_1
 73
     1
 44
0.84033613445378
  0
MTEXT
  5
235
330
1F
100
AcDbEntity
  8
1
 62
     7
100
AcDbMText
 10
-1485.778284624195
 20
-38.16693548387104
 30
0.0
 40
30.0
 41
0.0
 71
     5
 72
     1
  1
3
  7
CONVERTER_1
 73
     1
 44
0.84033613445378
  0
MTEXT
  5
236
330
1F
100
AcDbEntity
  8
1
 62
     7
100
AcDbMText
 10
-1405.210460422584
 20
-3.16693548387104
 30
0.0
 40
18.0
 41
0.0
 71
     1
 72
     1
  1
AB
  7
CONVERTER_1
 73
     1
 44
0.84033613445378
  0
MTEXT
  5
237
330
1F
100
AcDbEntity
  8
1
 62
     7
100
AcDbMText
 10
-1595.296037249171
 20
-3.16693548387104
 30
0.0
 40
18.0
 41
0.0
 71
     8
 72
     1
  1
A
  7
CONVERTER_1
 73
     1
 44
0.84033613445378
  0
DIMENSION
  5
24B
330
1F
100
AcDbEntity
  8
1
100
AcDbDimension
  2
*D033
 10
-1278.81047443752
 20
-3.16693548387099
 30
0.0
 11
-1285.41047443752
 21
-130.2311379132099
 31
0.0
  1
<>
 71
     5
 42
0.0
 53
90.0
  3
ME10_DIM_0
100
AcDbAlignedDimension
 13
-1393.278284624195
 23
-243.166935483871
 33
0.0
 14
-1320.077923734074
 24
-3.16693548387104
 34
0.0
 50
90.0
100
AcDbRotatedDimension
  0
DIMENSION
  5
258
330
1F
100
AcDbEntity
  8
1
100
AcDbDimension
  2
*D135
 10
-1278.75596110821
 20
148.8330645161291
 30
0.0
 11
-1285.35596110821
 21
202.6748941649829
 31
0.0
  1
<>
 71
     5
 42
0.0
 53
90.0
  3
ME10_DIM_1
100
AcDbAlignedDimension
 13
-1482.228174724195
 23
255.833064516129
 33
0.0
 14
-1462.778284624195
 24
148.833064516129
 34
0.0
 50
90.0
100
AcDbRotatedDimension
  0
DIMENSION
  5
265
330
1F
100
AcDbEntity
  8
1
100
AcDbDimension
  2
*D236
 10
-1278.69458571443
 20
-3.16693548387104
 30
0.0
 11
-1285.29458571443
 21
67.61467465045141
 31
0.0
  1
<>
 71
     5
 42
0.0
 53
90.0
  3
ME10_DIM_2
100
AcDbAlignedDimension
 13
-1462.778284624195
 23
148.833064516129
 33
0.0
 14
-1320.077923734074
 24
-3.16693548387104
 34
0.0
 50
90.0
100
AcDbRotatedDimension
  0
DIMENSION
  5
272
330
1F
100
AcDbEntity
  8
1
100
AcDbDimension
  2
*D337
 10
-1301.5032023967
 20
-95.66693548387104
 30
0.0
 11
-1308.1032023967
 21
-21.4814842646784
 31
0.0
  1
<>
 71
     5
 42
0.0
 53
90.0
  3
ME10_DIM_3
100
AcDbAlignedDimension
 13
-1339.778284624195
 23
89.33306451612894
 33
0.0
 14
-1339.778284624195
 24
-95.66693548387104
 34
0.0
 50
90.0
100
AcDbRotatedDimension
  0
DIMENSION
  5
27F
330
1F
100
AcDbEntity
  8
1
100
AcDbDimension
  2
*D438
 10
-1634.778284624195
 20
-284.678421940253
 30
0.0
 11
-1480.78800085419
 21
-278.078421940253
 31
0.0
  1
<>
 71
     5
 42
0.0
 53
0.00013888888889
  3
ME10_DIM_4
100
AcDbAlignedDimension
 13
-1336.778284624195
 23
-92.66693548387106
 33
0.0
 14
-1634.778284624195
 24
-92.66693548387104
 34
0.0
100
AcDbRotatedDimension
  0
ENDSEC
  0
SECTION
  2
OBJECTS
  0
DICTIONARY
  5
C
330
0
100
AcDbDictionary
281
     1
  3
ACAD_GROUP
350
D
  3
ACAD_LAYOUT
350
1A
  3
ACAD_MLINESTYLE
350
17
  3
ACAD_PLOTSETTINGS
350
19
  3
ACAD_PLOTSTYLENAME
350
E
  3
ACAD_TABLESTYLE
350
2A
  3
AcDbVariableDictionary
350
2C
  0
DICTIONARY
  5
D
102
{ACAD_REACTORS
330
C
102
}
330
C
100
AcDbDictionary
281
     1
  0
DICTIONARY
  5
1A
102
{ACAD_REACTORS
330
C
102
}
330
C
100
AcDbDictionary
281
     1
  3
Layout1
350
1E
  3
Layout2
350
26
  3
Model
350
22
  0
DICTIONARY
  5
17
102
{ACAD_REACTORS
330
C
102
}
330
C
100
AcDbDictionary
281
     1
  3
Standard
350
18
  0
DICTIONARY
  5
19
102
{ACAD_REACTORS
330
C
102
}
330
C
100
AcDbDictionary
281
     1
  0
ACDBDICTIONARYWDFLT
  5
E
102
{ACAD_REACTORS
330
C
102
}
330
C
100
AcDbDictionary
281
     1
  3
Normal
350
F
100
AcDbDictionaryWithDefault
340
F
  0
DICTIONARY
  5
2A
102
{ACAD_REACTORS
330
C
102
}
330
C
100
AcDbDictionary
281
     1
  3
Standard
350
2B
  0
DICTIONARY
  5
2C
102
{ACAD_REACTORS
330
C
102
}
330
C
100
AcDbDictionary
281
     1
  3
CTABLESTYLE
350
2D
  0
LAYOUT
  5
1E
102
{ACAD_REACTORS
330
1A
102
}
330
1A
100
AcDbPlotSettings
  1

  2

  4

  6

 40
0.0
 41
0.0
 42
0.0
 43
0.0
 44
0.0
 45
0.0
 46
0.0
 47
0.0
 48
0.0
 49
0.0
140
0.0
141
0.0
142
1.0
143
1.0
 70
   688
 72
     0
 73
     0
 74
     5
  7

 75
    16
147
1.0
148
0.0
149
0.0
100
AcDbLayout
  1
Layout1
 70
     1
 71
     1
 10
0.0
 20
0.0
 11
12.0
 21
9.0
 12
0.0
 22
0.0
 32
0.0
 14
1.00000000000000E+20
 24
1.00000000000000E+20
 34
1.00000000000000E+20
 15
-1.00000000000000E+20
 25
-1.00000000000000E+20
 35
-1.00000000000000E+20
146
0.0
 13
0.0
 23
0.0
 33
0.0
 16
1.0
 26
0.0
 36
0.0
 17
0.0
 27
1.0
 37
0.0
 76
     0
330
1B
  0
LAYOUT
  5
26
102
{ACAD_REACTORS
330
1A
102
}
330
1A
100
AcDbPlotSettings
  1

  2

  4

  6

 40
0.0
 41
0.0
 42
0.0
 43
0.0
 44
0.0
 45
0.0
 46
0.0
 47
0.0
 48
0.0
 49
0.0
140
0.0
141
0.0
142
1.0
143
1.0
 70
   688
 72
     0
 73
     0
 74
     5
  7

 75
    16
147
1.0
148
0.0
149
0.0
100
AcDbLayout
  1
Layout2
 70
     1
 71
     2
 10
0.0
 20
0.0
 11
0.0
 21
0.0
 12
0.0
 22
0.0
 32
0.0
 14
0.0
 24
0.0
 34
0.0
 15
0.0
 25
0.0
 35
0.0
146
0.0
 13
0.0
 23
0.0
 33
0.0
 16
1.0
 26
0.0
 36
0.0
 17
0.0
 27
1.0
 37
0.0
 76
     0
330
23
  0
LAYOUT
  5
22
102
{ACAD_REACTORS
330
1A
102
}
330
1A
100
AcDbPlotSettings
  1

  2

  4

  6

 40
0.0
 41
0.0
 42
0.0
 43
0.0
 44
0.0
 45
0.0
 46
0.0
 47
0.0
 48
0.0
 49
0.0
140
0.0
141
0.0
142
1.0
143
1.0
 70
  1712
 72
     0
 73
     0
 74
     0
  7

 75
     0
147
1.0
148
0.0
149
0.0
100
AcDbLayout
  1
Model
 70
     1
 71
     0
 10
0.0
 20
0.0
 11
0.0
 21
0.0
 12
0.0
 22
0.0
 32
0.0
 14
-1648.625770687507
 24
-287.3579138645642
 34
0.0
 15
-1276.015093790119
 25
257.908992216129
 35
0.0
146
0.0
 13
0.0
 23
0.0
 33
0.0
 16
1.0
 26
0.0
 36
0.0
 17
0.0
 27
1.0
 37
0.0
 76
     0
330
1F
  0
MLINESTYLE
  5
18
102
{ACAD_REACTORS
330
17
102
}
330
17
100
AcDbMlineStyle
  2
Standard
 70
     0
  3

 62
   256
 51
90.0
 52
90.0
 71
     2
 49
0.5
 62
   256
  6
BYLAYER
 49
-0.5
 62
   256
  6
BYLAYER
  0
ACDBPLACEHOLDER
  5
F
102
{ACAD_REACTORS
330
E
102
}
330
E
  0
TABLESTYLE
  5
2B
102
{ACAD_REACTORS
330
2A
102
}
330
2A
100
AcDbTableStyle
  3
Standard
 70
     0
 71
     0
 40
0.06
 41
0.06
280
     0
281
     0
  7
Standard
140
0.18
170
     2
 62
     0
 63
     7
283
     0
274
    -2
284
     1
 64
     0
275
    -2
285
     1
 65
     0
276
    -2
286
     1
 66
     0
277
    -2
287
     1
 67
     0
278
    -2
288
     1
 68
     0
279
    -2
289
     1
 69
     0
  7
Standard
140
0.25
170
     5
 62
     0
 63
     7
283
     0
274
    -2
284
     1
 64
     0
275
    -2
285
     1
 65
     0
276
    -2
286
     1
 66
     0
277
    -2
287
     1
 67
     0
278
    -2
288
     1
 68
     0
279
    -2
289
     1
 69
     0
  7
Standard
140
0.18
170
     5
 62
     0
 63
     7
283
     0
274
    -2
284
     1
 64
     0
275
    -2
285
     1
 65
     0
276
    -2
286
     1
 66
     0
277
    -2
287
     1
 67
     0
278
    -2
288
     1
 68
     0
279
    -2
289
     1
 69
     0
  0
DICTIONARYVAR
  5
2D
102
{ACAD_REACTORS
330
2C
102
}
330
2C
100
DictionaryVariables
280
     0
  1
Standard
  0
ENDSEC
  0
EOF
