  0
SECTION
  2
HEADER
  9
$ACADVER
  1
AC1015
  9
$ACADMAINTVER
 70
     6
  9
$DWGCODEPAGE
  3
ANSI_1252
  9
$INSBASE
 10
0.0
 20
0.0
 30
0.0
  9
$EXTMIN
 10
-368.680695421575
 20
-892.9356250934981
 30
0.0
  9
$EXTMAX
 10
-45.16992015252797
 20
-700.972188691967
 30
0.0
  9
$LIMMIN
 10
0.0
 20
0.0
  9
$LIMMAX
 10
12.0
 20
9.0
  9
$ORTHOMODE
 70
     0
  9
$REGENMODE
 70
     1
  9
$FILLMODE
 70
     1
  9
$QTEXTMODE
 70
     0
  9
$MIRRTEXT
 70
     1
  9
$LTSCALE
 40
1.0
  9
$ATTMODE
 70
     1
  9
$TEXTSIZE
 40
0.2
  9
$TRACEWID
 40
0.05
  9
$TEXTSTYLE
  7
Standard
  9
$CLAYER
  8
0
  9
$CELTYPE
  6
ByLayer
  9
$CECOLOR
 62
   256
  9
$CELTSCALE
 40
1.0
  9
$DISPSILH
 70
     0
  9
$DIMSCALE
 40
1.0
  9
$DIMASZ
 40
0.18
  9
$DIMEXO
 40
0.0625
  9
$DIMDLI
 40
0.38
  9
$DIMRND
 40
0.0
  9
$DIMDLE
 40
0.0
  9
$DIMEXE
 40
0.18
  9
$DIMTP
 40
0.0
  9
$DIMTM
 40
0.0
  9
$DIMTXT
 40
0.18
  9
$DIMCEN
 40
0.09
  9
$DIMTSZ
 40
0.0
  9
$DIMTOL
 70
     0
  9
$DIMLIM
 70
     0
  9
$DIMTIH
 70
     1
  9
$DIMTOH
 70
     1
  9
$DIMSE1
 70
     0
  9
$DIMSE2
 70
     0
  9
$DIMTAD
 70
     0
  9
$DIMZIN
 70
     0
  9
$DIMBLK
  1

  9
$DIMASO
 70
     1
  9
$DIMSHO
 70
     1
  9
$DIMPOST
  1

  9
$DIMAPOST
  1

  9
$DIMALT
 70
     0
  9
$DIMALTD
 70
     2
  9
$DIMALTF
 40
25.4
  9
$DIMLFAC
 40
1.0
  9
$DIMTOFL
 70
     0
  9
$DIMTVP
 40
0.0
  9
$DIMTIX
 70
     0
  9
$DIMSOXD
 70
     0
  9
$DIMSAH
 70
     0
  9
$DIMBLK1
  1

  9
$DIMBLK2
  1

  9
$DIMSTYLE
  2
Standard
  9
$DIMCLRD
 70
     0
  9
$DIMCLRE
 70
     0
  9
$DIMCLRT
 70
     0
  9
$DIMTFAC
 40
1.0
  9
$DIMGAP
 40
0.09
  9
$DIMJUST
 70
     0
  9
$DIMSD1
 70
     0
  9
$DIMSD2
 70
     0
  9
$DIMTOLJ
 70
     1
  9
$DIMTZIN
 70
     0
  9
$DIMALTZ
 70
     0
  9
$DIMALTTZ
 70
     0
  9
$DIMUPT
 70
     0
  9
$DIMDEC
 70
     4
  9
$DIMTDEC
 70
     4
  9
$DIMALTU
 70
     2
  9
$DIMALTTD
 70
     2
  9
$DIMTXSTY
  7
Standard
  9
$DIMAUNIT
 70
     0
  9
$DIMADEC
 70
     0
  9
$DIMALTRND
 40
0.0
  9
$DIMAZIN
 70
     0
  9
$DIMDSEP
 70
    46
  9
$DIMATFIT
 70
     3
  9
$DIMFRAC
 70
     0
  9
$DIMLDRBLK
  1

  9
$DIMLUNIT
 70
     2
  9
$DIMLWD
 70
    -2
  9
$DIMLWE
 70
    -2
  9
$DIMTMOVE
 70
     0
  9
$LUNITS
 70
     2
  9
$LUPREC
 70
     4
  9
$SKETCHINC
 40
0.1
  9
$FILLETRAD
 40
0.5
  9
$AUNITS
 70
     0
  9
$AUPREC
 70
     0
  9
$MENU
  1
.
  9
$ELEVATION
 40
0.0
  9
$PELEVATION
 40
0.0
  9
$THICKNESS
 40
0.0
  9
$LIMCHECK
 70
     0
  9
$CHAMFERA
 40
0.5
  9
$CHAMFERB
 40
0.5
  9
$CHAMFERC
 40
1.0
  9
$CHAMFERD
 40
0.0
  9
$SKPOLY
 70
     0
  9
$TDCREATE
 40
2455063.685356076
  9
$TDUCREATE
 40
2455063.310356076
  9
$TDUPDATE
 40
2455063.685356088
  9
$TDUUPDATE
 40
2455063.310356088
  9
$TDINDWG
 40
0.0000000116
  9
$TDUSRTIMER
 40
0.0000000116
  9
$USRTIMER
 70
     1
  9
$ANGBASE
 50
0.0
  9
$ANGDIR
 70
     0
  9
$PDMODE
 70
     0
  9
$PDSIZE
 40
0.0
  9
$PLINEWID
 40
0.0
  9
$SPLFRAME
 70
     0
  9
$SPLINETYPE
 70
     6
  9
$SPLINESEGS
 70
     8
  9
$HANDSEED
  5
2BD
  9
$SURFTAB1
 70
     6
  9
$SURFTAB2
 70
     6
  9
$SURFTYPE
 70
     6
  9
$SURFU
 70
     6
  9
$SURFV
 70
     6
  9
$UCSBASE
  2

  9
$UCSNAME
  2

  9
$UCSORG
 10
0.0
 20
0.0
 30
0.0
  9
$UCSXDIR
 10
1.0
 20
0.0
 30
0.0
  9
$UCSYDIR
 10
0.0
 20
1.0
 30
0.0
  9
$UCSORTHOREF
  2

  9
$UCSORTHOVIEW
 70
     0
  9
$UCSORGTOP
 10
0.0
 20
0.0
 30
0.0
  9
$UCSORGBOTTOM
 10
0.0
 20
0.0
 30
0.0
  9
$UCSORGLEFT
 10
0.0
 20
0.0
 30
0.0
  9
$UCSORGRIGHT
 10
0.0
 20
0.0
 30
0.0
  9
$UCSORGFRONT
 10
0.0
 20
0.0
 30
0.0
  9
$UCSORGBACK
 10
0.0
 20
0.0
 30
0.0
  9
$PUCSBASE
  2

  9
$PUCSNAME
  2

  9
$PUCSORG
 10
0.0
 20
0.0
 30
0.0
  9
$PUCSXDIR
 10
1.0
 20
0.0
 30
0.0
  9
$PUCSYDIR
 10
0.0
 20
1.0
 30
0.0
  9
$PUCSORTHOREF
  2

  9
$PUCSORTHOVIEW
 70
     0
  9
$PUCSORGTOP
 10
0.0
 20
0.0
 30
0.0
  9
$PUCSORGBOTTOM
 10
0.0
 20
0.0
 30
0.0
  9
$PUCSORGLEFT
 10
0.0
 20
0.0
 30
0.0
  9
$PUCSORGRIGHT
 10
0.0
 20
0.0
 30
0.0
  9
$PUCSORGFRONT
 10
0.0
 20
0.0
 30
0.0
  9
$PUCSORGBACK
 10
0.0
 20
0.0
 30
0.0
  9
$USERI1
 70
     0
  9
$USERI2
 70
     0
  9
$USERI3
 70
     0
  9
$USERI4
 70
     0
  9
$USERI5
 70
     0
  9
$USERR1
 40
14.0
  9
$USERR2
 40
0.0
  9
$USERR3
 40
0.0
  9
$USERR4
 40
0.0
  9
$USERR5
 40
0.0
  9
$WORLDVIEW
 70
     1
  9
$SHADEDGE
 70
     3
  9
$SHADEDIF
 70
    70
  9
$TILEMODE
 70
     1
  9
$MAXACTVP
 70
    64
  9
$PINSBASE
 10
0.0
 20
0.0
 30
0.0
  9
$PLIMCHECK
 70
     0
  9
$PEXTMIN
 10
1.00000000000000E+20
 20
1.00000000000000E+20
 30
1.00000000000000E+20
  9
$PEXTMAX
 10
-1.00000000000000E+20
 20
-1.00000000000000E+20
 30
-1.00000000000000E+20
  9
$PLIMMIN
 10
0.0
 20
0.0
  9
$PLIMMAX
 10
12.0
 20
9.0
  9
$UNITMODE
 70
     0
  9
$VISRETAIN
 70
     1
  9
$PLINEGEN
 70
     0
  9
$PSLTSCALE
 70
     1
  9
$TREEDEPTH
 70
  3020
  9
$CMLSTYLE
  2
Standard
  9
$CMLJUST
 70
     0
  9
$CMLSCALE
 40
1.0
  9
$PROXYGRAPHICS
 70
     1
  9
$MEASUREMENT
 70
     1
  9
$CELWEIGHT
370
    -1
  9
$ENDCAPS
280
     0
  9
$JOINSTYLE
280
     0
  9
$LWDISPLAY
290
     0
  9
$INSUNITS
 70
     1
  9
$HYPERLINKBASE
  1

  9
$STYLESHEET
  1

  9
$XEDIT
290
     1
  9
$CEPSNTYPE
380
     0
  9
$PSTYLEMODE
290
     1
  9
$FINGERPRINTGUID
  2
{F49C598A-EE33-46C7-8D9D-4B33B81F9796}
  9
$VERSIONGUID
  2
{FAEB1C32-E019-11D5-929B-00C0DF256EC4}
  9
$EXTNAMES
290
     1
  9
$PSVPSCALE
 40
0.0
  9
$OLESTARTUP
290
     0
  0
ENDSEC
  0
SECTION
  2
CLASSES
  0
CLASS
  1
ACDBDICTIONARYWDFLT
  2
AcDbDictionaryWithDefault
  3
ObjectDBX Classes
 90
        0
280
     0
281
     0
  0
CLASS
  1

  2
exOdDbCircle
  3

 90
        0
280
     0
281
     1
  0
CLASS
  1
ACDBPLACEHOLDER
  2
AcDbPlaceHolder
  3
ObjectDBX Classes
 90
        0
280
     0
281
     0
  0
CLASS
  1
LAYOUT
  2
AcDbLayout
  3
ObjectDBX Classes
 90
        0
280
     0
281
     0
  0
ENDSEC
  0
SECTION
  2
TABLES
  0
TABLE
  2
VPORT
  5
8
330
0
100
AcDbSymbolTable
 70
     1
  0
VPORT
  5
29
330
8
100
AcDbSymbolTableRecord
100
AcDbViewportTableRecord
  2
*Active
 70
     0
 10
0.0
 20
0.0
 11
1.0
 21
1.0
 12
-206.9253077870515
 22
-796.9539068927325
 13
0.0
 23
0.0
 14
0.5
 24
0.5
 15
0.5
 25
0.5
 16
0.0
 26
0.0
 36
1.0
 17
0.0
 27
0.0
 37
0.0
 40
222.0419360063878
 41
1.60267857142857
 42
50.0
 43
0.0
 44
0.0
 50
0.0
 51
0.0
 71
     0
 72
   100
 73
     1
 74
     3
 75
     0
 76
     0
 77
     0
 78
     0
281
     0
 65
     1
110
0.0
120
0.0
130
0.0
111
1.0
121
0.0
131
0.0
112
0.0
122
1.0
132
0.0
 79
     0
146
0.0
  0
ENDTAB
  0
TABLE
  2
LTYPE
  5
5
330
0
100
AcDbSymbolTable
 70
     8
  0
LTYPE
  5
14
330
5
100
AcDbSymbolTableRecord
100
AcDbLinetypeTableRecord
  2
ByBlock
 70
     0
  3

 72
    65
 73
     0
 40
0.0
  0
LTYPE
  5
15
330
5
100
AcDbSymbolTableRecord
100
AcDbLinetypeTableRecord
  2
ByLayer
 70
     0
  3

 72
    65
 73
     0
 40
0.0
  0
LTYPE
  5
16
330
5
100
AcDbSymbolTableRecord
100
AcDbLinetypeTableRecord
  2
Continuous
 70
     0
  3
Solid line
 72
    65
 73
     0
 40
0.0
  0
LTYPE
  5
2A
330
5
100
AcDbSymbolTableRecord
100
AcDbLinetypeTableRecord
  2
DASHED
 70
     0
  3
Dashed
 72
    65
 73
     2
 40
15.0
 49
7.0
 74
     0
 49
-8.0
 74
     0
  0
LTYPE
  5
2B
330
5
100
AcDbSymbolTableRecord
100
AcDbLinetypeTableRecord
  2
DOTTED
 70
     0
  3
Dotted
 72
    65
 73
     2
 40
1.0
 49
0.0
 74
     0
 49
-1.0
 74
     0
  0
LTYPE
  5
2C
330
5
100
AcDbSymbolTableRecord
100
AcDbLinetypeTableRecord
  2
DOT_CENTER
 70
     0
  3
Dot_Center
 72
    65
 73
     4
 40
14.0
 49
12.0
 74
     0
 49
-1.0
 74
     0
 49
0.0
 74
     0
 49
-1.0
 74
     0
  0
LTYPE
  5
2D
330
5
100
AcDbSymbolTableRecord
100
AcDbLinetypeTableRecord
  2
LONG_DASHED
 70
     0
  3
Long_Dashed
 72
    65
 73
     2
 40
15.0
 49
10.0
 74
     0
 49
-5.0
 74
     0
  0
LTYPE
  5
2E
330
5
100
AcDbSymbolTableRecord
100
AcDbLinetypeTableRecord
  2
DASH_CENTER
 70
     0
  3
Dash_Center
 72
    65
 73
     4
 40
14.0
 49
11.0
 74
     0
 49
-1.0
 74
     0
 49
1.0
 74
     0
 49
-1.0
 74
     0
  0
LTYPE
  5
2F
330
5
100
AcDbSymbolTableRecord
100
AcDbLinetypeTableRecord
  2
PHANTOM
 70
     0
  3
Phantom
 72
    65
 73
     6
 40
13.0
 49
10.0
 74
     0
 49
-1.0
 74
     0
 49
0.0
 74
     0
 49
-1.0
 74
     0
 49
0.0
 74
     0
 49
-1.0
 74
     0
  0
LTYPE
  5
30
330
5
100
AcDbSymbolTableRecord
100
AcDbLinetypeTableRecord
  2
CENTER_DASH_DASH
 70
     0
  3
Center_Dash_Dash
 72
    65
 73
     6
 40
14.0
 49
9.0
 74
     0
 49
-1.0
 74
     0
 49
1.0
 74
     0
 49
-1.0
 74
     0
 49
1.0
 74
     0
 49
-1.0
 74
     0
  0
ENDTAB
  0
TABLE
  2
LAYER
  5
2
330
0
100
AcDbSymbolTable
 70
     3
  0
LAYER
  5
10
330
2
100
AcDbSymbolTableRecord
100
AcDbLayerTableRecord
  2
0
 70
     0
 62
     7
  6
Continuous
370
    -3
390
F
  0
LAYER
  5
31
330
2
100
AcDbSymbolTableRecord
100
AcDbLayerTableRecord
  2
1
 70
     0
 62
     7
  6
Continuous
370
    -3
390
F
  0
LAYER
  5
32
330
2
100
AcDbSymbolTableRecord
100
AcDbLayerTableRecord
  2
6_ALL_DRFT_GEOM
 70
     0
 62
     7
  6
Continuous
370
    -3
390
F
  0
ENDTAB
  0
TABLE
  2
STYLE
  5
3
330
0
100
AcDbSymbolTable
 70
     6
  0
STYLE
  5
11
330
3
100
AcDbSymbolTableRecord
100
AcDbTextStyleTableRecord
  2
Standard
 70
     0
 40
0.0
 41
1.0
 50
0.0
 71
     0
 42
0.2
  3
txt
  4

  0
STYLE
  5
95
330
3
100
AcDbSymbolTableRecord
100
AcDbTextStyleTableRecord
  2
CONVERTER_1
 70
     0
 40
0.0
 41
0.9
 50
0.0
 71
     0
 42
0.2
  3
txt.shx
  4

  0
STYLE
  5
215
330
3
100
AcDbSymbolTableRecord
100
AcDbTextStyleTableRecord
  2
CONVERTER_2
 70
     0
 40
0.0
 41
0.95
 50
0.0
 71
     0
 42
0.2
  3
complex.shx
  4

  0
STYLE
  5
217
330
3
100
AcDbSymbolTableRecord
100
AcDbTextStyleTableRecord
  2
CONVERTER_3
 70
     0
 40
0.0
 41
0.9975
 50
0.0
 71
     0
 42
0.2
  3
complex.shx
  4

  0
STYLE
  5
219
330
3
100
AcDbSymbolTableRecord
100
AcDbTextStyleTableRecord
  2
CONVERTER_4
 70
     0
 40
0.0
 41
0.855
 50
0.0
 71
     0
 42
0.2
  3
complex.shx
  4

  0
STYLE
  5
281
330
3
100
AcDbSymbolTableRecord
100
AcDbTextStyleTableRecord
  2
CONVERTER_5
 70
     0
 40
0.0
 41
1.08
 50
0.0
 71
     0
 42
0.2
  3
txt.shx
  4

  0
ENDTAB
  0
TABLE
  2
VIEW
  5
6
330
0
100
AcDbSymbolTable
 70
     0
  0
ENDTAB
  0
TABLE
  2
UCS
  5
7
330
0
100
AcDbSymbolTable
 70
     0
  0
ENDTAB
  0
TABLE
  2
APPID
  5
9
330
0
100
AcDbSymbolTable
 70
     1
  0
APPID
  5
12
330
9
100
AcDbSymbolTableRecord
100
AcDbRegAppTableRecord
  2
ACAD
 70
     0
  0
ENDTAB
  0
TABLE
  2
DIMSTYLE
  5
A
330
0
100
AcDbSymbolTable
 70
     5
100
AcDbDimStyleTable
  0
DIMSTYLE
105
27
330
A
100
AcDbSymbolTableRecord
100
AcDbDimStyleTableRecord
  2
Standard
 70
     0
340
11
  0
DIMSTYLE
105
294
102
{ACAD_REACTORS
330
295
102
}
330
A
100
AcDbSymbolTableRecord
100
AcDbDimStyleTableRecord
  2
ME10_DIM_0
 70
     0
 41
3.5
 42
1.0
 44
1.0
 73
     0
 74
     0
 77
     1
 78
     8
140
3.5
147
1.6
172
     1
173
     1
176
     2
177
     2
178
     2
271
     3
340
95
343
28E
344
28E
  0
DIMSTYLE
105
2A1
102
{ACAD_REACTORS
330
2A2
102
}
330
A
100
AcDbSymbolTableRecord
100
AcDbDimStyleTableRecord
  2
ME10_DIM_1
 70
     0
 41
3.5
 42
1.0
 44
1.0
 73
     0
 74
     0
 77
     1
 78
     8
140
3.5
147
1.6
172
     1
173
     1
176
     2
177
     2
178
     2
271
     3
340
95
343
28E
344
28E
  0
DIMSTYLE
105
2AE
102
{ACAD_REACTORS
330
2AF
102
}
330
A
100
AcDbSymbolTableRecord
100
AcDbDimStyleTableRecord
  2
ME10_DIM_2
 70
     0
 41
3.5
 42
1.0
 44
1.0
 73
     0
 74
     0
 77
     1
 78
     8
140
3.5
147
1.6
172
     1
173
     1
176
     2
177
     2
178
     2
271
     3
340
95
343
28E
344
28E
  0
DIMSTYLE
105
2BB
102
{ACAD_REACTORS
330
2BC
102
}
330
A
100
AcDbSymbolTableRecord
100
AcDbDimStyleTableRecord
  2
ME10_DIM_3
 70
     0
 41
3.5
 42
1.0
 44
1.0
 73
     0
 74
     0
 77
     1
 78
     8
140
3.5
147
1.6
172
     1
173
     1
176
     2
177
     2
178
     2
271
     3
340
95
343
28E
344
28E
  0
ENDTAB
  0
TABLE
  2
BLOCK_RECORD
  5
1
330
0
100
AcDbSymbolTable
 70
    11
  0
BLOCK_RECORD
  5
1F
330
1
100
AcDbSymbolTableRecord
100
AcDbBlockTableRecord
  2
*Model_Space
340
22
  0
BLOCK_RECORD
  5
1B
330
1
100
AcDbSymbolTableRecord
100
AcDbBlockTableRecord
  2
*Paper_Space
340
1E
  0
BLOCK_RECORD
  5
23
330
1
100
AcDbSymbolTableRecord
100
AcDbBlockTableRecord
  2
*Paper_Space0
340
26
  0
BLOCK_RECORD
  5
33
330
1
100
AcDbSymbolTableRecord
100
AcDbBlockTableRecord
  2
_2
340
0
102
{BLKREFS
331
42
102
}
  0
BLOCK_RECORD
  5
36
330
1
100
AcDbSymbolTableRecord
100
AcDbBlockTableRecord
  2
_3
340
0
102
{BLKREFS
331
43
102
}
  0
BLOCK_RECORD
  5
39
330
1
100
AcDbSymbolTableRecord
100
AcDbBlockTableRecord
  2
Top__1
340
0
102
{BLKREFS
331
44
102
}
  0
BLOCK_RECORD
  5
3C
330
1
100
AcDbSymbolTableRecord
100
AcDbBlockTableRecord
  2
Top__2
340
0
102
{BLKREFS
331
45
102
}
  0
BLOCK_RECORD
  5
3F
330
1
100
AcDbSymbolTableRecord
100
AcDbBlockTableRecord
  2
Top__3
340
0
102
{BLKREFS
331
46
102
}
  0
BLOCK_RECORD
  5
283
330
1
100
AcDbSymbolTableRecord
100
AcDbBlockTableRecord
  2
*D06
340
0
  0
BLOCK_RECORD
  5
28E
330
1
100
AcDbSymbolTableRecord
100
AcDbBlockTableRecord
  2
_Open30
340
0
  0
BLOCK_RECORD
  5
296
330
1
100
AcDbSymbolTableRecord
100
AcDbBlockTableRecord
  2
*D18
340
0
  0
BLOCK_RECORD
  5
2A3
330
1
100
AcDbSymbolTableRecord
100
AcDbBlockTableRecord
  2
*D29
340
0
  0
BLOCK_RECORD
  5
2B0
330
1
100
AcDbSymbolTableRecord
100
AcDbBlockTableRecord
  2
*D310
340
0
  0
ENDTAB
  0
ENDSEC
  0
SECTION
  2
BLOCKS
  0
BLOCK
  5
20
330
1F
100
AcDbEntity
  8
0
100
AcDbBlockBegin
  2
*Model_Space
 70
     0
 71
     0
 10
0.0
 20
0.0
 30
0.0
  3
*Model_Space
  1

  0
ENDBLK
  5
21
330
1F
100
AcDbEntity
  8
0
100
AcDbBlockEnd
  0
BLOCK
  5
1C
330
1B
100
AcDbEntity
 67
     1
  8
0
100
AcDbBlockBegin
  2
*Paper_Space
 70
     0
 71
     0
 10
0.0
 20
0.0
 30
0.0
  3
*Paper_Space
  1

  0
ENDBLK
  5
1D
330
1B
100
AcDbEntity
 67
     1
  8
0
100
AcDbBlockEnd
  0
BLOCK
  5
24
330
23
100
AcDbEntity
  8
0
100
AcDbBlockBegin
  2
*Paper_Space0
 70
     0
 71
     0
 10
0.0
 20
0.0
 30
0.0
  3
*Paper_Space0
  1

  0
ENDBLK
  5
25
330
23
100
AcDbEntity
  8
0
100
AcDbBlockEnd
  0
BLOCK
  5
34
330
33
100
AcDbEntity
  8
0
100
AcDbBlockBegin
  2
_2
 70
     0
 71
     0
 10
-422.5699444074461
 20
-596.6193529016481
 30
0.0
  3
_2
  1

  0
LINE
  5
47
330
33
100
AcDbEntity
  8
6_ALL_DRFT_GEOM
  6
Continuous
 62
     3
100
AcDbLine
 10
-255.0173510652099
 20
-725.972188691967
 30
0.0
 11
-255.0173510652099
 21
-721.972188691967
 31
0.0
  0
LINE
  5
48
330
33
100
AcDbEntity
  8
6_ALL_DRFT_GEOM
  6
Continuous
 62
     3
100
AcDbLine
 10
-249.0173510652099
 20
-723.972188691967
 30
0.0
 11
-255.0173510652099
 21
-725.972188691967
 31
0.0
  0
LINE
  5
49
330
33
100
AcDbEntity
  8
6_ALL_DRFT_GEOM
  6
Continuous
 62
     3
100
AcDbLine
 10
-255.0173510652099
 20
-721.972188691967
 30
0.0
 11
-249.0173510652099
 21
-723.972188691967
 31
0.0
  0
LINE
  5
4A
330
33
100
AcDbEntity
  8
6_ALL_DRFT_GEOM
  6
Continuous
 62
     3
100
AcDbLine
 10
-240.1173510652099
 20
-723.972188691967
 30
0.0
 11
-245.0173510652099
 21
-723.972188691967
 31
0.0
  0
LINE
  5
4B
330
33
100
AcDbEntity
  8
1
  6
DASH_CENTER
 62
     1
100
AcDbLine
 10
-85.51735106520997
 20
-784.6859840330525
 30
0.0
 11
-85.51735106520997
 21
-802.4463203910748
 31
0.0
  0
LINE
  5
4C
330
33
100
AcDbEntity
  8
1
  6
Continuous
 62
     3
100
AcDbLine
 10
-72.01735106520997
 20
-794.7221886919668
 30
0.0
 11
-72.01735106520997
 21
-799.7221886919668
 31
0.0
  0
LINE
  5
4D
330
33
100
AcDbEntity
  8
1
  6
Continuous
 62
     3
100
AcDbLine
 10
-71.60757019865403
 20
-794.7221886919668
 30
0.0
 11
-80.18581104565854
 21
-794.7221886919668
 31
0.0
  0
LINE
  5
4E
330
33
100
AcDbEntity
  8
1
  6
Continuous
 62
     3
100
AcDbLine
 10
-78.67863801051956
 20
-794.7221886919668
 30
0.0
 11
-78.67863801051956
 21
-788.2221886919668
 31
0.0
  0
LINE
  5
4F
330
33
100
AcDbEntity
  8
1
  6
Continuous
 62
     3
100
AcDbLine
 10
-80.18581104565854
 20
-794.7221886919668
 30
0.0
 11
-80.18581104565854
 21
-788.2221886919668
 31
0.0
  0
LINE
  5
50
330
33
100
AcDbEntity
  8
1
  6
Continuous
 62
     3
100
AcDbLine
 10
-90.84889108476139
 20
-788.2221886919668
 30
0.0
 11
-90.84889108476139
 21
-794.7221886919668
 31
0.0
  0
LINE
  5
51
330
33
100
AcDbEntity
  8
1
  6
Continuous
 62
     3
100
AcDbLine
 10
-92.35606411990048
 20
-788.2221886919668
 30
0.0
 11
-92.35606411990048
 21
-794.7221886919668
 31
0.0
  0
LINE
  5
52
330
33
100
AcDbEntity
  8
1
  6
Continuous
 62
     3
100
AcDbLine
 10
-99.01735106520997
 20
-799.7221886919668
 30
0.0
 11
-99.01735106520997
 21
-794.7221886919668
 31
0.0
  0
LINE
  5
53
330
33
100
AcDbEntity
  8
1
  6
Continuous
 62
     3
100
AcDbLine
 10
-90.84889108476139
 20
-794.7221886919668
 30
0.0
 11
-99.42713193176601
 21
-794.7221886919668
 31
0.0
  0
LINE
  5
54
330
33
100
AcDbEntity
  8
1
  6
Continuous
 62
     3
100
AcDbLine
 10
-71.60757019865403
 20
-788.2221886919668
 30
0.0
 11
-71.60757019865403
 21
-794.7221886919668
 31
0.0
  0
LINE
  5
55
330
33
100
AcDbEntity
  8
1
  6
Continuous
 62
     3
100
AcDbLine
 10
-71.60757019865403
 20
-788.2221886919668
 30
0.0
 11
-85.51735106520997
 21
-788.2221886919668
 31
0.0
  0
LINE
  5
56
330
33
100
AcDbEntity
  8
1
  6
Continuous
 62
     3
100
AcDbLine
 10
-85.51735106520997
 20
-788.2221886919668
 30
0.0
 11
-99.42713193176601
 21
-788.2221886919668
 31
0.0
  0
LINE
  5
57
330
33
100
AcDbEntity
  8
1
  6
Continuous
 62
     3
100
AcDbLine
 10
-99.42713193176601
 20
-794.7221886919668
 30
0.0
 11
-99.42713193176601
 21
-788.2221886919668
 31
0.0
  0
LINE
  5
58
330
33
100
AcDbEntity
  8
1
  6
Continuous
 62
     3
100
AcDbLine
 10
-182.927131931766
 20
-794.7221886919668
 30
0.0
 11
-182.927131931766
 21
-788.2221886919668
 31
0.0
  0
LINE
  5
59
330
33
100
AcDbEntity
  8
1
  6
Continuous
 62
     3
100
AcDbLine
 10
-169.0173510652099
 20
-788.2221886919668
 30
0.0
 11
-182.927131931766
 21
-788.2221886919668
 31
0.0
  0
LINE
  5
5A
330
33
100
AcDbEntity
  8
1
  6
Continuous
 62
     3
100
AcDbLine
 10
-155.107570198654
 20
-788.2221886919668
 30
0.0
 11
-169.0173510652099
 21
-788.2221886919668
 31
0.0
  0
LINE
  5
5B
330
33
100
AcDbEntity
  8
1
  6
Continuous
 62
     3
100
AcDbLine
 10
-155.107570198654
 20
-788.2221886919668
 30
0.0
 11
-155.107570198654
 21
-794.7221886919668
 31
0.0
  0
LINE
  5
5C
330
33
100
AcDbEntity
  8
1
  6
Continuous
 62
     3
100
AcDbLine
 10
-174.3488910847614
 20
-794.7221886919668
 30
0.0
 11
-182.927131931766
 21
-794.7221886919668
 31
0.0
  0
LINE
  5
5D
330
33
100
AcDbEntity
  8
1
  6
Continuous
 62
     3
100
AcDbLine
 10
-182.5173510652099
 20
-799.7221886919668
 30
0.0
 11
-182.5173510652099
 21
-794.7221886919668
 31
0.0
  0
LINE
  5
5E
330
33
100
AcDbEntity
  8
1
  6
Continuous
 62
     3
100
AcDbLine
 10
-175.8560641199005
 20
-788.2221886919668
 30
0.0
 11
-175.8560641199005
 21
-794.7221886919668
 31
0.0
  0
LINE
  5
5F
330
33
100
AcDbEntity
  8
1
  6
Continuous
 62
     3
100
AcDbLine
 10
-174.3488910847614
 20
-788.2221886919668
 30
0.0
 11
-174.3488910847614
 21
-794.7221886919668
 31
0.0
  0
LINE
  5
60
330
33
100
AcDbEntity
  8
1
  6
Continuous
 62
     3
100
AcDbLine
 10
-163.6858110456585
 20
-794.7221886919668
 30
0.0
 11
-163.6858110456585
 21
-788.2221886919668
 31
0.0
  0
LINE
  5
61
330
33
100
AcDbEntity
  8
1
  6
Continuous
 62
     3
100
AcDbLine
 10
-162.1786380105195
 20
-794.7221886919668
 30
0.0
 11
-162.1786380105195
 21
-788.2221886919668
 31
0.0
  0
LINE
  5
62
330
33
100
AcDbEntity
  8
1
  6
Continuous
 62
     3
100
AcDbLine
 10
-155.107570198654
 20
-794.7221886919668
 30
0.0
 11
-163.6858110456585
 21
-794.7221886919668
 31
0.0
  0
LINE
  5
63
330
33
100
AcDbEntity
  8
1
  6
Continuous
 62
     3
100
AcDbLine
 10
-155.5173510652099
 20
-794.7221886919668
 30
0.0
 11
-155.5173510652099
 21
-799.7221886919668
 31
0.0
  0
LINE
  5
64
330
33
100
AcDbEntity
  8
1
  6
DASH_CENTER
 62
     1
100
AcDbLine
 10
-169.0173510652099
 20
-784.6859840330525
 30
0.0
 11
-169.0173510652099
 21
-802.4463203910748
 31
0.0
  0
LINE
  5
65
330
33
100
AcDbEntity
  8
1
  6
DASH_CENTER
 62
     1
100
AcDbLine
 10
-252.5173510652099
 20
-784.6859840330525
 30
0.0
 11
-252.5173510652099
 21
-802.4463203910748
 31
0.0
  0
LINE
  5
66
330
33
100
AcDbEntity
  8
1
  6
Continuous
 62
     3
100
AcDbLine
 10
-239.0173510652099
 20
-794.7221886919668
 30
0.0
 11
-239.0173510652099
 21
-799.7221886919668
 31
0.0
  0
LINE
  5
67
330
33
100
AcDbEntity
  8
1
  6
Continuous
 62
     3
100
AcDbLine
 10
-238.607570198654
 20
-794.7221886919668
 30
0.0
 11
-247.1858110456585
 21
-794.7221886919668
 31
0.0
  0
LINE
  5
68
330
33
100
AcDbEntity
  8
1
  6
Continuous
 62
     3
100
AcDbLine
 10
-245.6786380105195
 20
-794.7221886919668
 30
0.0
 11
-245.6786380105195
 21
-788.2221886919668
 31
0.0
  0
LINE
  5
69
330
33
100
AcDbEntity
  8
1
  6
Continuous
 62
     3
100
AcDbLine
 10
-247.1858110456585
 20
-794.7221886919668
 30
0.0
 11
-247.1858110456585
 21
-788.2221886919668
 31
0.0
  0
LINE
  5
6A
330
33
100
AcDbEntity
  8
1
  6
Continuous
 62
     3
100
AcDbLine
 10
-257.8488910847614
 20
-788.2221886919668
 30
0.0
 11
-257.8488910847614
 21
-794.7221886919668
 31
0.0
  0
LINE
  5
6B
330
33
100
AcDbEntity
  8
1
  6
Continuous
 62
     3
100
AcDbLine
 10
-259.3560641199005
 20
-788.2221886919668
 30
0.0
 11
-259.3560641199005
 21
-794.7221886919668
 31
0.0
  0
LINE
  5
6C
330
33
100
AcDbEntity
  8
1
  6
Continuous
 62
     3
100
AcDbLine
 10
-266.0173510652099
 20
-799.7221886919668
 30
0.0
 11
-266.0173510652099
 21
-794.7221886919668
 31
0.0
  0
LINE
  5
6D
330
33
100
AcDbEntity
  8
1
  6
Continuous
 62
     3
100
AcDbLine
 10
-257.8488910847614
 20
-794.7221886919668
 30
0.0
 11
-266.427131931766
 21
-794.7221886919668
 31
0.0
  0
LINE
  5
6E
330
33
100
AcDbEntity
  8
1
  6
Continuous
 62
     3
100
AcDbLine
 10
-238.607570198654
 20
-788.2221886919668
 30
0.0
 11
-238.607570198654
 21
-794.7221886919668
 31
0.0
  0
LINE
  5
6F
330
33
100
AcDbEntity
  8
1
  6
Continuous
 62
     3
100
AcDbLine
 10
-238.607570198654
 20
-788.2221886919668
 30
0.0
 11
-252.5173510652099
 21
-788.2221886919668
 31
0.0
  0
LINE
  5
70
330
33
100
AcDbEntity
  8
1
  6
Continuous
 62
     3
100
AcDbLine
 10
-252.5173510652099
 20
-788.2221886919668
 30
0.0
 11
-266.427131931766
 21
-788.2221886919668
 31
0.0
  0
LINE
  5
71
330
33
100
AcDbEntity
  8
1
  6
Continuous
 62
     3
100
AcDbLine
 10
-266.427131931766
 20
-794.7221886919668
 30
0.0
 11
-266.427131931766
 21
-788.2221886919668
 31
0.0
  0
LINE
  5
72
330
33
100
AcDbEntity
  8
1
  6
Continuous
 62
     3
100
AcDbLine
 10
-361.239006690462
 20
-794.7221886919668
 30
0.0
 11
-361.239006690462
 21
-788.2221886919668
 31
0.0
  0
LINE
  5
73
330
33
100
AcDbEntity
  8
1
  6
Continuous
 62
     3
100
AcDbLine
 10
-347.329225823906
 20
-788.2221886919668
 30
0.0
 11
-361.239006690462
 21
-788.2221886919668
 31
0.0
  0
LINE
  5
74
330
33
100
AcDbEntity
  8
1
  6
Continuous
 62
     3
100
AcDbLine
 10
-333.41944495735
 20
-788.2221886919668
 30
0.0
 11
-347.329225823906
 21
-788.2221886919668
 31
0.0
  0
LINE
  5
75
330
33
100
AcDbEntity
  8
1
  6
Continuous
 62
     3
100
AcDbLine
 10
-333.41944495735
 20
-788.2221886919668
 30
0.0
 11
-333.41944495735
 21
-794.7221886919668
 31
0.0
  0
LINE
  5
76
330
33
100
AcDbEntity
  8
1
  6
Continuous
 62
     3
100
AcDbLine
 10
-352.6607658434574
 20
-794.7221886919668
 30
0.0
 11
-361.239006690462
 21
-794.7221886919668
 31
0.0
  0
LINE
  5
77
330
33
100
AcDbEntity
  8
1
  6
Continuous
 62
     3
100
AcDbLine
 10
-360.829225823906
 20
-799.7221886919668
 30
0.0
 11
-360.829225823906
 21
-794.7221886919668
 31
0.0
  0
LINE
  5
78
330
33
100
AcDbEntity
  8
1
  6
Continuous
 62
     3
100
AcDbLine
 10
-354.1679388785965
 20
-788.2221886919668
 30
0.0
 11
-354.1679388785965
 21
-794.7221886919668
 31
0.0
  0
LINE
  5
79
330
33
100
AcDbEntity
  8
1
  6
Continuous
 62
     3
100
AcDbLine
 10
-352.6607658434574
 20
-788.2221886919668
 30
0.0
 11
-352.6607658434574
 21
-794.7221886919668
 31
0.0
  0
LINE
  5
7A
330
33
100
AcDbEntity
  8
1
  6
Continuous
 62
     3
100
AcDbLine
 10
-341.9976858043546
 20
-794.7221886919668
 30
0.0
 11
-341.9976858043546
 21
-788.2221886919668
 31
0.0
  0
LINE
  5
7B
330
33
100
AcDbEntity
  8
1
  6
Continuous
 62
     3
100
AcDbLine
 10
-340.4905127692156
 20
-794.7221886919668
 30
0.0
 11
-340.4905127692156
 21
-788.2221886919668
 31
0.0
  0
LINE
  5
7C
330
33
100
AcDbEntity
  8
1
  6
Continuous
 62
     3
100
AcDbLine
 10
-333.41944495735
 20
-794.7221886919668
 30
0.0
 11
-341.9976858043546
 21
-794.7221886919668
 31
0.0
  0
LINE
  5
7D
330
33
100
AcDbEntity
  8
1
  6
Continuous
 62
     3
100
AcDbLine
 10
-333.829225823906
 20
-794.7221886919668
 30
0.0
 11
-333.829225823906
 21
-799.7221886919668
 31
0.0
  0
LINE
  5
7E
330
33
100
AcDbEntity
  8
1
  6
DASH_CENTER
 62
     1
100
AcDbLine
 10
-347.329225823906
 20
-784.6859840330525
 30
0.0
 11
-347.329225823906
 21
-802.4463203910748
 31
0.0
  0
LINE
  5
7F
330
33
100
AcDbEntity
  8
1
  6
Continuous
 62
     3
100
AcDbLine
 10
-238.4487510175139
 20
-730.2359329953343
 30
0.0
 11
-240.1388101141527
 21
-729.483470205644
 31
0.0
  0
LINE
  5
80
330
33
100
AcDbEntity
  8
1
  6
Continuous
 62
     3
100
AcDbLine
 10
-239.95400983583
 20
-718.8962693511813
 30
0.0
 11
-238.2387197048814
 21
-718.203247153362
 31
0.0
  0
LINE
  5
81
330
33
100
AcDbEntity
  8
1
  6
Continuous
 62
     3
100
AcDbLine
 10
-258.7810953685773
 20
-738.0407887396631
 30
0.0
 11
-258.0286325788871
 21
-736.3507296430242
 31
0.0
  0
LINE
  5
82
330
33
100
AcDbEntity
  8
1
  6
Continuous
 62
     3
100
AcDbLine
 10
-247.4414317244244
 20
-736.5355299213469
 30
0.0
 11
-246.7484095266049
 21
-738.2508200522956
 31
0.0
  0
LINE
  5
83
330
33
100
AcDbEntity
  8
1
  6
Continuous
 62
     3
100
AcDbLine
 10
-266.5859511129061
 20
-717.7084443885996
 30
0.0
 11
-264.8958920162672
 21
-718.4609071782899
 31
0.0
  0
LINE
  5
84
330
33
100
AcDbEntity
  8
1
  6
Continuous
 62
     3
100
AcDbLine
 10
-265.0806922945899
 20
-729.0481080327526
 30
0.0
 11
-266.7959824255385
 21
-729.741130230572
 31
0.0
  0
LINE
  5
85
330
33
100
AcDbEntity
  8
1
  6
Continuous
 62
     3
100
AcDbLine
 10
-257.5932704059956
 20
-711.408847462587
 30
0.0
 11
-258.286292603815
 21
-709.6935573316384
 31
0.0
  0
LINE
  5
86
330
33
100
AcDbEntity
  8
1
  6
Continuous
 62
     3
100
AcDbLine
 10
-246.2536067618426
 20
-709.9035886442708
 30
0.0
 11
-247.0060695515329
 21
-711.5936477409097
 31
0.0
  0
ARC
  5
87
330
33
100
AcDbEntity
  8
6_ALL_DRFT_GEOM
  6
Continuous
 62
     3
100
AcDbCircle
 10
-252.5173510652099
 20
-723.972188691967
 30
0.0
 40
7.5
100
AcDbArc
 50
-90.00000000000065
 51
0.0
  0
ARC
  5
88
330
33
100
AcDbEntity
  8
1
  6
Continuous
 62
     3
100
AcDbCircle
 10
-249.884133766223
 20
-721.8251079596253
 30
0.0
 40
10.00000000000014
100
AcDbArc
 50
-105.2672535353402
 51
-12.39840117245602
  0
ARC
  5
89
330
33
100
AcDbEntity
  8
1
  6
Continuous
 62
     3
100
AcDbCircle
 10
-252.5173510652099
 20
-723.972188691967
 30
0.0
 40
13.54999999999996
100
AcDbArc
 50
-24.00000000000006
 51
0.0
  0
ARC
  5
8A
330
33
100
AcDbEntity
  8
1
  6
Continuous
 62
     3
100
AcDbCircle
 10
-252.5173510652099
 20
-723.972188691967
 30
0.0
 40
13.54999999999994
100
AcDbArc
 50
-68.00000000000037
 51
-24.00000000000006
  0
ARC
  5
8B
330
33
100
AcDbEntity
  8
1
  6
Continuous
 62
     3
100
AcDbCircle
 10
-252.5173510652099
 20
-723.972188691967
 30
0.0
 40
13.55000000000008
100
AcDbArc
 50
-114.0000000000003
 51
-68.00000000000037
  0
ARC
  5
8C
330
33
100
AcDbEntity
  8
1
  6
Continuous
 62
     3
100
AcDbCircle
 10
-252.5173510652099
 20
-723.972188691967
 30
0.0
 40
13.55000000000001
100
AcDbArc
 50
-158.0
 51
-114.0000000000003
  0
ARC
  5
8D
330
33
100
AcDbEntity
  8
1
  6
Continuous
 62
     3
100
AcDbCircle
 10
-252.5173510652099
 20
-723.972188691967
 30
0.0
 40
13.55000000000007
100
AcDbArc
 50
156.0000000000001
 51
-158.0
  0
ARC
  5
8E
330
33
100
AcDbEntity
  8
1
  6
Continuous
 62
     3
100
AcDbCircle
 10
-252.5173510652099
 20
-723.972188691967
 30
0.0
 40
13.55000000000001
100
AcDbArc
 50
112.0000000000004
 51
156.0000000000001
  0
ARC
  5
8F
330
33
100
AcDbEntity
  8
1
  6
Continuous
 62
     3
100
AcDbCircle
 10
-252.5173510652099
 20
-723.972188691967
 30
0.0
 40
13.5499999999999
100
AcDbArc
 50
0.0
 51
66.00000000000043
  0
ARC
  5
90
330
33
100
AcDbEntity
  8
1
  6
Continuous
 62
     3
100
AcDbCircle
 10
-252.5173510652099
 20
-723.972188691967
 30
0.0
 40
15.40000000000009
100
AcDbArc
 50
-68.00000000000024
 51
-24.00000000000029
  0
ARC
  5
91
330
33
100
AcDbEntity
  8
1
  6
Continuous
 62
     3
100
AcDbCircle
 10
-252.5173510652099
 20
-723.972188691967
 30
0.0
 40
15.40000000000008
100
AcDbArc
 50
-158.0
 51
-114.0000000000002
  0
ARC
  5
92
330
33
100
AcDbEntity
  8
1
  6
Continuous
 62
     3
100
AcDbCircle
 10
-252.5173510652099
 20
-723.972188691967
 30
0.0
 40
15.40000000000002
100
AcDbArc
 50
112.0000000000002
 51
156.0
  0
ARC
  5
93
330
33
100
AcDbEntity
  8
1
  6
Continuous
 62
     3
100
AcDbCircle
 10
-252.5173510652099
 20
-723.972188691967
 30
0.0
 40
15.39999999999996
100
AcDbArc
 50
21.99999999999973
 51
66.00000000000017
  0
ARC
  5
94
330
33
100
AcDbEntity
  8
1
  6
Continuous
 62
     3
100
AcDbCircle
 10
-252.5173510652099
 20
-723.972188691967
 30
0.0
 40
13.55000000000001
100
AcDbArc
 50
66.00000000000043
 51
112.0000000000004
  0
MTEXT
  5
96
330
33
100
AcDbEntity
  8
0
 62
     3
100
AcDbMText
 10
-253.3887449655099
 20
-732.840625007867
 30
0.0
 40
3.0
 41
0.0
 71
     7
 72
     1
  1
0
  7
CONVERTER_1
 11
-1.0
 21
3.673819061467132E-16
 31
0.0
 73
     1
 44
0.60024009603842
  0
MTEXT
  5
97
330
33
100
AcDbEntity
  8
0
 62
     3
100
AcDbMText
 10
-245.1511726564099
 20
-717.0832289925668
 30
0.0
 40
3.0
 41
0.0
 71
     7
 72
     1
  1
100
  7
CONVERTER_1
 11
-1.836909530733566E-16
 21
-1.0
 31
0.0
 73
     1
 44
0.60024009603842
  0
ENDBLK
  5
35
330
33
100
AcDbEntity
  8
0
100
AcDbBlockEnd
  0
BLOCK
  5
37
330
36
100
AcDbEntity
  8
0
100
AcDbBlockBegin
  2
_3
 70
     0
 71
     0
 10
-338.0173510652099
 20
-589.479631922478
 30
0.0
  3
_3
  1

  0
LINE
  5
98
330
36
100
AcDbEntity
  8
1
  6
DASH_CENTER
 62
     1
100
AcDbLine
 10
-85.51735106520997
 20
-771.7221886919668
 30
0.0
 11
-85.51735106520997
 21
-792.5824677127968
 31
0.0
  0
LINE
  5
99
330
36
100
AcDbEntity
  8
1
  6
Continuous
 62
     3
100
AcDbLine
 10
-91.51735106520997
 20
-788.2221886919668
 30
0.0
 11
-91.51735106520985
 21
-784.7221886919668
 31
0.0
  0
LINE
  5
9A
330
36
100
AcDbEntity
  8
1
  6
Continuous
 62
     3
100
AcDbLine
 10
-79.51735106520997
 20
-788.2221886919668
 30
0.0
 11
-79.51735106520997
 21
-784.7221886919668
 31
0.0
  0
LINE
  5
9B
330
36
100
AcDbEntity
  8
1
  6
Continuous
 62
     3
100
AcDbLine
 10
-81.85163149055623
 20
-784.7221886919668
 30
0.0
 11
-89.18307063986381
 21
-784.7221886919668
 31
0.0
  0
LINE
  5
9C
330
36
100
AcDbEntity
  8
1
  6
Continuous
 62
     2
100
AcDbLine
 10
-81.85163149055623
 20
-775.7321886919668
 30
0.0
 11
-89.18307063986381
 21
-784.7221886919668
 31
0.0
  0
LINE
  5
9D
330
36
100
AcDbEntity
  8
1
  6
Continuous
 62
     3
100
AcDbLine
 10
-80.76735106520997
 20
-784.7221886919668
 30
0.0
 11
-81.85163149055623
 21
-784.7221886919668
 31
0.0
  0
LINE
  5
9E
330
36
100
AcDbEntity
  8
1
  6
Continuous
 62
     2
100
AcDbLine
 10
-81.85163149055623
 20
-784.7221886919668
 30
0.0
 11
-89.18307063986381
 21
-775.7321886919668
 31
0.0
  0
LINE
  5
9F
330
36
100
AcDbEntity
  8
1
  6
Continuous
 62
     3
100
AcDbLine
 10
-90.26735106520985
 20
-776.2221886919668
 30
0.0
 11
-90.26735106520997
 21
-775.7321886919668
 31
0.0
  0
LINE
  5
A0
330
36
100
AcDbEntity
  8
1
  6
Continuous
 62
     3
100
AcDbLine
 10
-89.18307063986381
 20
-775.7321886919668
 30
0.0
 11
-90.26735106520997
 21
-775.7321886919668
 31
0.0
  0
LINE
  5
A1
330
36
100
AcDbEntity
  8
1
  6
Continuous
 62
     3
100
AcDbLine
 10
-80.76735106520985
 20
-775.0108638265616
 30
0.0
 11
-80.76735106520997
 21
-775.7321886919668
 31
0.0
  0
LINE
  5
A2
330
36
100
AcDbEntity
  8
1
  6
Continuous
 62
     3
100
AcDbLine
 10
-81.85163149055623
 20
-784.7221886919668
 30
0.0
 11
-81.85163149055623
 21
-775.7321886919668
 31
0.0
  0
LINE
  5
A3
330
36
100
AcDbEntity
  8
1
  6
Continuous
 62
     3
100
AcDbLine
 10
-80.76735106520997
 20
-775.7321886919668
 30
0.0
 11
-81.85163149055623
 21
-775.7321886919668
 31
0.0
  0
LINE
  5
A4
330
36
100
AcDbEntity
  8
1
  6
Continuous
 62
     3
100
AcDbLine
 10
-80.76735106520985
 20
-775.0108638265616
 30
0.0
 11
-81.26735106520997
 21
-774.7221886919668
 31
0.0
  0
LINE
  5
A5
330
36
100
AcDbEntity
  8
1
  6
Continuous
 62
     3
100
AcDbLine
 10
-89.76735106520997
 20
-774.7221886919668
 30
0.0
 11
-90.26735106520997
 21
-775.0108638265616
 31
0.0
  0
LINE
  5
A6
330
36
100
AcDbEntity
  8
1
  6
Continuous
 62
     3
100
AcDbLine
 10
-80.76735106520997
 20
-775.7321886919668
 30
0.0
 11
-80.76735106520997
 21
-784.7221886919668
 31
0.0
  0
LINE
  5
A7
330
36
100
AcDbEntity
  8
1
  6
Continuous
 62
     3
100
AcDbLine
 10
-89.18307063986381
 20
-775.7321886919668
 30
0.0
 11
-89.18307063986381
 21
-784.7221886919668
 31
0.0
  0
LINE
  5
A8
330
36
100
AcDbEntity
  8
1
  6
Continuous
 62
     3
100
AcDbLine
 10
-81.26735106520997
 20
-774.7221886919668
 30
0.0
 11
-89.76735106520997
 21
-774.7221886919668
 31
0.0
  0
LINE
  5
A9
330
36
100
AcDbEntity
  8
1
  6
Continuous
 62
     3
100
AcDbLine
 10
-90.26735106520997
 20
-775.7321886919668
 30
0.0
 11
-90.26735106520997
 21
-775.0108638265616
 31
0.0
  0
LINE
  5
AA
330
36
100
AcDbEntity
  8
1
  6
Continuous
 62
     3
100
AcDbLine
 10
-90.26735106520997
 20
-784.7221886919668
 30
0.0
 11
-91.51735106520985
 21
-784.7221886919668
 31
0.0
  0
LINE
  5
AB
330
36
100
AcDbEntity
  8
1
  6
Continuous
 62
     3
100
AcDbLine
 10
-89.18307063986381
 20
-784.7221886919668
 30
0.0
 11
-90.26735106520997
 21
-784.7221886919668
 31
0.0
  0
LINE
  5
AC
330
36
100
AcDbEntity
  8
1
  6
Continuous
 62
     3
100
AcDbLine
 10
-79.51735106520997
 20
-784.7221886919668
 30
0.0
 11
-80.76735106520997
 21
-784.7221886919668
 31
0.0
  0
LINE
  5
AD
330
36
100
AcDbEntity
  8
1
  6
Continuous
 62
     3
100
AcDbLine
 10
-90.26735106520997
 20
-784.7221886919668
 30
0.0
 11
-90.26735106520985
 21
-776.2221886919668
 31
0.0
  0
LINE
  5
AE
330
36
100
AcDbEntity
  8
1
  6
Continuous
 62
     3
100
AcDbLine
 10
-173.7673510652099
 20
-784.7221886919668
 30
0.0
 11
-173.7673510652098
 21
-776.2221886919668
 31
0.0
  0
LINE
  5
AF
330
36
100
AcDbEntity
  8
1
  6
Continuous
 62
     3
100
AcDbLine
 10
-163.0173510652099
 20
-784.7221886919668
 30
0.0
 11
-164.2673510652099
 21
-784.7221886919668
 31
0.0
  0
LINE
  5
B0
330
36
100
AcDbEntity
  8
1
  6
Continuous
 62
     3
100
AcDbLine
 10
-172.6830706398638
 20
-784.7221886919668
 30
0.0
 11
-173.7673510652099
 21
-784.7221886919668
 31
0.0
  0
LINE
  5
B1
330
36
100
AcDbEntity
  8
1
  6
Continuous
 62
     3
100
AcDbLine
 10
-173.7673510652099
 20
-784.7221886919668
 30
0.0
 11
-175.0173510652098
 21
-784.7221886919668
 31
0.0
  0
LINE
  5
B2
330
36
100
AcDbEntity
  8
1
  6
Continuous
 62
     3
100
AcDbLine
 10
-173.7673510652099
 20
-775.7321886919668
 30
0.0
 11
-173.7673510652099
 21
-775.0108638265616
 31
0.0
  0
LINE
  5
B3
330
36
100
AcDbEntity
  8
1
  6
Continuous
 62
     3
100
AcDbLine
 10
-164.7673510652099
 20
-774.7221886919668
 30
0.0
 11
-173.2673510652099
 21
-774.7221886919668
 31
0.0
  0
LINE
  5
B4
330
36
100
AcDbEntity
  8
1
  6
Continuous
 62
     3
100
AcDbLine
 10
-172.6830706398638
 20
-775.7321886919668
 30
0.0
 11
-172.6830706398638
 21
-784.7221886919668
 31
0.0
  0
LINE
  5
B5
330
36
100
AcDbEntity
  8
1
  6
Continuous
 62
     3
100
AcDbLine
 10
-164.2673510652099
 20
-775.7321886919668
 30
0.0
 11
-164.2673510652099
 21
-784.7221886919668
 31
0.0
  0
LINE
  5
B6
330
36
100
AcDbEntity
  8
1
  6
Continuous
 62
     3
100
AcDbLine
 10
-173.2673510652099
 20
-774.7221886919668
 30
0.0
 11
-173.7673510652099
 21
-775.0108638265616
 31
0.0
  0
LINE
  5
B7
330
36
100
AcDbEntity
  8
1
  6
Continuous
 62
     3
100
AcDbLine
 10
-164.2673510652098
 20
-775.0108638265616
 30
0.0
 11
-164.7673510652099
 21
-774.7221886919668
 31
0.0
  0
LINE
  5
B8
330
36
100
AcDbEntity
  8
1
  6
Continuous
 62
     3
100
AcDbLine
 10
-164.2673510652099
 20
-775.7321886919668
 30
0.0
 11
-165.3516314905562
 21
-775.7321886919668
 31
0.0
  0
LINE
  5
B9
330
36
100
AcDbEntity
  8
1
  6
Continuous
 62
     3
100
AcDbLine
 10
-165.3516314905562
 20
-784.7221886919668
 30
0.0
 11
-165.3516314905562
 21
-775.7321886919668
 31
0.0
  0
LINE
  5
BA
330
36
100
AcDbEntity
  8
1
  6
Continuous
 62
     3
100
AcDbLine
 10
-164.2673510652098
 20
-775.0108638265616
 30
0.0
 11
-164.2673510652099
 21
-775.7321886919668
 31
0.0
  0
LINE
  5
BB
330
36
100
AcDbEntity
  8
1
  6
Continuous
 62
     3
100
AcDbLine
 10
-172.6830706398638
 20
-775.7321886919668
 30
0.0
 11
-173.7673510652099
 21
-775.7321886919668
 31
0.0
  0
LINE
  5
BC
330
36
100
AcDbEntity
  8
1
  6
Continuous
 62
     3
100
AcDbLine
 10
-173.7673510652098
 20
-776.2221886919668
 30
0.0
 11
-173.7673510652099
 21
-775.7321886919668
 31
0.0
  0
LINE
  5
BD
330
36
100
AcDbEntity
  8
1
  6
Continuous
 62
     2
100
AcDbLine
 10
-165.3516314905562
 20
-784.7221886919668
 30
0.0
 11
-172.6830706398638
 21
-775.7321886919668
 31
0.0
  0
LINE
  5
BE
330
36
100
AcDbEntity
  8
1
  6
Continuous
 62
     3
100
AcDbLine
 10
-164.2673510652099
 20
-784.7221886919668
 30
0.0
 11
-165.3516314905562
 21
-784.7221886919668
 31
0.0
  0
LINE
  5
BF
330
36
100
AcDbEntity
  8
1
  6
Continuous
 62
     2
100
AcDbLine
 10
-165.3516314905562
 20
-775.7321886919668
 30
0.0
 11
-172.6830706398638
 21
-784.7221886919668
 31
0.0
  0
LINE
  5
C0
330
36
100
AcDbEntity
  8
1
  6
Continuous
 62
     3
100
AcDbLine
 10
-165.3516314905562
 20
-784.7221886919668
 30
0.0
 11
-172.6830706398638
 21
-784.7221886919668
 31
0.0
  0
LINE
  5
C1
330
36
100
AcDbEntity
  8
1
  6
Continuous
 62
     3
100
AcDbLine
 10
-163.0173510652099
 20
-788.2221886919668
 30
0.0
 11
-163.0173510652099
 21
-784.7221886919668
 31
0.0
  0
LINE
  5
C2
330
36
100
AcDbEntity
  8
1
  6
Continuous
 62
     3
100
AcDbLine
 10
-175.0173510652099
 20
-788.2221886919668
 30
0.0
 11
-175.0173510652098
 21
-784.7221886919668
 31
0.0
  0
LINE
  5
C3
330
36
100
AcDbEntity
  8
1
  6
DASH_CENTER
 62
     1
100
AcDbLine
 10
-169.0173510652099
 20
-771.7221886919668
 30
0.0
 11
-169.0173510652099
 21
-792.5824677127968
 31
0.0
  0
LINE
  5
C4
330
36
100
AcDbEntity
  8
1
  6
Continuous
 62
     3
100
AcDbLine
 10
-352.079225823906
 20
-784.7221886919668
 30
0.0
 11
-352.0792258239059
 21
-776.2221886919668
 31
0.0
  0
LINE
  5
C5
330
36
100
AcDbEntity
  8
1
  6
Continuous
 62
     3
100
AcDbLine
 10
-341.329225823906
 20
-784.7221886919668
 30
0.0
 11
-342.579225823906
 21
-784.7221886919668
 31
0.0
  0
LINE
  5
C6
330
36
100
AcDbEntity
  8
1
  6
Continuous
 62
     3
100
AcDbLine
 10
-350.9949453985598
 20
-784.7221886919668
 30
0.0
 11
-352.079225823906
 21
-784.7221886919668
 31
0.0
  0
LINE
  5
C7
330
36
100
AcDbEntity
  8
1
  6
Continuous
 62
     3
100
AcDbLine
 10
-352.079225823906
 20
-784.7221886919668
 30
0.0
 11
-353.3292258239059
 21
-784.7221886919668
 31
0.0
  0
LINE
  5
C8
330
36
100
AcDbEntity
  8
1
  6
Continuous
 62
     3
100
AcDbLine
 10
-352.079225823906
 20
-775.7321886919668
 30
0.0
 11
-352.079225823906
 21
-775.0108638265616
 31
0.0
  0
LINE
  5
C9
330
36
100
AcDbEntity
  8
1
  6
Continuous
 62
     3
100
AcDbLine
 10
-343.079225823906
 20
-774.7221886919668
 30
0.0
 11
-351.579225823906
 21
-774.7221886919668
 31
0.0
  0
LINE
  5
CA
330
36
100
AcDbEntity
  8
1
  6
Continuous
 62
     3
100
AcDbLine
 10
-350.9949453985598
 20
-775.7321886919668
 30
0.0
 11
-350.9949453985598
 21
-784.7221886919668
 31
0.0
  0
LINE
  5
CB
330
36
100
AcDbEntity
  8
1
  6
Continuous
 62
     3
100
AcDbLine
 10
-342.579225823906
 20
-775.7321886919668
 30
0.0
 11
-342.579225823906
 21
-784.7221886919668
 31
0.0
  0
LINE
  5
CC
330
36
100
AcDbEntity
  8
1
  6
Continuous
 62
     3
100
AcDbLine
 10
-351.579225823906
 20
-774.7221886919668
 30
0.0
 11
-352.079225823906
 21
-775.0108638265616
 31
0.0
  0
LINE
  5
CD
330
36
100
AcDbEntity
  8
1
  6
Continuous
 62
     3
100
AcDbLine
 10
-342.5792258239059
 20
-775.0108638265616
 30
0.0
 11
-343.079225823906
 21
-774.7221886919668
 31
0.0
  0
LINE
  5
CE
330
36
100
AcDbEntity
  8
1
  6
Continuous
 62
     3
100
AcDbLine
 10
-342.579225823906
 20
-775.7321886919668
 30
0.0
 11
-343.6635062492522
 21
-775.7321886919668
 31
0.0
  0
LINE
  5
CF
330
36
100
AcDbEntity
  8
1
  6
Continuous
 62
     3
100
AcDbLine
 10
-343.6635062492522
 20
-784.7221886919668
 30
0.0
 11
-343.6635062492522
 21
-775.7321886919668
 31
0.0
  0
LINE
  5
D0
330
36
100
AcDbEntity
  8
1
  6
Continuous
 62
     3
100
AcDbLine
 10
-342.5792258239059
 20
-775.0108638265616
 30
0.0
 11
-342.579225823906
 21
-775.7321886919668
 31
0.0
  0
LINE
  5
D1
330
36
100
AcDbEntity
  8
1
  6
Continuous
 62
     3
100
AcDbLine
 10
-350.9949453985598
 20
-775.7321886919668
 30
0.0
 11
-352.079225823906
 21
-775.7321886919668
 31
0.0
  0
LINE
  5
D2
330
36
100
AcDbEntity
  8
1
  6
Continuous
 62
     3
100
AcDbLine
 10
-352.0792258239059
 20
-776.2221886919668
 30
0.0
 11
-352.079225823906
 21
-775.7321886919668
 31
0.0
  0
LINE
  5
D3
330
36
100
AcDbEntity
  8
1
  6
Continuous
 62
     2
100
AcDbLine
 10
-343.6635062492522
 20
-784.7221886919668
 30
0.0
 11
-350.9949453985598
 21
-775.7321886919668
 31
0.0
  0
LINE
  5
D4
330
36
100
AcDbEntity
  8
1
  6
Continuous
 62
     3
100
AcDbLine
 10
-342.579225823906
 20
-784.7221886919668
 30
0.0
 11
-343.6635062492522
 21
-784.7221886919668
 31
0.0
  0
LINE
  5
D5
330
36
100
AcDbEntity
  8
1
  6
Continuous
 62
     2
100
AcDbLine
 10
-343.6635062492522
 20
-775.7321886919668
 30
0.0
 11
-350.9949453985598
 21
-784.7221886919668
 31
0.0
  0
LINE
  5
D6
330
36
100
AcDbEntity
  8
1
  6
Continuous
 62
     3
100
AcDbLine
 10
-343.6635062492522
 20
-784.7221886919668
 30
0.0
 11
-350.9949453985598
 21
-784.7221886919668
 31
0.0
  0
LINE
  5
D7
330
36
100
AcDbEntity
  8
1
  6
Continuous
 62
     3
100
AcDbLine
 10
-341.329225823906
 20
-788.2221886919668
 30
0.0
 11
-341.329225823906
 21
-784.7221886919668
 31
0.0
  0
LINE
  5
D8
330
36
100
AcDbEntity
  8
1
  6
Continuous
 62
     3
100
AcDbLine
 10
-353.329225823906
 20
-788.2221886919668
 30
0.0
 11
-353.3292258239059
 21
-784.7221886919668
 31
0.0
  0
LINE
  5
D9
330
36
100
AcDbEntity
  8
1
  6
DASH_CENTER
 62
     1
100
AcDbLine
 10
-347.329225823906
 20
-771.7221886919668
 30
0.0
 11
-347.329225823906
 21
-792.5824677127968
 31
0.0
  0
LINE
  5
DA
330
36
100
AcDbEntity
  8
1
  6
DASH_CENTER
 62
     1
100
AcDbLine
 10
-252.5173510652099
 20
-771.7221886919668
 30
0.0
 11
-252.5173510652099
 21
-792.5824677127968
 31
0.0
  0
LINE
  5
DB
330
36
100
AcDbEntity
  8
1
  6
Continuous
 62
     3
100
AcDbLine
 10
-258.5173510652099
 20
-788.2221886919668
 30
0.0
 11
-258.5173510652098
 21
-784.7221886919668
 31
0.0
  0
LINE
  5
DC
330
36
100
AcDbEntity
  8
1
  6
Continuous
 62
     3
100
AcDbLine
 10
-246.5173510652099
 20
-788.2221886919668
 30
0.0
 11
-246.5173510652099
 21
-784.7221886919668
 31
0.0
  0
LINE
  5
DD
330
36
100
AcDbEntity
  8
1
  6
Continuous
 62
     3
100
AcDbLine
 10
-248.8516314905562
 20
-784.7221886919668
 30
0.0
 11
-256.1830706398638
 21
-784.7221886919668
 31
0.0
  0
LINE
  5
DE
330
36
100
AcDbEntity
  8
1
  6
Continuous
 62
     2
100
AcDbLine
 10
-248.8516314905562
 20
-775.7321886919668
 30
0.0
 11
-256.1830706398638
 21
-784.7221886919668
 31
0.0
  0
LINE
  5
DF
330
36
100
AcDbEntity
  8
1
  6
Continuous
 62
     3
100
AcDbLine
 10
-247.7673510652099
 20
-784.7221886919668
 30
0.0
 11
-248.8516314905562
 21
-784.7221886919668
 31
0.0
  0
LINE
  5
E0
330
36
100
AcDbEntity
  8
1
  6
Continuous
 62
     2
100
AcDbLine
 10
-248.8516314905562
 20
-784.7221886919668
 30
0.0
 11
-256.1830706398638
 21
-775.7321886919668
 31
0.0
  0
LINE
  5
E1
330
36
100
AcDbEntity
  8
1
  6
Continuous
 62
     3
100
AcDbLine
 10
-257.2673510652098
 20
-776.2221886919668
 30
0.0
 11
-257.2673510652099
 21
-775.7321886919668
 31
0.0
  0
LINE
  5
E2
330
36
100
AcDbEntity
  8
1
  6
Continuous
 62
     3
100
AcDbLine
 10
-256.1830706398638
 20
-775.7321886919668
 30
0.0
 11
-257.2673510652099
 21
-775.7321886919668
 31
0.0
  0
LINE
  5
E3
330
36
100
AcDbEntity
  8
1
  6
Continuous
 62
     3
100
AcDbLine
 10
-247.7673510652098
 20
-775.0108638265616
 30
0.0
 11
-247.7673510652099
 21
-775.7321886919668
 31
0.0
  0
LINE
  5
E4
330
36
100
AcDbEntity
  8
1
  6
Continuous
 62
     3
100
AcDbLine
 10
-248.8516314905562
 20
-784.7221886919668
 30
0.0
 11
-248.8516314905562
 21
-775.7321886919668
 31
0.0
  0
LINE
  5
E5
330
36
100
AcDbEntity
  8
1
  6
Continuous
 62
     3
100
AcDbLine
 10
-247.7673510652099
 20
-775.7321886919668
 30
0.0
 11
-248.8516314905562
 21
-775.7321886919668
 31
0.0
  0
LINE
  5
E6
330
36
100
AcDbEntity
  8
1
  6
Continuous
 62
     3
100
AcDbLine
 10
-247.7673510652098
 20
-775.0108638265616
 30
0.0
 11
-248.2673510652099
 21
-774.7221886919668
 31
0.0
  0
LINE
  5
E7
330
36
100
AcDbEntity
  8
1
  6
Continuous
 62
     3
100
AcDbLine
 10
-256.7673510652099
 20
-774.7221886919668
 30
0.0
 11
-257.2673510652099
 21
-775.0108638265616
 31
0.0
  0
LINE
  5
E8
330
36
100
AcDbEntity
  8
1
  6
Continuous
 62
     3
100
AcDbLine
 10
-247.7673510652099
 20
-775.7321886919668
 30
0.0
 11
-247.7673510652099
 21
-784.7221886919668
 31
0.0
  0
LINE
  5
E9
330
36
100
AcDbEntity
  8
1
  6
Continuous
 62
     3
100
AcDbLine
 10
-256.1830706398638
 20
-775.7321886919668
 30
0.0
 11
-256.1830706398638
 21
-784.7221886919668
 31
0.0
  0
LINE
  5
EA
330
36
100
AcDbEntity
  8
1
  6
Continuous
 62
     3
100
AcDbLine
 10
-248.2673510652099
 20
-774.7221886919668
 30
0.0
 11
-256.7673510652099
 21
-774.7221886919668
 31
0.0
  0
LINE
  5
EB
330
36
100
AcDbEntity
  8
1
  6
Continuous
 62
     3
100
AcDbLine
 10
-257.2673510652099
 20
-775.7321886919668
 30
0.0
 11
-257.2673510652099
 21
-775.0108638265616
 31
0.0
  0
LINE
  5
EC
330
36
100
AcDbEntity
  8
1
  6
Continuous
 62
     3
100
AcDbLine
 10
-257.2673510652099
 20
-784.7221886919668
 30
0.0
 11
-258.5173510652098
 21
-784.7221886919668
 31
0.0
  0
LINE
  5
ED
330
36
100
AcDbEntity
  8
1
  6
Continuous
 62
     3
100
AcDbLine
 10
-256.1830706398638
 20
-784.7221886919668
 30
0.0
 11
-257.2673510652099
 21
-784.7221886919668
 31
0.0
  0
LINE
  5
EE
330
36
100
AcDbEntity
  8
1
  6
Continuous
 62
     3
100
AcDbLine
 10
-246.5173510652099
 20
-784.7221886919668
 30
0.0
 11
-247.7673510652099
 21
-784.7221886919668
 31
0.0
  0
LINE
  5
EF
330
36
100
AcDbEntity
  8
1
  6
Continuous
 62
     3
100
AcDbLine
 10
-257.2673510652099
 20
-784.7221886919668
 30
0.0
 11
-257.2673510652098
 21
-776.2221886919668
 31
0.0
  0
LINE
  5
F0
330
36
100
AcDbEntity
  8
1
  6
Continuous
 62
     3
100
AcDbLine
 10
-247.7673510652099
 20
-722.972188691967
 30
0.0
 11
-247.7673510652099
 21
-727.6379082666207
 31
0.0
  0
LINE
  5
F1
330
36
100
AcDbEntity
  8
1
  6
DOT_CENTER
 62
     1
100
AcDbLine
 10
-242.91735106521
 20
-723.972188691967
 30
0.0
 11
-262.11735106521
 21
-723.972188691967
 31
0.0
  0
LINE
  5
F2
330
36
100
AcDbEntity
  8
1
  6
Continuous
 62
     3
100
AcDbLine
 10
-257.2673510652099
 20
-727.6379082666207
 30
0.0
 11
-257.2673510652099
 21
-720.3064691173131
 31
0.0
  0
LINE
  5
F3
330
36
100
AcDbEntity
  8
1
  6
Continuous
 62
     3
100
AcDbLine
 10
-247.7673510652099
 20
-720.3064691173131
 30
0.0
 11
-247.7673510652099
 21
-722.972188691967
 31
0.0
  0
LINE
  5
F4
330
36
100
AcDbEntity
  8
1
  6
Continuous
 62
     3
100
AcDbLine
 10
-248.8516314905561
 20
-728.722188691967
 30
0.0
 11
-256.1830706398637
 21
-728.722188691967
 31
0.0
  0
LINE
  5
F5
330
36
100
AcDbEntity
  8
1
  6
Continuous
 62
     3
100
AcDbLine
 10
-256.1830706398637
 20
-719.222188691967
 30
0.0
 11
-248.8516314905561
 21
-719.222188691967
 31
0.0
  0
LINE
  5
F6
330
36
100
AcDbEntity
  8
1
  6
DOT_CENTER
 62
     1
100
AcDbLine
 10
-252.5173510652099
 20
-714.972188691967
 30
0.0
 11
-252.5173510652099
 21
-732.972188691967
 31
0.0
  0
ARC
  5
F7
330
36
100
AcDbEntity
  8
1
  6
Continuous
 62
     3
100
AcDbCircle
 10
-85.51735106520997
 20
-784.6859840330525
 30
0.0
 40
9.675120206490805
100
AcDbArc
 50
67.7356112881421
 51
112.2643887118585
  0
ARC
  5
F8
330
36
100
AcDbEntity
  8
1
  6
Continuous
 62
     3
100
AcDbCircle
 10
-169.0173510652099
 20
-784.6859840330525
 30
0.0
 40
9.675120206490794
100
AcDbArc
 50
67.73561128814225
 51
112.2643887118587
  0
ARC
  5
F9
330
36
100
AcDbEntity
  8
1
  6
Continuous
 62
     3
100
AcDbCircle
 10
-347.329225823906
 20
-784.6859840330525
 30
0.0
 40
9.675120206490828
100
AcDbArc
 50
67.73561128814177
 51
112.2643887118585
  0
ARC
  5
FA
330
36
100
AcDbEntity
  8
1
  6
Continuous
 62
     3
100
AcDbCircle
 10
-252.5173510652099
 20
-784.6859840330525
 30
0.0
 40
9.675120206490794
100
AcDbArc
 50
67.73561128814225
 51
112.2643887118587
  0
CIRCLE
  5
FB
330
36
100
AcDbEntity
  8
1
  6
Continuous
 62
     3
100
AcDbCircle
 10
-252.5173510652099
 20
-723.972188691967
 30
0.0
 40
4.250000000000085
  0
CIRCLE
  5
FC
330
36
100
AcDbEntity
  8
1
  6
Continuous
 62
     3
100
AcDbCircle
 10
-252.5173510652099
 20
-723.972188691967
 30
0.0
 40
5.999999999999941
  0
ENDBLK
  5
38
330
36
100
AcDbEntity
  8
0
100
AcDbBlockEnd
  0
BLOCK
  5
3A
330
39
100
AcDbEntity
  8
0
100
AcDbBlockBegin
  2
Top__1
 70
     0
 71
     0
 10
191.295259154455
 20
-641.434142029035
 30
0.0
  3
Top__1
  1

  0
POINT
  5
FD
330
39
100
AcDbEntity
  8
1
 62
     3
 60
     1
100
AcDbPoint
 10
205.2901699783981
 20
-723.2235798918291
 30
0.0
  0
POINT
  5
FE
330
39
100
AcDbEntity
  8
1
 62
     3
 60
     1
100
AcDbPoint
 10
208.3482234524764
 20
-717.9268759024629
 30
0.0
  0
POINT
  5
FF
330
39
100
AcDbEntity
  8
1
 62
     3
 60
     1
100
AcDbPoint
 10
203.4426491169913
 20
-723.2235798918291
 30
0.0
  0
POINT
  5
100
330
39
100
AcDbEntity
  8
1
 62
     3
 60
     1
100
AcDbPoint
 10
206.5007025910696
 20
-717.9268759024629
 30
0.0
  0
POINT
  5
101
330
39
100
AcDbEntity
  8
1
 62
     3
 60
     1
100
AcDbPoint
 10
336.0284195453118
 20
-612.7574283431131
 30
0.0
  0
POINT
  5
102
330
39
100
AcDbEntity
  8
1
 62
     3
 60
     1
100
AcDbPoint
 10
334.180898683905
 20
-612.7574283431131
 30
0.0
  0
POINT
  5
103
330
39
100
AcDbEntity
  8
1
 62
     3
 60
     1
100
AcDbPoint
 10
337.2389521579833
 20
-607.460724353747
 30
0.0
  0
POINT
  5
104
330
39
100
AcDbEntity
  8
1
 62
     3
 60
     1
100
AcDbPoint
 10
339.0864730193901
 20
-607.460724353747
 30
0.0
  0
POINT
  5
105
330
39
100
AcDbEntity
  8
1
 62
     3
 60
     1
100
AcDbPoint
 10
334.6579224046481
 20
-658.5685715147752
 30
0.0
  0
POINT
  5
106
330
39
100
AcDbEntity
  8
1
 62
     3
 60
     1
100
AcDbPoint
 10
334.6579224046481
 20
-698.032673129913
 30
0.0
  0
LINE
  5
107
330
39
100
AcDbEntity
  8
1
  6
Continuous
 62
     3
100
AcDbLine
 10
-286.6409626903437
 20
-740.4561632881828
 30
0.0
 11
-287.516240365317
 21
-738.9401378843983
 31
0.0
  0
LINE
  5
108
330
39
100
AcDbEntity
  8
1
  6
Continuous
 62
     3
100
AcDbLine
 10
-287.5173510652099
 20
-709.004886874527
 30
0.0
 11
-287.5173510652099
 21
-738.962139809625
 31
0.0
  0
LINE
  5
109
330
39
100
AcDbEntity
  8
1
  6
Continuous
 62
     3
100
AcDbLine
 10
-287.516240365317
 20
-709.0042394995359
 30
0.0
 11
-286.6409626903437
 21
-707.4882140957514
 31
0.0
  0
LINE
  5
10A
330
39
100
AcDbEntity
  8
1
  6
Continuous
 62
     3
100
AcDbLine
 10
-271.9717071225279
 20
-740.4721886919668
 30
0.0
 11
-286.621674190337
 21
-740.4721886919668
 31
0.0
  0
LINE
  5
10B
330
39
100
AcDbEntity
  8
1
  6
Continuous
 62
     3
100
AcDbLine
 10
-272.5173510652099
 20
-723.972188691967
 30
0.0
 11
-284.5305363428315
 21
-723.972188691967
 31
0.0
  0
LINE
  5
10C
330
39
100
AcDbEntity
  8
1
  6
Continuous
 62
     3
100
AcDbLine
 10
-271.9790239046754
 20
-707.4882140957514
 30
0.0
 11
-286.6409626903437
 21
-707.4882140957514
 31
0.0
  0
LINE
  5
10D
330
39
100
AcDbEntity
  8
1
  6
Continuous
 62
     3
100
AcDbLine
 10
-180.0173510652099
 20
-815.5951720381743
 30
0.0
 11
-180.0173510652099
 21
-831.8336448719685
 31
0.0
  0
LINE
  5
10E
330
39
100
AcDbEntity
  8
1
  6
Continuous
 62
     3
100
AcDbLine
 10
-180.0173510652099
 20
-815.5951720381743
 30
0.0
 11
-180.0173510652099
 21
-831.8336448719685
 31
0.0
  0
LINE
  5
10F
330
39
100
AcDbEntity
  8
1
  6
Continuous
 62
     3
100
AcDbLine
 10
-158.0173510652099
 20
-831.8336448719685
 30
0.0
 11
-158.0173510652099
 21
-815.5951720381743
 31
0.0
  0
LINE
  5
110
330
39
100
AcDbEntity
  8
1
  6
Continuous
 62
     3
100
AcDbLine
 10
-233.51735106521
 20
-804.2221886919667
 30
0.0
 11
-232.51735106521
 21
-804.2221886919668
 31
0.0
  0
LINE
  5
111
330
39
100
AcDbEntity
  8
1
  6
Continuous
 62
     3
100
AcDbLine
 10
-230.51735106521
 20
-802.2221886919668
 30
0.0
 11
-230.51735106521
 21
-799.7221886919668
 31
0.0
  0
LINE
  5
112
330
39
100
AcDbEntity
  8
1
  6
DOT_CENTER
 62
     1
100
AcDbLine
 10
-230.51735106521
 20
-849.7221886919668
 30
0.0
 11
-292.8647819778919
 21
-849.7221886919668
 31
0.0
  0
LINE
  5
113
330
39
100
AcDbEntity
  8
1
  6
Continuous
 62
     3
100
AcDbLine
 10
-232.51735106521
 20
-867.2221886919668
 30
0.0
 11
-232.51735106521
 21
-869.6223708490736
 31
0.0
  0
LINE
  5
114
330
39
100
AcDbEntity
  8
1
  6
Continuous
 62
     3
100
AcDbLine
 10
-232.51735106521
 20
-832.2221886919668
 30
0.0
 11
-232.51735106521
 21
-833.2221886919668
 31
0.0
  0
LINE
  5
115
330
39
100
AcDbEntity
  8
1
  6
Continuous
 62
     3
100
AcDbLine
 10
-232.51735106521
 20
-866.2221886919668
 30
0.0
 11
-232.51735106521
 21
-867.2221886919668
 31
0.0
  0
LINE
  5
116
330
39
100
AcDbEntity
  8
1
  6
Continuous
 62
     3
100
AcDbLine
 10
-232.51735106521
 20
-833.2221886919668
 30
0.0
 11
-232.51735106521
 21
-866.2221886919668
 31
0.0
  0
LINE
  5
117
330
39
100
AcDbEntity
  8
1
  6
Continuous
 62
     3
100
AcDbLine
 10
-236.01735106521
 20
-829.7221886919668
 30
0.0
 11
-232.51735106521
 21
-829.7221886919668
 31
0.0
  0
LINE
  5
118
330
39
100
AcDbEntity
  8
1
  6
Continuous
 62
     3
100
AcDbLine
 10
-232.51735106521
 20
-829.7221886919668
 30
0.0
 11
-232.51735106521
 21
-832.2221886919668
 31
0.0
  0
LINE
  5
119
330
39
100
AcDbEntity
  8
1
  6
Continuous
 62
     3
100
AcDbLine
 10
-287.5173510652099
 20
-833.2401378843979
 30
0.0
 11
-287.5173510652099
 21
-866.2061632881823
 31
0.0
  0
LINE
  5
11A
330
39
100
AcDbEntity
  8
1
  6
Continuous
 62
     3
100
AcDbLine
 10
-235.4400007960202
 20
-869.7221886919668
 30
0.0
 11
-235.5333764689944
 21
-869.7221886919668
 31
0.0
  0
LINE
  5
11B
330
39
100
AcDbEntity
  8
1
  6
Continuous
 62
     3
100
AcDbLine
 10
-271.5173510652099
 20
-833.2221886919668
 30
0.0
 11
-271.0592790379692
 21
-833.4866567002025
 31
0.0
  0
LINE
  5
11C
330
39
100
AcDbEntity
  8
1
  6
Continuous
 62
     3
100
AcDbLine
 10
-287.516240365317
 20
-833.2382140957514
 30
0.0
 11
-286.6409626903437
 21
-831.7221886919668
 31
0.0
  0
LINE
  5
11D
330
39
100
AcDbEntity
  8
1
  6
Continuous
 62
     3
100
AcDbLine
 10
-271.0592790379691
 20
-865.9577206837311
 30
0.0
 11
-274.1154272765633
 21
-867.7221886919668
 31
0.0
  0
LINE
  5
11E
330
39
100
AcDbEntity
  8
1
  6
Continuous
 62
     3
100
AcDbLine
 10
-232.51735106521
 20
-869.7221886919668
 30
0.0
 11
-235.4400007960202
 21
-869.7221886919668
 31
0.0
  0
LINE
  5
11F
330
39
100
AcDbEntity
  8
1
  6
Continuous
 62
     3
100
AcDbLine
 10
-236.01735106521
 20
-829.7221886919668
 30
0.0
 11
-236.2170846446199
 21
-829.9219222713767
 31
0.0
  0
LINE
  5
120
330
39
100
AcDbEntity
  8
1
  6
Continuous
 62
     3
100
AcDbLine
 10
-345.3091937210946
 20
-831.835895887039
 30
0.0
 11
-332.8492579267174
 21
-839.0296431720082
 31
0.0
  0
LINE
  5
121
330
39
100
AcDbEntity
  8
1
  6
Continuous
 62
     3
100
AcDbLine
 10
-361.8091937210946
 20
-839.029643172008
 30
0.0
 11
-349.3492579267175
 21
-831.835895887039
 31
0.0
  0
LINE
  5
122
330
39
100
AcDbEntity
  8
1
  6
Continuous
 62
     3
100
AcDbLine
 10
-363.8292258239057
 20
-856.9159359769365
 30
0.0
 11
-363.829225823906
 21
-842.5284414069976
 31
0.0
  0
LINE
  5
123
330
39
100
AcDbEntity
  8
1
  6
Continuous
 62
     3
100
AcDbLine
 10
-349.3492579267169
 20
-867.6084814968946
 30
0.0
 11
-361.8091937210946
 21
-860.4147342119254
 31
0.0
  0
LINE
  5
124
330
39
100
AcDbEntity
  8
1
  6
Continuous
 62
     3
100
AcDbLine
 10
-332.8492579267171
 20
-860.414734211925
 30
0.0
 11
-345.3091937210947
 21
-867.6084814968946
 31
0.0
  0
LINE
  5
125
330
39
100
AcDbEntity
  8
1
  6
Continuous
 62
     3
100
AcDbLine
 10
-330.829225823906
 20
-842.5284414069977
 30
0.0
 11
-330.829225823906
 21
-856.9159359769359
 31
0.0
  0
LINE
  5
126
330
39
100
AcDbEntity
  8
1
  6
Continuous
 62
     3
100
AcDbLine
 10
-286.6409626903437
 20
-831.7221886919668
 30
0.0
 11
-274.1154272765633
 21
-831.7221886919668
 31
0.0
  0
LINE
  5
127
330
39
100
AcDbEntity
  8
1
  6
Continuous
 62
     3
100
AcDbLine
 10
-274.1154272765633
 20
-831.7221886919668
 30
0.0
 11
-271.5173510652099
 21
-833.2221886919668
 31
0.0
  0
LINE
  5
128
330
39
100
AcDbEntity
  8
1
  6
Continuous
 62
     3
100
AcDbLine
 10
-274.1154272765633
 20
-867.7221886919668
 30
0.0
 11
-286.6435534331142
 21
-867.7221886919668
 31
0.0
  0
LINE
  5
129
330
39
100
AcDbEntity
  8
1
  6
Continuous
 62
     3
100
AcDbLine
 10
-286.6435534331142
 20
-867.7221886919668
 30
0.0
 11
-287.5173510652099
 21
-866.2221886919668
 31
0.0
  0
LINE
  5
12A
330
39
100
AcDbEntity
  8
1
  6
DOT_CENTER
 62
     1
100
AcDbLine
 10
-252.5173510652099
 20
-796.7221886919668
 30
0.0
 11
-252.5173510652099
 21
-872.9564850340501
 31
0.0
  0
LINE
  5
12B
330
39
100
AcDbEntity
  8
1
  6
Continuous
 62
     3
100
AcDbLine
 10
-252.5173510652099
 20
-868.7221886919668
 30
0.0
 11
-237.01735106521
 21
-868.7221886919668
 31
0.0
  0
LINE
  5
12C
330
39
100
AcDbEntity
  8
1
  6
Continuous
 62
     3
100
AcDbLine
 10
-232.51735106521
 20
-869.7221886919668
 30
0.0
 11
-236.01735106521
 21
-869.7221886919668
 31
0.0
  0
LINE
  5
12D
330
39
100
AcDbEntity
  8
1
  6
Continuous
 62
     3
100
AcDbLine
 10
-237.01735106521
 20
-868.7221886919668
 30
0.0
 11
-236.01735106521
 21
-869.7221886919668
 31
0.0
  0
LINE
  5
12E
330
39
100
AcDbEntity
  8
1
  6
Continuous
 62
     3
100
AcDbLine
 10
-265.5173510652099
 20
-799.7221886919668
 30
0.0
 11
-239.51735106521
 21
-799.7221886919668
 31
0.0
  0
LINE
  5
12F
330
39
100
AcDbEntity
  8
1
  6
Continuous
 62
     3
100
AcDbLine
 10
-230.51735106521
 20
-799.7221886919668
 30
0.0
 11
-232.51735106521
 21
-799.7221886919668
 31
0.0
  0
LINE
  5
130
330
39
100
AcDbEntity
  8
1
  6
Continuous
 62
     3
100
AcDbLine
 10
-272.5173510652099
 20
-799.7221886919668
 30
0.0
 11
-265.5173510652099
 21
-799.7221886919668
 31
0.0
  0
LINE
  5
131
330
39
100
AcDbEntity
  8
1
  6
Continuous
 62
     3
100
AcDbLine
 10
-263.5173510652099
 20
-815.5951720381743
 30
0.0
 11
-263.5173510652099
 21
-828.7343856281284
 31
0.0
  0
LINE
  5
132
330
39
100
AcDbEntity
  8
1
  6
Continuous
 62
     3
100
AcDbLine
 10
-241.51735106521
 20
-825.7221886919667
 30
0.0
 11
-241.51735106521
 21
-815.5951720381743
 31
0.0
  0
LINE
  5
133
330
39
100
AcDbEntity
  8
1
  6
Continuous
 62
     3
100
AcDbLine
 10
-272.5173510652099
 20
-799.7221886919668
 30
0.0
 11
-272.5173510652099
 21
-803.2221886919667
 31
0.0
  0
LINE
  5
134
330
39
100
AcDbEntity
  8
1
  6
Continuous
 62
     3
100
AcDbLine
 10
-235.5173510652099
 20
-804.2221886919668
 30
0.0
 11
-233.51735106521
 21
-804.2221886919667
 31
0.0
  0
LINE
  5
135
330
39
100
AcDbEntity
  8
1
  6
Continuous
 62
     3
100
AcDbLine
 10
-271.5173510652099
 20
-804.2221886919668
 30
0.0
 11
-269.5173510652099
 21
-804.2221886919667
 31
0.0
  0
LINE
  5
136
330
39
100
AcDbEntity
  8
1
  6
Continuous
 62
     3
100
AcDbLine
 10
-238.51735106521
 20
-811.7221886919668
 30
0.0
 11
-238.51735106521
 21
-807.2221886919668
 31
0.0
  0
LINE
  5
137
330
39
100
AcDbEntity
  8
1
  6
Continuous
 62
     3
100
AcDbLine
 10
-266.5173510652099
 20
-811.7221886919668
 30
0.0
 11
-266.5173510652099
 21
-807.2221886919667
 31
0.0
  0
LINE
  5
138
330
39
100
AcDbEntity
  8
1
  6
Continuous
 62
     3
100
AcDbLine
 10
-232.51735106521
 20
-799.7221886919668
 30
0.0
 11
-239.51735106521
 21
-799.7221886919668
 31
0.0
  0
LINE
  5
139
330
39
100
AcDbEntity
  8
1
  6
Continuous
 62
     3
100
AcDbLine
 10
-232.51735106521
 20
-803.2221886919667
 30
0.0
 11
-232.51735106521
 21
-799.7221886919668
 31
0.0
  0
LINE
  5
13A
330
39
100
AcDbEntity
  8
1
  6
Continuous
 62
     3
100
AcDbLine
 10
-251.3522271930908
 20
-847.7211098316942
 30
0.0
 11
-251.3522271930908
 21
-845.7221886919668
 31
0.0
  0
LINE
  5
13B
330
39
100
AcDbEntity
  8
1
  6
Continuous
 62
     3
100
AcDbLine
 10
-253.7744170826318
 20
-849.7221886919668
 30
0.0
 11
-257.5136564861397
 21
-853.7221886919668
 31
0.0
  0
LINE
  5
13C
330
39
100
AcDbEntity
  8
1
  6
Continuous
 62
     3
100
AcDbLine
 10
-257.5136564861397
 20
-853.7221886919668
 30
0.0
 11
-253.7744170826318
 21
-853.7221886919668
 31
0.0
  0
LINE
  5
13D
330
39
100
AcDbEntity
  8
1
  6
Continuous
 62
     3
100
AcDbLine
 10
-251.3522271930908
 20
-845.7221886919668
 30
0.0
 11
-247.5210456442803
 21
-845.7221886919668
 31
0.0
  0
LINE
  5
13E
330
39
100
AcDbEntity
  8
1
  6
Continuous
 62
     3
100
AcDbLine
 10
-247.5210456442803
 20
-845.7221886919668
 30
0.0
 11
-253.7744170826318
 21
-853.7221886919668
 31
0.0
  0
LINE
  5
13F
330
39
100
AcDbEntity
  8
1
  6
Continuous
 62
     3
100
AcDbLine
 10
-253.7744170826318
 20
-845.7221886919668
 30
0.0
 11
-253.7744170826318
 21
-849.5076166187054
 31
0.0
  0
LINE
  5
140
330
39
100
AcDbEntity
  8
1
  6
Continuous
 62
     3
100
AcDbLine
 10
-253.7744170826318
 20
-849.5076166187054
 30
0.0
 11
-257.5136564861397
 21
-845.7221886919668
 31
0.0
  0
LINE
  5
141
330
39
100
AcDbEntity
  8
1
  6
Continuous
 62
     3
100
AcDbLine
 10
-253.7744170826318
 20
-849.7221886919668
 30
0.0
 11
-253.3533060533634
 21
-849.7221886919668
 31
0.0
  0
LINE
  5
142
330
39
100
AcDbEntity
  8
1
  6
Continuous
 62
     3
100
AcDbLine
 10
-247.5210456442803
 20
-848.7221886919668
 30
0.0
 11
-243.5210456442803
 21
-848.7221886919668
 31
0.0
  0
LINE
  5
143
330
39
100
AcDbEntity
  8
1
  6
Continuous
 62
     3
100
AcDbLine
 10
-243.5210456442803
 20
-848.7221886919668
 30
0.0
 11
-243.5210456442803
 21
-847.2221886919668
 31
0.0
  0
LINE
  5
144
330
39
100
AcDbEntity
  8
1
  6
Continuous
 62
     3
100
AcDbLine
 10
-243.5210456442803
 20
-852.2221886919668
 30
0.0
 11
-243.5210456442803
 21
-850.7221886919668
 31
0.0
  0
LINE
  5
145
330
39
100
AcDbEntity
  8
1
  6
Continuous
 62
     3
100
AcDbLine
 10
-243.5210456442803
 20
-850.7221886919668
 30
0.0
 11
-247.5210456442803
 21
-850.7221886919668
 31
0.0
  0
LINE
  5
146
330
39
100
AcDbEntity
  8
1
  6
Continuous
 62
     3
100
AcDbLine
 10
-257.5136564861397
 20
-850.7221886919668
 30
0.0
 11
-257.5136564861397
 21
-848.7221886919668
 31
0.0
  0
LINE
  5
147
330
39
100
AcDbEntity
  8
1
  6
Continuous
 62
     3
100
AcDbLine
 10
-257.5136564861397
 20
-845.7221886919668
 30
0.0
 11
-253.7744170826318
 21
-845.7221886919668
 31
0.0
  0
LINE
  5
148
330
39
100
AcDbEntity
  8
1
  6
Continuous
 62
     3
100
AcDbLine
 10
-260.51735106521
 20
-860.8531017147769
 30
0.0
 11
-260.51735106521
 21
-859.7179845075851
 31
0.0
  0
LINE
  5
149
330
39
100
AcDbEntity
  8
1
  6
Continuous
 62
     3
100
AcDbLine
 10
-253.9281116617021
 20
-849.7221886919668
 30
0.0
 11
-253.5070006324337
 21
-849.7221886919668
 31
0.0
  0
LINE
  5
14A
330
39
100
AcDbEntity
  8
1
  6
Continuous
 62
     3
100
AcDbLine
 10
-247.5210456442803
 20
-848.7221886919668
 30
0.0
 11
-247.5210456442803
 21
-850.7221886919668
 31
0.0
  0
LINE
  5
14B
330
39
100
AcDbEntity
  8
1
  6
Continuous
 62
     3
100
AcDbLine
 10
-257.5136564861397
 20
-848.7221886919668
 30
0.0
 11
-265.5136564861397
 21
-848.7221886919668
 31
0.0
  0
LINE
  5
14C
330
39
100
AcDbEntity
  8
1
  6
Continuous
 62
     3
100
AcDbLine
 10
-265.5136564861397
 20
-848.7221886919668
 30
0.0
 11
-265.5136564861397
 21
-850.7221886919668
 31
0.0
  0
LINE
  5
14D
330
39
100
AcDbEntity
  8
1
  6
Continuous
 62
     3
100
AcDbLine
 10
-265.5136564861397
 20
-850.7221886919668
 30
0.0
 11
-257.5136564861397
 21
-850.7221886919668
 31
0.0
  0
LINE
  5
14E
330
39
100
AcDbEntity
  8
1
  6
Continuous
 62
     3
100
AcDbLine
 10
-243.5210456442803
 20
-847.2221886919668
 30
0.0
 11
-239.1909186253581
 21
-849.7221886919668
 31
0.0
  0
LINE
  5
14F
330
39
100
AcDbEntity
  8
1
  6
Continuous
 62
     3
100
AcDbLine
 10
-239.1909186253581
 20
-849.7221886919668
 30
0.0
 11
-243.5210456442803
 21
-852.2221886919668
 31
0.0
  0
LINE
  5
150
330
39
100
AcDbEntity
  8
1
  6
Continuous
 62
     3
100
AcDbLine
 10
-235.51735106521
 20
-830.2221886919668
 30
0.0
 11
-235.51735106521
 21
-869.3869698559764
 31
0.0
  0
LINE
  5
151
330
39
100
AcDbEntity
  8
1
  6
Continuous
 62
     3
100
AcDbLine
 10
-237.01735106521
 20
-867.7083118527706
 30
0.0
 11
-237.01735106521
 21
-831.7221886919668
 31
0.0
  0
LINE
  5
152
330
39
100
AcDbEntity
  8
1
  6
Continuous
 62
     3
100
AcDbLine
 10
-273.9814526803478
 20
-840.1959092503379
 30
0.0
 11
-284.5455377069916
 21
-840.1959092503379
 31
0.0
  0
LINE
  5
153
330
39
100
AcDbEntity
  8
1
  6
Continuous
 62
     3
100
AcDbLine
 10
-273.9814526803478
 20
-859.2484681335958
 30
0.0
 11
-284.5455377069916
 21
-859.2484681335958
 31
0.0
  0
LINE
  5
154
330
39
100
AcDbEntity
  8
1
  6
Continuous
 62
     3
100
AcDbLine
 10
-269.5173510652099
 20
-804.2221886919667
 30
0.0
 11
-235.5173510652099
 21
-804.2221886919668
 31
0.0
  0
LINE
  5
155
330
39
100
AcDbEntity
  8
1
  6
Continuous
 62
     3
100
AcDbLine
 10
-265.0173510652099
 20
-813.6586803650706
 30
0.0
 11
-240.01735106521
 21
-813.6586803650705
 31
0.0
  0
LINE
  5
156
330
39
100
AcDbEntity
  8
1
  6
Continuous
 62
     3
100
AcDbLine
 10
-250.5949636389661
 20
-829.8251844684049
 30
0.0
 11
-241.0949636389661
 21
-829.8251844684049
 31
0.0
  0
LINE
  5
157
330
39
100
AcDbEntity
  8
1
  6
Continuous
 62
     3
100
AcDbLine
 10
-262.7242954578131
 20
-830.9506225175018
 30
0.0
 11
-253.7242954578131
 21
-829.9506225175018
 31
0.0
  0
LINE
  5
158
330
39
100
AcDbEntity
  8
1
  6
DOT_CENTER
 62
     1
100
AcDbLine
 10
-292.8647819778919
 20
-723.972188691967
 30
0.0
 11
-210.9611702143378
 21
-723.972188691967
 31
0.0
  0
LINE
  5
159
330
39
100
AcDbEntity
  8
1
  6
Continuous
 62
     3
100
AcDbLine
 10
-272.5173510652099
 20
-723.972188691967
 30
0.0
 11
-272.5173510652099
 21
-709.9721886919671
 31
0.0
  0
LINE
  5
15A
330
39
100
AcDbEntity
  8
1
  6
Continuous
 62
     3
100
AcDbLine
 10
-232.51735106521
 20
-709.9721886919671
 30
0.0
 11
-232.51735106521
 21
-721.1437615672207
 31
0.0
  0
LINE
  5
15B
330
39
100
AcDbEntity
  8
1
  6
Continuous
 62
     3
100
AcDbLine
 10
-272.5173510652099
 20
-737.972188691967
 30
0.0
 11
-272.5173510652099
 21
-723.972188691967
 31
0.0
  0
LINE
  5
15C
330
39
100
AcDbEntity
  8
1
  6
DOT_CENTER
 62
     1
100
AcDbLine
 10
-252.5173510652099
 20
-700.972188691967
 30
0.0
 11
-252.5173510652099
 21
-746.972188691967
 31
0.0
  0
LINE
  5
15D
330
39
100
AcDbEntity
  8
1
  6
Continuous
 62
     3
100
AcDbLine
 10
-232.51735106521
 20
-726.8006158167132
 30
0.0
 11
-232.51735106521
 21
-737.972188691967
 31
0.0
  0
LINE
  5
15E
330
39
100
AcDbEntity
  8
1
  6
Continuous
 62
     3
100
AcDbLine
 10
-270.9946379579691
 20
-833.5247197022683
 30
0.0
 11
-270.9946379579691
 21
-865.9196576816654
 31
0.0
  0
LINE
  5
15F
330
39
100
AcDbEntity
  8
1
  6
Continuous
 62
     3
100
AcDbLine
 10
-67.04006417245083
 20
-865.9196576816654
 30
0.0
 11
-67.04006417245083
 21
-853.2221886919667
 31
0.0
  0
LINE
  5
160
330
39
100
AcDbEntity
  8
1
  6
Continuous
 62
     3
100
AcDbLine
 10
-84.31040667260683
 20
-829.9506225175018
 30
0.0
 11
-75.31040667260683
 21
-830.9506225175018
 31
0.0
  0
LINE
  5
161
330
39
100
AcDbEntity
  8
1
  6
Continuous
 62
     3
100
AcDbLine
 10
-96.93973849145382
 20
-829.8251844684049
 30
0.0
 11
-87.43973849145382
 21
-829.8251844684049
 31
0.0
  0
LINE
  5
162
330
39
100
AcDbEntity
  8
1
  6
Continuous
 62
     3
100
AcDbLine
 10
-98.01735106520997
 20
-813.6586803650706
 30
0.0
 11
-73.01735106520999
 21
-813.6586803650705
 31
0.0
  0
LINE
  5
163
330
39
100
AcDbEntity
  8
1
  6
Continuous
 62
     3
100
AcDbLine
 10
-102.51735106521
 20
-804.2221886919667
 30
0.0
 11
-68.51735106520997
 21
-804.2221886919668
 31
0.0
  0
LINE
  5
164
330
39
100
AcDbEntity
  8
1
  6
Continuous
 62
     3
100
AcDbLine
 10
-53.48916442342826
 20
-859.2484681335958
 30
0.0
 11
-64.05324945007212
 21
-859.2484681335958
 31
0.0
  0
LINE
  5
165
330
39
100
AcDbEntity
  8
1
  6
Continuous
 62
     3
100
AcDbLine
 10
-53.48916442342826
 20
-840.1959092503379
 30
0.0
 11
-64.05324945007212
 21
-840.1959092503379
 31
0.0
  0
LINE
  5
166
330
39
100
AcDbEntity
  8
1
  6
Continuous
 62
     3
100
AcDbLine
 10
-101.0173510652099
 20
-831.7221886919668
 30
0.0
 11
-101.0173510652099
 21
-846.2221886919667
 31
0.0
  0
LINE
  5
167
330
39
100
AcDbEntity
  8
1
  6
Continuous
 62
     3
100
AcDbLine
 10
-102.5173510652099
 20
-869.3869698559764
 30
0.0
 11
-102.5173510652099
 21
-853.2221886919667
 31
0.0
  0
LINE
  5
168
330
39
100
AcDbEntity
  8
1
  6
Continuous
 62
     3
100
AcDbLine
 10
-105.51735106521
 20
-799.7221886919668
 30
0.0
 11
-105.51735106521
 21
-803.2221886919667
 31
0.0
  0
LINE
  5
169
330
39
100
AcDbEntity
  8
1
  6
Continuous
 62
     3
100
AcDbLine
 10
-98.51735106520997
 20
-799.7221886919668
 30
0.0
 11
-105.51735106521
 21
-799.7221886919668
 31
0.0
  0
LINE
  5
16A
330
39
100
AcDbEntity
  8
1
  6
Continuous
 62
     3
100
AcDbLine
 10
-71.51735106520999
 20
-807.2221886919668
 30
0.0
 11
-71.51735106520999
 21
-811.7221886919668
 31
0.0
  0
LINE
  5
16B
330
39
100
AcDbEntity
  8
1
  6
Continuous
 62
     3
100
AcDbLine
 10
-99.51735106520997
 20
-807.2221886919667
 30
0.0
 11
-99.51735106520997
 21
-811.7221886919668
 31
0.0
  0
LINE
  5
16C
330
39
100
AcDbEntity
  8
1
  6
Continuous
 62
     3
100
AcDbLine
 10
-68.51735106520997
 20
-804.2221886919668
 30
0.0
 11
-66.51735106520999
 21
-804.2221886919667
 31
0.0
  0
LINE
  5
16D
330
39
100
AcDbEntity
  8
1
  6
Continuous
 62
     3
100
AcDbLine
 10
-104.51735106521
 20
-804.2221886919668
 30
0.0
 11
-102.51735106521
 21
-804.2221886919667
 31
0.0
  0
LINE
  5
16E
330
39
100
AcDbEntity
  8
1
  6
Continuous
 62
     3
100
AcDbLine
 10
-65.51735106520999
 20
-803.2221886919667
 30
0.0
 11
-65.51735106520999
 21
-799.7221886919668
 31
0.0
  0
LINE
  5
16F
330
39
100
AcDbEntity
  8
1
  6
Continuous
 62
     3
100
AcDbLine
 10
-96.51735106520997
 20
-815.5951720381743
 30
0.0
 11
-96.51735106520994
 21
-825.7221886919667
 31
0.0
  0
LINE
  5
170
330
39
100
AcDbEntity
  8
1
  6
Continuous
 62
     3
100
AcDbLine
 10
-74.51735106520997
 20
-828.7343856281284
 30
0.0
 11
-74.51735106520999
 21
-815.5951720381743
 31
0.0
  0
LINE
  5
171
330
39
100
AcDbEntity
  8
1
  6
Continuous
 62
     3
100
AcDbLine
 10
-72.51735106520999
 20
-799.7221886919668
 30
0.0
 11
-65.51735106520999
 21
-799.7221886919668
 31
0.0
  0
LINE
  5
172
330
39
100
AcDbEntity
  8
1
  6
Continuous
 62
     3
100
AcDbLine
 10
-105.51735106521
 20
-799.7221886919668
 30
0.0
 11
-107.5173510652099
 21
-799.7221886919668
 31
0.0
  0
LINE
  5
173
330
39
100
AcDbEntity
  8
1
  6
Continuous
 62
     3
100
AcDbLine
 10
-98.51735106520997
 20
-799.7221886919668
 30
0.0
 11
-72.51735106520999
 21
-799.7221886919668
 31
0.0
  0
LINE
  5
174
330
39
100
AcDbEntity
  8
1
  6
Continuous
 62
     3
100
AcDbLine
 10
-102.0173510652099
 20
-869.7221886919668
 30
0.0
 11
-101.0173510652099
 21
-868.7221886919668
 31
0.0
  0
LINE
  5
175
330
39
100
AcDbEntity
  8
1
  6
Continuous
 62
     3
100
AcDbLine
 10
-102.0173510652099
 20
-869.7221886919668
 30
0.0
 11
-105.5173510652099
 21
-869.7221886919668
 31
0.0
  0
LINE
  5
176
330
39
100
AcDbEntity
  8
1
  6
Continuous
 62
     3
100
AcDbLine
 10
-101.0173510652099
 20
-868.7221886919668
 30
0.0
 11
-85.51735106520997
 21
-868.7221886919668
 31
0.0
  0
LINE
  5
177
330
39
100
AcDbEntity
  8
1
  6
DOT_CENTER
 62
     1
100
AcDbLine
 10
-85.51735106520997
 20
-872.9564850340501
 30
0.0
 11
-85.51735106520997
 21
-796.7221886919668
 31
0.0
  0
LINE
  5
178
330
39
100
AcDbEntity
  8
1
  6
Continuous
 62
     3
100
AcDbLine
 10
-50.51735106520997
 20
-866.2221886919668
 30
0.0
 11
-51.39114869730574
 21
-867.7221886919668
 31
0.0
  0
LINE
  5
179
330
39
100
AcDbEntity
  8
1
  6
Continuous
 62
     3
100
AcDbLine
 10
-51.39114869730574
 20
-867.7221886919668
 30
0.0
 11
-63.91927485385659
 21
-867.7221886919668
 31
0.0
  0
LINE
  5
17A
330
39
100
AcDbEntity
  8
1
  6
Continuous
 62
     3
100
AcDbLine
 10
-66.51735106520997
 20
-833.2221886919668
 30
0.0
 11
-63.91927485385665
 21
-831.7221886919668
 31
0.0
  0
LINE
  5
17B
330
39
100
AcDbEntity
  8
1
  6
Continuous
 62
     3
100
AcDbLine
 10
-63.91927485385665
 20
-831.7221886919668
 30
0.0
 11
-51.39373944007625
 21
-831.7221886919668
 31
0.0
  0
LINE
  5
17C
330
39
100
AcDbEntity
  8
1
  6
Continuous
 62
     3
100
AcDbLine
 10
-101.8176174858
 20
-829.9219222713767
 30
0.0
 11
-102.0173510652099
 21
-829.7221886919668
 31
0.0
  0
LINE
  5
17D
330
39
100
AcDbEntity
  8
1
  6
Continuous
 62
     3
100
AcDbLine
 10
-102.5947013343997
 20
-869.7221886919668
 30
0.0
 11
-105.5173510652099
 21
-869.7221886919668
 31
0.0
  0
LINE
  5
17E
330
39
100
AcDbEntity
  8
1
  6
Continuous
 62
     3
100
AcDbLine
 10
-63.91927485385659
 20
-867.7221886919668
 30
0.0
 11
-66.97542309245083
 21
-865.9577206837311
 31
0.0
  0
LINE
  5
17F
330
39
100
AcDbEntity
  8
1
  6
Continuous
 62
     3
100
AcDbLine
 10
-51.39373944007625
 20
-831.7221886919668
 30
0.0
 11
-50.51846176510296
 21
-833.2382140957514
 31
0.0
  0
LINE
  5
180
330
39
100
AcDbEntity
  8
1
  6
Continuous
 62
     3
100
AcDbLine
 10
-66.97542309245071
 20
-833.4866567002025
 30
0.0
 11
-66.51735106520997
 21
-833.2221886919668
 31
0.0
  0
LINE
  5
181
330
39
100
AcDbEntity
  8
1
  6
Continuous
 62
     3
100
AcDbLine
 10
-102.5013256614255
 20
-869.7221886919668
 30
0.0
 11
-102.5947013343997
 21
-869.7221886919668
 31
0.0
  0
LINE
  5
182
330
39
100
AcDbEntity
  8
1
  6
Continuous
 62
     3
100
AcDbLine
 10
-50.51735106520997
 20
-866.2061632881823
 30
0.0
 11
-50.51735106520997
 21
-833.2401378843979
 31
0.0
  0
LINE
  5
183
330
39
100
AcDbEntity
  8
1
  6
Continuous
 62
     3
100
AcDbLine
 10
-105.5173510652099
 20
-832.2221886919668
 30
0.0
 11
-105.5173510652099
 21
-829.7221886919668
 31
0.0
  0
LINE
  5
184
330
39
100
AcDbEntity
  8
1
  6
Continuous
 62
     3
100
AcDbLine
 10
-105.5173510652099
 20
-829.7221886919668
 30
0.0
 11
-102.0173510652099
 21
-829.7221886919668
 31
0.0
  0
LINE
  5
185
330
39
100
AcDbEntity
  8
1
  6
Continuous
 62
     3
100
AcDbLine
 10
-105.5173510652099
 20
-866.2221886919668
 30
0.0
 11
-105.5173510652099
 21
-833.2221886919668
 31
0.0
  0
LINE
  5
186
330
39
100
AcDbEntity
  8
1
  6
Continuous
 62
     3
100
AcDbLine
 10
-105.5173510652099
 20
-867.2221886919668
 30
0.0
 11
-105.5173510652099
 21
-866.2221886919668
 31
0.0
  0
LINE
  5
187
330
39
100
AcDbEntity
  8
1
  6
Continuous
 62
     3
100
AcDbLine
 10
-105.5173510652099
 20
-833.2221886919668
 30
0.0
 11
-105.5173510652099
 21
-832.2221886919668
 31
0.0
  0
LINE
  5
188
330
39
100
AcDbEntity
  8
1
  6
Continuous
 62
     3
100
AcDbLine
 10
-105.5173510652099
 20
-869.6223708490736
 30
0.0
 11
-105.5173510652099
 21
-867.2221886919668
 31
0.0
  0
LINE
  5
189
330
39
100
AcDbEntity
  8
1
  6
DOT_CENTER
 62
     1
100
AcDbLine
 10
-45.16992015252797
 20
-849.7221886919668
 30
0.0
 11
-107.5173510652099
 21
-849.7221886919668
 31
0.0
  0
LINE
  5
18A
330
39
100
AcDbEntity
  8
1
  6
Continuous
 62
     3
100
AcDbLine
 10
-107.5173510652099
 20
-799.7221886919668
 30
0.0
 11
-107.5173510652099
 21
-802.2221886919668
 31
0.0
  0
LINE
  5
18B
330
39
100
AcDbEntity
  8
1
  6
Continuous
 62
     3
100
AcDbLine
 10
-105.5173510652099
 20
-804.2221886919668
 30
0.0
 11
-104.51735106521
 21
-804.2221886919668
 31
0.0
  0
LINE
  5
18C
330
39
100
AcDbEntity
  8
1
  6
Continuous
 62
     3
100
AcDbLine
 10
-102.5173510652099
 20
-846.2221886919667
 30
0.0
 11
-67.04006417245083
 21
-846.2221886919667
 31
0.0
  0
LINE
  5
18D
330
39
100
AcDbEntity
  8
1
  6
Continuous
 62
     3
100
AcDbLine
 10
-66.655408500401
 20
-853.2221886919667
 30
0.0
 11
-102.5173510652099
 21
-853.2221886919667
 31
0.0
  0
LINE
  5
18E
330
39
100
AcDbEntity
  8
1
  6
PHANTOM
 62
     3
100
AcDbLine
 10
-66.655408500401
 20
-846.2221886919667
 30
0.0
 11
-66.51735106520994
 21
-846.2221886919667
 31
0.0
  0
LINE
  5
18F
330
39
100
AcDbEntity
  8
1
  6
PHANTOM
 62
     3
100
AcDbLine
 10
-66.51735106520994
 20
-853.2221886919667
 30
0.0
 11
-66.655408500401
 21
-853.2221886919667
 31
0.0
  0
LINE
  5
190
330
39
100
AcDbEntity
  8
1
  6
Continuous
 62
     3
100
AcDbLine
 10
-102.5173510652099
 20
-846.2221886919667
 30
0.0
 11
-102.5173510652099
 21
-830.2221886919668
 31
0.0
  0
LINE
  5
191
330
39
100
AcDbEntity
  8
1
  6
Continuous
 62
     3
100
AcDbLine
 10
-101.0173510652099
 20
-853.2221886919667
 30
0.0
 11
-101.0173510652099
 21
-867.7083118527706
 31
0.0
  0
LINE
  5
192
330
39
100
AcDbEntity
  8
1
  6
Continuous
 62
     3
100
AcDbLine
 10
-67.04006417245083
 20
-846.2221886919667
 30
0.0
 11
-66.655408500401
 21
-846.2221886919667
 31
0.0
  0
LINE
  5
193
330
39
100
AcDbEntity
  8
1
  6
Continuous
 62
     3
100
AcDbLine
 10
-67.04006417245083
 20
-846.2221886919667
 30
0.0
 11
-67.04006417245083
 21
-833.5247197022683
 31
0.0
  0
LINE
  5
194
330
39
100
AcDbEntity
  8
1
  6
Continuous
 62
     3
100
AcDbLine
 10
-359.829225823906
 20
-813.6586803650706
 30
0.0
 11
-334.829225823906
 21
-813.6586803650705
 31
0.0
  0
LINE
  5
195
330
39
100
AcDbEntity
  8
1
  6
Continuous
 62
     3
100
AcDbLine
 10
-364.329225823906
 20
-804.2221886919667
 30
0.0
 11
-330.329225823906
 21
-804.2221886919668
 31
0.0
  0
LINE
  5
196
330
39
100
AcDbEntity
  8
1
  6
Continuous
 62
     3
100
AcDbLine
 10
-327.329225823906
 20
-803.2221886919667
 30
0.0
 11
-327.329225823906
 21
-799.7221886919668
 31
0.0
  0
LINE
  5
197
330
39
100
AcDbEntity
  8
1
  6
Continuous
 62
     3
100
AcDbLine
 10
-327.329225823906
 20
-799.7221886919668
 30
0.0
 11
-334.329225823906
 21
-799.7221886919668
 31
0.0
  0
LINE
  5
198
330
39
100
AcDbEntity
  8
1
  6
Continuous
 62
     3
100
AcDbLine
 10
-361.329225823906
 20
-811.7221886919668
 30
0.0
 11
-361.329225823906
 21
-807.2221886919667
 31
0.0
  0
LINE
  5
199
330
39
100
AcDbEntity
  8
1
  6
Continuous
 62
     3
100
AcDbLine
 10
-333.329225823906
 20
-811.7221886919668
 30
0.0
 11
-333.329225823906
 21
-807.2221886919668
 31
0.0
  0
LINE
  5
19A
330
39
100
AcDbEntity
  8
1
  6
Continuous
 62
     3
100
AcDbLine
 10
-366.329225823906
 20
-804.2221886919668
 30
0.0
 11
-364.329225823906
 21
-804.2221886919667
 31
0.0
  0
LINE
  5
19B
330
39
100
AcDbEntity
  8
1
  6
Continuous
 62
     3
100
AcDbLine
 10
-330.329225823906
 20
-804.2221886919668
 30
0.0
 11
-328.329225823906
 21
-804.2221886919667
 31
0.0
  0
LINE
  5
19C
330
39
100
AcDbEntity
  8
1
  6
Continuous
 62
     3
100
AcDbLine
 10
-367.329225823906
 20
-799.7221886919668
 30
0.0
 11
-367.329225823906
 21
-803.2221886919667
 31
0.0
  0
LINE
  5
19D
330
39
100
AcDbEntity
  8
1
  6
Continuous
 62
     3
100
AcDbLine
 10
-367.329225823906
 20
-799.7221886919668
 30
0.0
 11
-360.329225823906
 21
-799.7221886919668
 31
0.0
  0
LINE
  5
19E
330
39
100
AcDbEntity
  8
1
  6
Continuous
 62
     3
100
AcDbLine
 10
-360.329225823906
 20
-799.7221886919668
 30
0.0
 11
-334.329225823906
 21
-799.7221886919668
 31
0.0
  0
LINE
  5
19F
330
39
100
AcDbEntity
  8
1
  6
Continuous
 62
     3
100
AcDbLine
 10
-358.329225823906
 20
-815.5951720381743
 30
0.0
 11
-358.329225823906
 21
-831.8336448719685
 31
0.0
  0
LINE
  5
1A0
330
39
100
AcDbEntity
  8
1
  6
DOT_CENTER
 62
     1
100
AcDbLine
 10
-347.329225823906
 20
-796.7221886919668
 30
0.0
 11
-347.329225823906
 21
-872.9564850340501
 31
0.0
  0
LINE
  5
1A1
330
39
100
AcDbEntity
  8
1
  6
Continuous
 62
     3
100
AcDbLine
 10
-336.329225823906
 20
-831.8336448719685
 30
0.0
 11
-336.329225823906
 21
-815.5951720381743
 31
0.0
  0
LINE
  5
1A2
330
39
100
AcDbEntity
  8
1
  6
DASH_CENTER
 62
     1
100
AcDbLine
 10
-368.680695421575
 20
-849.7221886919668
 30
0.0
 11
-325.559541483213
 21
-849.7221886919668
 31
0.0
  0
LINE
  5
1A3
330
39
100
AcDbEntity
  8
1
  6
DASH_CENTER
 62
     1
100
AcDbLine
 10
-190.368820662879
 20
-849.7221886919668
 30
0.0
 11
-147.247666724517
 21
-849.7221886919668
 31
0.0
  0
LINE
  5
1A4
330
39
100
AcDbEntity
  8
1
  6
DOT_CENTER
 62
     1
100
AcDbLine
 10
-169.0173510652099
 20
-796.7221886919668
 30
0.0
 11
-169.0173510652099
 21
-872.9564850340501
 31
0.0
  0
LINE
  5
1A5
330
39
100
AcDbEntity
  8
1
  6
Continuous
 62
     3
100
AcDbLine
 10
-182.0173510652099
 20
-799.7221886919668
 30
0.0
 11
-171.0173510652099
 21
-799.7221886919668
 31
0.0
  0
LINE
  5
1A6
330
39
100
AcDbEntity
  8
1
  6
Continuous
 62
     3
100
AcDbLine
 10
-189.0173510652099
 20
-799.7221886919668
 30
0.0
 11
-182.0173510652099
 21
-799.7221886919668
 31
0.0
  0
LINE
  5
1A7
330
39
100
AcDbEntity
  8
1
  6
Continuous
 62
     3
100
AcDbLine
 10
-189.0173510652099
 20
-799.7221886919668
 30
0.0
 11
-189.0173510652099
 21
-803.2221886919667
 31
0.0
  0
LINE
  5
1A8
330
39
100
AcDbEntity
  8
1
  6
Continuous
 62
     3
100
AcDbLine
 10
-152.0173510652099
 20
-804.2221886919668
 30
0.0
 11
-150.0173510652099
 21
-804.2221886919667
 31
0.0
  0
LINE
  5
1A9
330
39
100
AcDbEntity
  8
1
  6
Continuous
 62
     3
100
AcDbLine
 10
-188.0173510652099
 20
-804.2221886919668
 30
0.0
 11
-186.0173510652099
 21
-804.2221886919667
 31
0.0
  0
LINE
  5
1AA
330
39
100
AcDbEntity
  8
1
  6
Continuous
 62
     3
100
AcDbLine
 10
-155.0173510652099
 20
-811.7221886919668
 30
0.0
 11
-155.0173510652099
 21
-807.2221886919668
 31
0.0
  0
LINE
  5
1AB
330
39
100
AcDbEntity
  8
1
  6
Continuous
 62
     3
100
AcDbLine
 10
-183.0173510652099
 20
-811.7221886919668
 30
0.0
 11
-183.0173510652099
 21
-807.2221886919667
 31
0.0
  0
LINE
  5
1AC
330
39
100
AcDbEntity
  8
1
  6
Continuous
 62
     3
100
AcDbLine
 10
-149.0173510652099
 20
-799.7221886919668
 30
0.0
 11
-156.0173510652099
 21
-799.7221886919668
 31
0.0
  0
LINE
  5
1AD
330
39
100
AcDbEntity
  8
1
  6
Continuous
 62
     3
100
AcDbLine
 10
-149.0173510652099
 20
-803.2221886919667
 30
0.0
 11
-149.0173510652099
 21
-799.7221886919668
 31
0.0
  0
LINE
  5
1AE
330
39
100
AcDbEntity
  8
1
  6
Continuous
 62
     3
100
AcDbLine
 10
-186.0173510652099
 20
-804.2221886919667
 30
0.0
 11
-171.0173510652099
 21
-804.2221886919667
 31
0.0
  0
LINE
  5
1AF
330
39
100
AcDbEntity
  8
1
  6
Continuous
 62
     3
100
AcDbLine
 10
-181.5173510652099
 20
-813.6586803650706
 30
0.0
 11
-156.5173510652099
 21
-813.6586803650705
 31
0.0
  0
LINE
  5
1B0
330
39
100
AcDbEntity
  8
1
  6
Continuous
 62
     3
100
AcDbLine
 10
-171.0173510652099
 20
-799.7221886919668
 30
0.0
 11
-171.0173510652099
 21
-804.2221886919667
 31
0.0
  0
LINE
  5
1B1
330
39
100
AcDbEntity
  8
1
  6
Continuous
 62
     3
100
AcDbLine
 10
-171.0173510652099
 20
-799.7221886919668
 30
0.0
 11
-167.0173510652099
 21
-799.7221886919668
 31
0.0
  0
LINE
  5
1B2
330
39
100
AcDbEntity
  8
1
  6
Continuous
 62
     3
100
AcDbLine
 10
-171.0173510652099
 20
-804.2221886919667
 30
0.0
 11
-167.0173510652099
 21
-804.2221886919667
 31
0.0
  0
LINE
  5
1B3
330
39
100
AcDbEntity
  8
1
  6
Continuous
 62
     3
100
AcDbLine
 10
-167.0173510652099
 20
-804.2221886919667
 30
0.0
 11
-167.0173510652099
 21
-799.7221886919668
 31
0.0
  0
LINE
  5
1B4
330
39
100
AcDbEntity
  8
1
  6
Continuous
 62
     3
100
AcDbLine
 10
-167.0173510652099
 20
-799.7221886919668
 30
0.0
 11
-156.0173510652099
 21
-799.7221886919668
 31
0.0
  0
LINE
  5
1B5
330
39
100
AcDbEntity
  8
1
  6
Continuous
 62
     3
100
AcDbLine
 10
-167.0173510652099
 20
-804.2221886919667
 30
0.0
 11
-152.0173510652099
 21
-804.2221886919668
 31
0.0
  0
ARC
  5
1B6
330
39
100
AcDbEntity
  8
1
  6
Continuous
 62
     3
100
AcDbCircle
 10
-282.3254370205177
 20
-719.266735327727
 30
0.0
 40
5.196513675947124
100
AcDbArc
 50
-177.5891225182372
 51
-115.1090251133362
  0
ARC
  5
1B7
330
39
100
AcDbEntity
  8
1
  6
Continuous
 62
     3
100
AcDbCircle
 10
-282.3254370205177
 20
-728.6776420562069
 30
0.0
 40
5.196513675947139
100
AcDbArc
 50
115.1090251133362
 51
177.5891225182372
  0
ARC
  5
1B8
330
39
100
AcDbEntity
  8
1
  6
Continuous
 62
     3
100
AcDbCircle
 10
-153.0173510652099
 20
-831.8336448719685
 30
0.0
 40
5.0
100
AcDbArc
 50
180.0
 51
-164.9332551035221
  0
ARC
  5
1B9
330
39
100
AcDbEntity
  8
1
  6
Continuous
 62
     3
100
AcDbCircle
 10
-185.0173510652099
 20
-831.8336448719685
 30
0.0
 40
5.000000000000001
100
AcDbArc
 50
-15.06674489647793
 51
0.0
  0
ARC
  5
1BA
330
39
100
AcDbEntity
  8
1
  6
Continuous
 62
     3
100
AcDbCircle
 10
-252.5173510652099
 20
-869.7221886919668
 30
0.0
 40
39.00000000000011
100
AcDbArc
 50
111.323686263498
 51
112.7876296962658
  0
ARC
  5
1BB
330
39
100
AcDbEntity
  8
1
  6
Continuous
 62
     3
100
AcDbCircle
 10
-347.329225823906
 20
-849.7221886919668
 30
0.0
 40
18.00000000000006
100
AcDbArc
 50
83.5564643091014
 51
96.44353569089897
  0
ARC
  5
1BC
330
39
100
AcDbEntity
  8
1
  6
Continuous
 62
     3
100
AcDbCircle
 10
-347.329225823906
 20
-849.7221886919668
 30
0.0
 40
17.99999999999995
100
AcDbArc
 50
-156.4435356908969
 51
-143.5564643091016
  0
ARC
  5
1BD
330
39
100
AcDbEntity
  8
1
  6
Continuous
 62
     3
100
AcDbCircle
 10
-347.329225823906
 20
-849.7221886919668
 30
0.0
 40
18.0000000000001
100
AcDbArc
 50
143.5564643091011
 51
156.4435356908982
  0
ARC
  5
1BE
330
39
100
AcDbEntity
  8
1
  6
Continuous
 62
     3
100
AcDbCircle
 10
-347.329225823906
 20
-849.7221886919668
 30
0.0
 40
17.9999999999999
100
AcDbArc
 50
-96.44353569089721
 51
-83.55646430910171
  0
ARC
  5
1BF
330
39
100
AcDbEntity
  8
1
  6
Continuous
 62
     3
100
AcDbCircle
 10
-347.329225823906
 20
-849.7221886919668
 30
0.0
 40
18.00000000000003
100
AcDbArc
 50
23.55646430910147
 51
36.44353569089876
  0
ARC
  5
1C0
330
39
100
AcDbEntity
  8
1
  6
Continuous
 62
     3
100
AcDbCircle
 10
-347.329225823906
 20
-849.7221886919668
 30
0.0
 40
17.99999999999992
100
AcDbArc
 50
-36.44353569089666
 51
-23.55646430910114
  0
ARC
  5
1C1
330
39
100
AcDbEntity
  8
1
  6
Continuous
 62
     3
100
AcDbCircle
 10
-252.5173510652099
 20
-829.7221886919668
 30
0.0
 40
38.99999999999995
100
AcDbArc
 50
-112.7876296962658
 51
-90.0
  0
ARC
  5
1C2
330
39
100
AcDbEntity
  8
1
  6
Continuous
 62
     3
100
AcDbCircle
 10
-270.7629888908995
 20
-849.7221886919668
 30
0.0
 40
16.7543621743104
100
AcDbArc
 50
145.3483859040994
 51
-145.3483859040994
  0
ARC
  5
1C3
330
39
100
AcDbEntity
  8
1
  6
Continuous
 62
     3
100
AcDbCircle
 10
-282.3404383846778
 20
-835.4904558860975
 30
0.0
 40
5.196513675947145
100
AcDbArc
 50
-171.9952523491533
 51
-115.1090251133341
  0
ARC
  5
1C4
330
39
100
AcDbEntity
  8
1
  6
Continuous
 62
     3
100
AcDbCircle
 10
-282.3404383846778
 20
-863.9539214978357
 30
0.0
 40
5.196513675947139
100
AcDbArc
 50
115.1090251133362
 51
177.5891225182372
  0
ARC
  5
1C5
330
39
100
AcDbEntity
  8
1
  6
Continuous
 62
     3
100
AcDbCircle
 10
-276.1865520026617
 20
-835.4904558860975
 30
0.0
 40
5.196513675947599
100
AcDbArc
 50
-64.89097488666477
 51
2.41087748168251
  0
ARC
  5
1C6
330
39
100
AcDbEntity
  8
1
  6
Continuous
 62
     3
100
AcDbCircle
 10
-287.76400149644
 20
-849.7221886919668
 30
0.0
 40
16.75436217431054
100
AcDbArc
 50
-34.65161409590027
 51
34.65161409590027
  0
ARC
  5
1C7
330
39
100
AcDbEntity
  8
1
  6
Continuous
 62
     3
100
AcDbCircle
 10
-276.1865520026617
 20
-863.9539214978357
 30
0.0
 40
5.196513675947254
100
AcDbArc
 50
2.4108774816775
 51
64.89097488666263
  0
ARC
  5
1C8
330
39
100
AcDbEntity
  8
1
  6
Continuous
 62
     3
100
AcDbCircle
 10
-252.5173510652099
 20
-695.9721886919671
 30
0.0
 40
14.00000000000003
100
AcDbArc
 50
-129.6981988405452
 51
-50.30180115945469
  0
ARC
  5
1C9
330
39
100
AcDbEntity
  8
1
  6
Continuous
 62
     3
100
AcDbCircle
 10
-252.5173510652099
 20
-751.972188691967
 30
0.0
 40
13.99999999999991
100
AcDbArc
 50
50.30180115945469
 51
129.6981988405456
  0
ARC
  5
1CA
330
39
100
AcDbEntity
  8
1
  6
Continuous
 62
     3
100
AcDbCircle
 10
-232.51735106521
 20
-723.972188691967
 30
0.0
 40
1.999999999999985
100
AcDbArc
 50
-70.52877936550858
 51
70.52877936550858
  0
ARC
  5
1CB
330
39
100
AcDbEntity
  8
1
  6
Continuous
 62
     3
100
AcDbCircle
 10
-61.8481501277582
 20
-863.9539214978357
 30
0.0
 40
5.196513675947187
100
AcDbArc
 50
115.1090251133374
 51
177.5891225183225
  0
ARC
  5
1CC
330
39
100
AcDbEntity
  8
1
  6
Continuous
 62
     3
100
AcDbCircle
 10
-50.27070063397989
 20
-849.7221886919668
 30
0.0
 40
16.75436217431033
100
AcDbArc
 50
-167.9420547163167
 51
-145.3483859040997
  0
ARC
  5
1CD
330
39
100
AcDbEntity
  8
1
  6
Continuous
 62
     3
100
AcDbCircle
 10
-61.8481501277582
 20
-835.4904558860975
 30
0.0
 40
5.196513675947273
100
AcDbArc
 50
177.5891225183175
 51
-115.1090251133353
  0
ARC
  5
1CE
330
39
100
AcDbEntity
  8
1
  6
Continuous
 62
     3
100
AcDbCircle
 10
-55.69426374574206
 20
-863.9539214978357
 30
0.0
 40
5.196513675947132
100
AcDbArc
 50
2.41087748176287
 51
64.89097488666369
  0
ARC
  5
1CF
330
39
100
AcDbEntity
  8
1
  6
Continuous
 62
     3
100
AcDbCircle
 10
-55.69426374574206
 20
-835.4904558860975
 30
0.0
 40
5.196513675947553
100
AcDbArc
 50
-64.89097488666582
 51
-8.00474765084665
  0
ARC
  5
1D0
330
39
100
AcDbEntity
  8
1
  6
Continuous
 62
     3
100
AcDbCircle
 10
-67.27171323952044
 20
-849.7221886919668
 30
0.0
 40
16.7543621743105
100
AcDbArc
 50
-34.65161409590037
 51
34.65161409590037
  0
ARC
  5
1D1
330
39
100
AcDbEntity
  8
1
  6
Continuous
 62
     3
100
AcDbCircle
 10
-85.51735106520997
 20
-829.7221886919668
 30
0.0
 40
39.0
100
AcDbArc
 50
-90.0
 51
-67.21237030373429
  0
ARC
  5
1D2
330
39
100
AcDbEntity
  8
1
  6
Continuous
 62
     3
100
AcDbCircle
 10
-85.51735106520997
 20
-869.7221886919668
 30
0.0
 40
39.00000000000002
100
AcDbArc
 50
67.21237030373436
 51
68.67631373650204
  0
ARC
  5
1D3
330
39
100
AcDbEntity
  8
1
  6
Continuous
 62
     3
100
AcDbCircle
 10
-50.27070063397989
 20
-849.7221886919668
 30
0.0
 40
16.75436217431054
100
AcDbArc
 50
145.3483859040997
 51
167.9420547163159
  0
ARC
  5
1D4
330
39
100
AcDbEntity
  8
1
  6
Continuous
 62
     3
100
AcDbCircle
 10
-331.329225823906
 20
-831.8336448719685
 30
0.0
 40
5.0
100
AcDbArc
 50
180.0
 51
-131.8103148957782
  0
ARC
  5
1D5
330
39
100
AcDbEntity
  8
1
  6
Continuous
 62
     3
100
AcDbCircle
 10
-347.329225823906
 20
-849.7221886919668
 30
0.0
 40
19.0
100
AcDbArc
 50
180.0
 51
48.18968510422125
  0
ARC
  5
1D6
330
39
100
AcDbEntity
  8
1
  6
Continuous
 62
     3
100
AcDbCircle
 10
-347.329225823906
 20
-849.7221886919668
 30
0.0
 40
19.00000000000001
100
AcDbArc
 50
131.8103148957789
 51
180.0
  0
ARC
  5
1D7
330
39
100
AcDbEntity
  8
1
  6
Continuous
 62
     3
100
AcDbCircle
 10
-363.329225823906
 20
-831.8336448719685
 30
0.0
 40
4.99999999999997
100
AcDbArc
 50
-48.18968510422226
 51
0.0
  0
ARC
  5
1D8
330
39
100
AcDbEntity
  8
1
  6
Continuous
 62
     3
100
AcDbCircle
 10
-347.329225823906
 20
-849.7221886919668
 30
0.0
 40
18.99999999999997
100
AcDbArc
 50
48.18968510422125
 51
131.8103148957789
  0
CIRCLE
  5
1D9
330
39
100
AcDbEntity
  8
1
  6
Continuous
 62
     3
100
AcDbCircle
 10
-347.329225823906
 20
-849.7221886919668
 30
0.0
 40
16.5
  0
CIRCLE
  5
1DA
330
39
100
AcDbEntity
  8
1
  6
Continuous
 62
     1
100
AcDbCircle
 10
-347.329225823906
 20
-849.7221886919668
 30
0.0
 40
13.36294291552417
  0
CIRCLE
  5
1DB
330
39
100
AcDbEntity
  8
1
  6
Continuous
 62
     3
100
AcDbCircle
 10
-347.329225823906
 20
-849.7221886919668
 30
0.0
 40
11.76937548629138
  0
CIRCLE
  5
1DC
330
39
100
AcDbEntity
  8
1
  6
Continuous
 62
     3
100
AcDbCircle
 10
-238.375215441479
 20
-709.830053068236
 30
0.0
 40
2.5
  0
CIRCLE
  5
1DD
330
39
100
AcDbEntity
  8
1
  6
Continuous
 62
     3
100
AcDbCircle
 10
-238.375215441479
 20
-738.1143243156979
 30
0.0
 40
2.5
  0
CIRCLE
  5
1DE
330
39
100
AcDbEntity
  8
1
  6
Continuous
 62
     3
100
AcDbCircle
 10
-266.659486688941
 20
-709.830053068236
 30
0.0
 40
2.5
  0
CIRCLE
  5
1DF
330
39
100
AcDbEntity
  8
1
  6
Continuous
 62
     3
100
AcDbCircle
 10
-266.659486688941
 20
-738.1143243156979
 30
0.0
 40
2.5
  0
ARC
  5
1E0
330
39
100
AcDbEntity
  8
1
  6
Continuous
 62
     3
100
AcDbCircle
 10
-232.51735106521
 20
-802.2221886919668
 30
0.0
 40
2.0
100
AcDbArc
 50
-90.0
 51
0.0
  0
ARC
  5
1E1
330
39
100
AcDbEntity
  8
1
  6
Continuous
 62
     3
100
AcDbCircle
 10
-236.51735106521
 20
-825.7221886919667
 30
0.0
 40
5.0
100
AcDbArc
 50
180.0
 51
-111.7967836714544
  0
ARC
  5
1E2
330
39
100
AcDbEntity
  8
1
  6
Continuous
 62
     3
100
AcDbCircle
 10
-237.6312982069931
 20
-828.5077087090037
 30
0.0
 40
2.0
100
AcDbArc
 50
-111.7967836714547
 51
-44.9999999999954
  0
ARC
  5
1E3
330
39
100
AcDbEntity
  8
1
  6
Continuous
 62
     3
100
AcDbCircle
 10
-268.5173510652099
 20
-828.7343856281284
 30
0.0
 40
4.999999999999921
100
AcDbArc
 50
-68.67631373650319
 51
0.0
  0
ARC
  5
1E4
330
39
100
AcDbEntity
  8
1
  6
Continuous
 62
     3
100
AcDbCircle
 10
-269.0592790379691
 20
-830.1640462264685
 30
0.0
 40
3.878110411033632
100
AcDbArc
 50
-121.0452635539799
 51
-68.25763385771481
  0
ARC
  5
1E5
330
39
100
AcDbEntity
  8
1
  6
Continuous
 62
     3
100
AcDbCircle
 10
-269.0592790379691
 20
-869.2803311574651
 30
0.0
 40
3.878110411033571
100
AcDbArc
 50
68.25763385771481
 51
121.0452635539785
  0
ARC
  5
1E6
330
39
100
AcDbEntity
  8
1
  6
Continuous
 62
     3
100
AcDbCircle
 10
-271.5173510652099
 20
-803.2221886919667
 30
0.0
 40
1.0
100
AcDbArc
 50
180.0
 51
-90.0
  0
ARC
  5
1E7
330
39
100
AcDbEntity
  8
1
  6
Continuous
 62
     3
100
AcDbCircle
 10
-233.51735106521
 20
-803.2221886919667
 30
0.0
 40
1.0
100
AcDbArc
 50
-90.0
 51
0.0
  0
ARC
  5
1E8
330
39
100
AcDbEntity
  8
1
  6
Continuous
 62
     3
100
AcDbCircle
 10
-264.5173510652099
 20
-811.7221886919668
 30
0.0
 40
2.0
100
AcDbArc
 50
180.0
 51
-104.4775121859295
  0
ARC
  5
1E9
330
39
100
AcDbEntity
  8
1
  6
Continuous
 62
     3
100
AcDbCircle
 10
-265.5173510652099
 20
-815.5951720381743
 30
0.0
 40
2.0
100
AcDbArc
 50
0.0
 51
75.52248781406973
  0
ARC
  5
1EA
330
39
100
AcDbEntity
  8
1
  6
Continuous
 62
     3
100
AcDbCircle
 10
-240.51735106521
 20
-811.7221886919668
 30
0.0
 40
1.999999999999953
100
AcDbArc
 50
-75.52248781406973
 51
0.0
  0
ARC
  5
1EB
330
39
100
AcDbEntity
  8
1
  6
Continuous
 62
     3
100
AcDbCircle
 10
-239.51735106521
 20
-815.5951720381743
 30
0.0
 40
2.000000000000063
100
AcDbArc
 50
104.4775121859295
 51
180.0
  0
ARC
  5
1EC
330
39
100
AcDbEntity
  8
1
  6
Continuous
 62
     3
100
AcDbCircle
 10
-235.51735106521
 20
-807.2221886919668
 30
0.0
 40
3.0
100
AcDbArc
 50
89.99999999999837
 51
180.0
  0
ARC
  5
1ED
330
39
100
AcDbEntity
  8
1
  6
Continuous
 62
     3
100
AcDbCircle
 10
-269.5173510652099
 20
-807.2221886919667
 30
0.0
 40
3.0
100
AcDbArc
 50
0.0
 51
90.0
  0
ARC
  5
1EE
330
39
100
AcDbEntity
  8
1
  6
Continuous
 62
     3
100
AcDbCircle
 10
-253.3533060533634
 20
-847.7211098316942
 30
0.0
 40
2.001078860272628
100
AcDbArc
 50
-90.0
 51
0.0
  0
ARC
  5
1EF
330
39
100
AcDbEntity
  8
1
  6
Continuous
 62
     3
100
AcDbCircle
 10
-266.5173510652099
 20
-737.972188691967
 30
0.0
 40
6.0
100
AcDbArc
 50
180.0
 51
-90.0
  0
ARC
  5
1F0
330
39
100
AcDbEntity
  8
1
  6
Continuous
 62
     3
100
AcDbCircle
 10
-266.5173510652099
 20
-709.9721886919671
 30
0.0
 40
5.99999999999996
100
AcDbArc
 50
32.54901099750765
 51
90.0
  0
ARC
  5
1F1
330
39
100
AcDbEntity
  8
1
  6
Continuous
 62
     3
100
AcDbCircle
 10
-238.51735106521
 20
-737.972188691967
 30
0.0
 40
6.000000000000021
100
AcDbArc
 50
-147.4509890024914
 51
0.0
  0
ARC
  5
1F2
330
39
100
AcDbEntity
  8
1
  6
Continuous
 62
     3
100
AcDbCircle
 10
-266.5173510652099
 20
-737.972188691967
 30
0.0
 40
6.0
100
AcDbArc
 50
-90.0
 51
-32.54901099750824
  0
ARC
  5
1F3
330
39
100
AcDbEntity
  8
1
  6
Continuous
 62
     3
100
AcDbCircle
 10
-266.5173510652099
 20
-709.9721886919671
 30
0.0
 40
6.0
100
AcDbArc
 50
90.0
 51
180.0
  0
ARC
  5
1F4
330
39
100
AcDbEntity
  8
1
  6
Continuous
 62
     3
100
AcDbCircle
 10
-238.51735106521
 20
-709.9721886919671
 30
0.0
 40
6.0
100
AcDbArc
 50
0.0
 51
147.4509890024914
  0
ARC
  5
1F5
330
39
100
AcDbEntity
  8
1
  6
Continuous
 62
     3
100
AcDbCircle
 10
-231.51735106521
 20
-721.1437615672207
 30
0.0
 40
1.0
100
AcDbArc
 50
180.0
 51
-109.4712206344888
  0
ARC
  5
1F6
330
39
100
AcDbEntity
  8
1
  6
Continuous
 62
     3
100
AcDbCircle
 10
-231.51735106521
 20
-726.8006158167132
 30
0.0
 40
1.000000000000036
100
AcDbArc
 50
109.4712206344888
 51
180.0
  0
ARC
  5
1F7
330
39
100
AcDbEntity
  8
1
  6
Continuous
 62
     3
100
AcDbCircle
 10
-68.51735106520997
 20
-807.2221886919667
 30
0.0
 40
2.999999999999886
100
AcDbArc
 50
90.0
 51
-179.9999999999978
  0
ARC
  5
1F8
330
39
100
AcDbEntity
  8
1
  6
Continuous
 62
     3
100
AcDbCircle
 10
-102.51735106521
 20
-807.2221886919667
 30
0.0
 40
3.000000000000028
100
AcDbArc
 50
0.0
 51
90.0
  0
ARC
  5
1F9
330
39
100
AcDbEntity
  8
1
  6
Continuous
 62
     3
100
AcDbCircle
 10
-98.51735106520994
 20
-815.5951720381743
 30
0.0
 40
1.999999999999972
100
AcDbArc
 50
0.0
 51
75.52248781407053
  0
ARC
  5
1FA
330
39
100
AcDbEntity
  8
1
  6
Continuous
 62
     3
100
AcDbCircle
 10
-97.51735106520994
 20
-811.7221886919668
 30
0.0
 40
2.000000000000028
100
AcDbArc
 50
180.0
 51
-104.4775121859303
  0
ARC
  5
1FB
330
39
100
AcDbEntity
  8
1
  6
Continuous
 62
     3
100
AcDbCircle
 10
-72.51735106520999
 20
-815.5951720381743
 30
0.0
 40
2.000000000000063
100
AcDbArc
 50
104.4775121859295
 51
180.0
  0
ARC
  5
1FC
330
39
100
AcDbEntity
  8
1
  6
Continuous
 62
     3
100
AcDbCircle
 10
-73.51735106520999
 20
-811.7221886919668
 30
0.0
 40
1.999999999999953
100
AcDbArc
 50
-75.52248781406973
 51
0.0
  0
ARC
  5
1FD
330
39
100
AcDbEntity
  8
1
  6
Continuous
 62
     3
100
AcDbCircle
 10
-104.5173510652099
 20
-803.2221886919667
 30
0.0
 40
1.0000000000001
100
AcDbArc
 50
180.0
 51
-90.0000000000057
  0
ARC
  5
1FE
330
39
100
AcDbEntity
  8
1
  6
Continuous
 62
     3
100
AcDbCircle
 10
-66.51735106520999
 20
-803.2221886919667
 30
0.0
 40
1.0
100
AcDbArc
 50
-90.0
 51
0.0
  0
ARC
  5
1FF
330
39
100
AcDbEntity
  8
1
  6
Continuous
 62
     3
100
AcDbCircle
 10
-68.97542309245077
 20
-869.2803311574651
 30
0.0
 40
3.878110411033544
100
AcDbArc
 50
58.95473644602227
 51
111.7423661422868
  0
ARC
  5
200
330
39
100
AcDbEntity
  8
1
  6
Continuous
 62
     3
100
AcDbCircle
 10
-68.97542309245077
 20
-830.1640462264685
 30
0.0
 40
3.878110411033613
100
AcDbArc
 50
-111.7423661422868
 51
-58.95473644602083
  0
ARC
  5
201
330
39
100
AcDbEntity
  8
1
  6
Continuous
 62
     3
100
AcDbCircle
 10
-69.51735106520997
 20
-828.7343856281284
 30
0.0
 40
5.0
100
AcDbArc
 50
180.0
 51
-111.3236862634974
  0
ARC
  5
202
330
39
100
AcDbEntity
  8
1
  6
Continuous
 62
     3
100
AcDbCircle
 10
-100.4034039234269
 20
-828.5077087090037
 30
0.0
 40
1.999999999999936
100
AcDbArc
 50
-135.0000000000023
 51
-68.20321632854416
  0
ARC
  5
203
330
39
100
AcDbEntity
  8
1
  6
Continuous
 62
     3
100
AcDbCircle
 10
-101.5173510652099
 20
-825.7221886919667
 30
0.0
 40
5.000000000000084
100
AcDbArc
 50
-68.20321632854638
 51
0.0
  0
ARC
  5
204
330
39
100
AcDbEntity
  8
1
  6
Continuous
 62
     3
100
AcDbCircle
 10
-105.5173510652099
 20
-802.2221886919668
 30
0.0
 40
2.0
100
AcDbArc
 50
180.0
 51
-90.0
  0
ARC
  5
205
330
39
100
AcDbEntity
  8
1
  6
Continuous
 62
     3
100
AcDbCircle
 10
-364.329225823906
 20
-807.2221886919667
 30
0.0
 40
3.0
100
AcDbArc
 50
0.0
 51
90.0
  0
ARC
  5
206
330
39
100
AcDbEntity
  8
1
  6
Continuous
 62
     3
100
AcDbCircle
 10
-330.329225823906
 20
-807.2221886919668
 30
0.0
 40
3.0
100
AcDbArc
 50
90.0
 51
180.0
  0
ARC
  5
207
330
39
100
AcDbEntity
  8
1
  6
Continuous
 62
     3
100
AcDbCircle
 10
-334.329225823906
 20
-815.5951720381743
 30
0.0
 40
2.000000000000063
100
AcDbArc
 50
104.4775121859295
 51
180.0
  0
ARC
  5
208
330
39
100
AcDbEntity
  8
1
  6
Continuous
 62
     3
100
AcDbCircle
 10
-335.329225823906
 20
-811.7221886919668
 30
0.0
 40
1.999999999999953
100
AcDbArc
 50
-75.52248781406973
 51
0.0
  0
ARC
  5
209
330
39
100
AcDbEntity
  8
1
  6
Continuous
 62
     3
100
AcDbCircle
 10
-360.329225823906
 20
-815.5951720381743
 30
0.0
 40
2.0
100
AcDbArc
 50
0.0
 51
75.52248781406973
  0
ARC
  5
20A
330
39
100
AcDbEntity
  8
1
  6
Continuous
 62
     3
100
AcDbCircle
 10
-359.329225823906
 20
-811.7221886919668
 30
0.0
 40
2.0
100
AcDbArc
 50
180.0
 51
-104.4775121859295
  0
ARC
  5
20B
330
39
100
AcDbEntity
  8
1
  6
Continuous
 62
     3
100
AcDbCircle
 10
-328.329225823906
 20
-803.2221886919667
 30
0.0
 40
1.0
100
AcDbArc
 50
-90.0
 51
0.0
  0
ARC
  5
20C
330
39
100
AcDbEntity
  8
1
  6
Continuous
 62
     3
100
AcDbCircle
 10
-366.329225823906
 20
-803.2221886919667
 30
0.0
 40
1.0
100
AcDbArc
 50
180.0
 51
-90.0
  0
ARC
  5
20D
330
39
100
AcDbEntity
  8
1
  6
Continuous
 62
     3
100
AcDbCircle
 10
-188.0173510652099
 20
-803.2221886919667
 30
0.0
 40
1.0
100
AcDbArc
 50
180.0
 51
-90.0
  0
ARC
  5
20E
330
39
100
AcDbEntity
  8
1
  6
Continuous
 62
     3
100
AcDbCircle
 10
-150.0173510652099
 20
-803.2221886919667
 30
0.0
 40
1.0
100
AcDbArc
 50
-90.0
 51
0.0
  0
ARC
  5
20F
330
39
100
AcDbEntity
  8
1
  6
Continuous
 62
     3
100
AcDbCircle
 10
-181.0173510652099
 20
-811.7221886919668
 30
0.0
 40
2.0
100
AcDbArc
 50
180.0
 51
-104.4775121859295
  0
ARC
  5
210
330
39
100
AcDbEntity
  8
1
  6
Continuous
 62
     3
100
AcDbCircle
 10
-182.0173510652099
 20
-815.5951720381743
 30
0.0
 40
2.0
100
AcDbArc
 50
0.0
 51
75.52248781406973
  0
ARC
  5
211
330
39
100
AcDbEntity
  8
1
  6
Continuous
 62
     3
100
AcDbCircle
 10
-157.0173510652099
 20
-811.7221886919668
 30
0.0
 40
1.999999999999953
100
AcDbArc
 50
-75.52248781406973
 51
0.0
  0
ARC
  5
212
330
39
100
AcDbEntity
  8
1
  6
Continuous
 62
     3
100
AcDbCircle
 10
-156.0173510652099
 20
-815.5951720381743
 30
0.0
 40
2.000000000000063
100
AcDbArc
 50
104.4775121859295
 51
180.0
  0
ARC
  5
213
330
39
100
AcDbEntity
  8
1
  6
Continuous
 62
     3
100
AcDbCircle
 10
-152.0173510652099
 20
-807.2221886919668
 30
0.0
 40
3.0
100
AcDbArc
 50
90.0
 51
180.0
  0
ARC
  5
214
330
39
100
AcDbEntity
  8
1
  6
Continuous
 62
     3
100
AcDbCircle
 10
-186.0173510652099
 20
-807.2221886919667
 30
0.0
 40
3.0
100
AcDbArc
 50
0.0
 51
90.0
  0
MTEXT
  5
216
330
39
100
AcDbEntity
  8
1
 62
     3
100
AcDbMText
 10
-252.51735106521
 20
-855.7221886919668
 30
0.0
 40
5.0
 41
0.0
 71
     2
 72
     1
  1
PN16
  7
CONVERTER_2
 73
     1
 44
0.84033613445378
  0
MTEXT
  5
218
330
39
100
AcDbEntity
  8
1
 62
     3
100
AcDbMText
 10
-252.51735106521
 20
-843.7221886919668
 30
0.0
 40
5.0
 41
0.0
 71
     8
 72
     1
  1
20
  7
CONVERTER_3
 73
     1
 44
0.84033613445378
  0
TEXT
  5
21A
330
39
100
AcDbEntity
  8
1
 62
     1
100
AcDbText
 10
-103.7581120587798
 20
-851.5590145042015
 30
0.0
 40
4.0
  1
VY5302A0022
 41
0.855
  7
CONVERTER_4
100
AcDbText
  0
ENDBLK
  5
3B
330
39
100
AcDbEntity
  8
0
100
AcDbBlockEnd
  0
BLOCK
  5
3D
330
3C
100
AcDbEntity
  8
0
100
AcDbBlockBegin
  2
Top__2
 70
     0
 71
     0
 10
289.9186979232371
 20
-1441.125607189241
 30
0.0
  3
Top__2
  1

  0
LINE
  5
21B
330
3C
100
AcDbEntity
  8
1
  6
Continuous
 62
     3
100
AcDbLine
 10
-236.0173510652099
 20
-744.7221886919668
 30
0.0
 11
-236.9702433598177
 21
-743.769296397359
 31
0.0
  0
LINE
  5
21C
330
3C
100
AcDbEntity
  8
1
  6
Continuous
 62
     3
100
AcDbLine
 10
-233.5173510652099
 20
-744.7221886919668
 30
0.0
 11
-236.0173510652099
 21
-744.7221886919668
 31
0.0
  0
LINE
  5
21D
330
3C
100
AcDbEntity
  8
1
  6
Continuous
 62
     3
100
AcDbLine
 10
-232.51735106521
 20
-703.4901378843979
 30
0.0
 11
-232.51735106521
 21
-744.4542394995358
 31
0.0
  0
LINE
  5
21E
330
3C
100
AcDbEntity
  8
1
  6
Continuous
 62
     3
100
AcDbLine
 10
-241.8339758555655
 20
-742.9721886919668
 30
0.0
 11
-252.5173510652099
 21
-742.9721886919668
 31
0.0
  0
LINE
  5
21F
330
3C
100
AcDbEntity
  8
1
  6
Continuous
 62
     3
100
AcDbLine
 10
-252.5173510652099
 20
-704.9721886919671
 30
0.0
 11
-241.8339758555655
 21
-704.9721886919671
 31
0.0
  0
LINE
  5
220
330
3C
100
AcDbEntity
  8
1
  6
Continuous
 62
     3
100
AcDbLine
 10
-236.0173510652099
 20
-703.2221886919671
 30
0.0
 11
-233.5173510652099
 21
-703.2221886919671
 31
0.0
  0
LINE
  5
221
330
3C
100
AcDbEntity
  8
1
  6
Continuous
 62
     3
100
AcDbLine
 10
-236.9702433598177
 20
-704.1750809865749
 30
0.0
 11
-236.0173510652099
 21
-703.2221886919671
 31
0.0
  0
ARC
  5
222
330
3C
100
AcDbEntity
  8
1
  6
Continuous
 62
     3
100
AcDbCircle
 10
-252.5173510652099
 20
-703.9721886919668
 30
0.0
 40
39.00000000000004
100
AcDbArc
 50
-92.77000562462182
 51
-92.38906358237689
  0
ARC
  5
223
330
3C
100
AcDbEntity
  8
1
  6
Continuous
 62
     3
100
AcDbCircle
 10
-252.5173510652099
 20
-703.9721886919668
 30
0.0
 40
39.00000000000011
100
AcDbArc
 50
-103.9449412984128
 51
-92.77000562462182
  0
ARC
  5
224
330
3C
100
AcDbEntity
  8
1
  6
Continuous
 62
     3
100
AcDbCircle
 10
-252.5173510652099
 20
-703.9721886919668
 30
0.0
 40
39.00000000000004
100
AcDbArc
 50
-92.38906358237689
 51
-90.0
  0
ARC
  5
225
330
3C
100
AcDbEntity
  8
1
  6
Continuous
 62
     3
100
AcDbCircle
 10
-252.5173510652099
 20
-743.9721886919671
 30
0.0
 40
39.00000000000004
100
AcDbArc
 50
92.77000562462182
 51
103.9449412984128
  0
ARC
  5
226
330
3C
100
AcDbEntity
  8
1
  6
Continuous
 62
     3
100
AcDbCircle
 10
-252.5173510652099
 20
-743.9721886919671
 30
0.0
 40
39.0
100
AcDbArc
 50
90.0
 51
92.38906358237689
  0
ARC
  5
227
330
3C
100
AcDbEntity
  8
1
  6
Continuous
 62
     3
100
AcDbCircle
 10
-252.5173510652099
 20
-743.9721886919671
 30
0.0
 40
39.0
100
AcDbArc
 50
90.0
 51
92.38906358237689
  0
ARC
  5
228
330
3C
100
AcDbEntity
  8
1
  6
Continuous
 62
     3
100
AcDbCircle
 10
-252.5173510652099
 20
-743.9721886919671
 30
0.0
 40
39.00000000000004
100
AcDbArc
 50
92.38906358237689
 51
92.77000562462182
  0
ARC
  5
229
330
3C
100
AcDbEntity
  8
1
  6
Continuous
 62
     3
100
AcDbCircle
 10
-233.5173510652099
 20
-742.7221886919668
 30
0.0
 40
2.0
100
AcDbArc
 50
-90.0
 51
-60.00000000000321
  0
ARC
  5
22A
330
3C
100
AcDbEntity
  8
1
  6
Continuous
 62
     3
100
AcDbCircle
 10
-233.5173510652099
 20
-705.2221886919671
 30
0.0
 40
2.00000000000022
100
AcDbArc
 50
60.00000000000646
 51
90.0
  0
ENDBLK
  5
3E
330
3C
100
AcDbEntity
  8
0
100
AcDbBlockEnd
  0
BLOCK
  5
40
330
3F
100
AcDbEntity
  8
0
100
AcDbBlockBegin
  2
Top__3
 70
     0
 71
     0
 10
-107.146110475367
 20
-1364.9345809027
 30
0.0
  3
Top__3
  1

  0
LINE
  5
22B
330
3F
100
AcDbEntity
  8
1
  6
Continuous
 62
     3
100
AcDbLine
 10
-215.51735106521
 20
-738.9542394995356
 30
0.0
 11
-215.51735106521
 21
-708.9901378843981
 31
0.0
  0
LINE
  5
22C
330
3F
100
AcDbEntity
  8
1
  6
Continuous
 62
     3
100
AcDbLine
 10
-216.3937394400763
 20
-740.4721886919667
 30
0.0
 11
-227.51735106521
 21
-740.472188691967
 31
0.0
  0
LINE
  5
22D
330
3F
100
AcDbEntity
  8
1
  6
Continuous
 62
     3
100
AcDbLine
 10
-215.51735106521
 20
-738.9542394995356
 30
0.0
 11
-216.3937394400763
 21
-740.4721886919667
 31
0.0
  0
LINE
  5
22E
330
3F
100
AcDbEntity
  8
1
  6
Continuous
 62
     3
100
AcDbLine
 10
-216.3937394400763
 20
-707.472188691967
 30
0.0
 11
-227.51735106521
 21
-707.472188691967
 31
0.0
  0
LINE
  5
22F
330
3F
100
AcDbEntity
  8
1
  6
Continuous
 62
     3
100
AcDbLine
 10
-216.3937394400763
 20
-707.472188691967
 30
0.0
 11
-215.51735106521
 21
-708.9901378843981
 31
0.0
  0
LINE
  5
230
330
3F
100
AcDbEntity
  8
1
  6
Continuous
 62
     3
100
AcDbLine
 10
-216.3937394400763
 20
-831.7221886919668
 30
0.0
 11
-215.51735106521
 21
-833.240137884398
 31
0.0
  0
LINE
  5
231
330
3F
100
AcDbEntity
  8
1
  6
Continuous
 62
     3
100
AcDbLine
 10
-227.5808593921063
 20
-831.7221886919668
 30
0.0
 11
-216.3937394400763
 21
-831.7221886919668
 31
0.0
  0
LINE
  5
232
330
3F
100
AcDbEntity
  8
1
  6
Continuous
 62
     3
100
AcDbLine
 10
-215.51735106521
 20
-866.2042394995357
 30
0.0
 11
-216.3937394400763
 21
-867.7221886919668
 31
0.0
  0
LINE
  5
233
330
3F
100
AcDbEntity
  8
1
  6
Continuous
 62
     3
100
AcDbLine
 10
-216.3937394400763
 20
-867.7221886919668
 30
0.0
 11
-227.5808593921063
 21
-867.7221886919668
 31
0.0
  0
LINE
  5
234
330
3F
100
AcDbEntity
  8
1
  6
Continuous
 62
     3
100
AcDbLine
 10
-228.51735106521
 20
-868.6480267932992
 30
0.0
 11
-228.51735106521
 21
-868.7221886919668
 31
0.0
  0
LINE
  5
235
330
3F
100
AcDbEntity
  8
1
  6
Continuous
 62
     3
100
AcDbLine
 10
-232.51735106521
 20
-869.6586803650706
 30
0.0
 11
-232.51735106521
 21
-867.0221886919668
 31
0.0
  0
LINE
  5
236
330
3F
100
AcDbEntity
  8
1
  6
Continuous
 62
     3
100
AcDbLine
 10
-232.51735106521
 20
-832.4221886919669
 30
0.0
 11
-232.51735106521
 21
-829.7856970188631
 31
0.0
  0
LINE
  5
237
330
3F
100
AcDbEntity
  8
1
  6
Continuous
 62
     3
100
AcDbLine
 10
-229.51735106521
 20
-869.7221886919668
 30
0.0
 11
-232.01735106521
 21
-869.7221886919668
 31
0.0
  0
LINE
  5
238
330
3F
100
AcDbEntity
  8
1
  6
DASH_CENTER
 62
     1
100
AcDbLine
 10
-249.9611702143378
 20
-849.7221886919668
 30
0.0
 11
-210.9611702143378
 21
-849.7221886919668
 31
0.0
  0
LINE
  5
239
330
3F
100
AcDbEntity
  8
1
  6
Continuous
 62
     3
100
AcDbLine
 10
-215.51735106521
 20
-866.2221886919668
 30
0.0
 11
-215.51735106521
 21
-833.2221886919668
 31
0.0
  0
LINE
  5
23A
330
3F
100
AcDbEntity
  8
1
  6
Continuous
 62
     3
100
AcDbLine
 10
-232.01735106521
 20
-829.7221886919668
 30
0.0
 11
-229.51735106521
 21
-829.7221886919668
 31
0.0
  0
LINE
  5
23B
330
3F
100
AcDbEntity
  8
1
  6
Continuous
 62
     3
100
AcDbLine
 10
-228.51735106521
 20
-741.472188691967
 30
0.0
 11
-228.51735106521
 21
-742.972188691967
 31
0.0
  0
LINE
  5
23C
330
3F
100
AcDbEntity
  8
1
  6
Continuous
 62
     3
100
AcDbLine
 10
-232.01735106521
 20
-703.972188691967
 30
0.0
 11
-229.51735106521
 21
-703.972188691967
 31
0.0
  0
LINE
  5
23D
330
3F
100
AcDbEntity
  8
1
  6
Continuous
 62
     3
100
AcDbLine
 10
-228.51735106521
 20
-706.472188691967
 30
0.0
 11
-228.51735106521
 21
-704.972188691967
 31
0.0
  0
LINE
  5
23E
330
3F
100
AcDbEntity
  8
1
  6
Continuous
 62
     3
100
AcDbLine
 10
-229.51735106521
 20
-743.972188691967
 30
0.0
 11
-232.01735106521
 21
-743.972188691967
 31
0.0
  0
LINE
  5
23F
330
3F
100
AcDbEntity
  8
1
  6
Continuous
 62
     3
100
AcDbLine
 10
-232.51735106521
 20
-706.672188691967
 30
0.0
 11
-232.51735106521
 21
-704.0356970188632
 31
0.0
  0
LINE
  5
240
330
3F
100
AcDbEntity
  8
1
  6
Continuous
 62
     3
100
AcDbLine
 10
-232.51735106521
 20
-743.9086803650707
 30
0.0
 11
-232.51735106521
 21
-741.2721886919669
 31
0.0
  0
LINE
  5
241
330
3F
100
AcDbEntity
  8
1
  6
Continuous
 62
     3
100
AcDbLine
 10
-228.51735106521
 20
-742.8980267932993
 30
0.0
 11
-228.51735106521
 21
-742.972188691967
 31
0.0
  0
LINE
  5
242
330
3F
100
AcDbEntity
  8
1
  6
Continuous
 62
     3
100
AcDbLine
 10
-228.51735106521
 20
-706.472188691967
 30
0.0
 11
-228.51735106521
 21
-741.472188691967
 31
0.0
  0
LINE
  5
243
330
3F
100
AcDbEntity
  8
1
  6
Continuous
 62
     3
100
AcDbLine
 10
-228.5491052286581
 20
-830.9721886919668
 30
0.0
 11
-228.5491052286581
 21
-868.4721886919668
 31
0.0
  0
LINE
  5
244
330
3F
100
AcDbEntity
  8
1
  6
Continuous
 62
     3
100
AcDbLine
 10
-218.4891644234283
 20
-859.2484681335958
 30
0.0
 11
-228.5491052286581
 21
-859.2484681335958
 31
0.0
  0
LINE
  5
245
330
3F
100
AcDbEntity
  8
1
  6
Continuous
 62
     3
100
AcDbLine
 10
-218.4891644234283
 20
-840.1959092503379
 30
0.0
 11
-228.5491052286581
 21
-840.1959092503379
 31
0.0
  0
LINE
  5
246
330
3F
100
AcDbEntity
  8
1
  6
Continuous
 62
     3
100
AcDbLine
 10
-109.4855969017619
 20
-840.1959092503379
 30
0.0
 11
-119.5455377069916
 21
-840.1959092503379
 31
0.0
  0
LINE
  5
247
330
3F
100
AcDbEntity
  8
1
  6
Continuous
 62
     3
100
AcDbLine
 10
-109.4855969017619
 20
-859.2484681335958
 30
0.0
 11
-119.5455377069916
 21
-859.2484681335958
 31
0.0
  0
LINE
  5
248
330
3F
100
AcDbEntity
  8
1
  6
Continuous
 62
     3
100
AcDbLine
 10
-109.4855969017618
 20
-868.4721886919668
 30
0.0
 11
-109.4855969017618
 21
-830.9721886919668
 31
0.0
  0
LINE
  5
249
330
3F
100
AcDbEntity
  8
1
  6
Continuous
 62
     3
100
AcDbLine
 10
-108.5173510652099
 20
-829.7221886919668
 30
0.0
 11
-106.0173510652099
 21
-829.7221886919668
 31
0.0
  0
LINE
  5
24A
330
3F
100
AcDbEntity
  8
1
  6
Continuous
 62
     3
100
AcDbLine
 10
-122.5173510652099
 20
-833.2221886919668
 30
0.0
 11
-122.5173510652099
 21
-866.2221886919668
 31
0.0
  0
LINE
  5
24B
330
3F
100
AcDbEntity
  8
1
  6
DASH_CENTER
 62
     1
100
AcDbLine
 10
-127.0735319160821
 20
-849.7221886919668
 30
0.0
 11
-88.07353191608206
 21
-849.7221886919668
 31
0.0
  0
LINE
  5
24C
330
3F
100
AcDbEntity
  8
1
  6
Continuous
 62
     3
100
AcDbLine
 10
-106.0173510652099
 20
-869.7221886919668
 30
0.0
 11
-108.5173510652099
 21
-869.7221886919668
 31
0.0
  0
LINE
  5
24D
330
3F
100
AcDbEntity
  8
1
  6
Continuous
 62
     3
100
AcDbLine
 10
-105.5173510652099
 20
-829.7856970188631
 30
0.0
 11
-105.5173510652099
 21
-832.4221886919669
 31
0.0
  0
LINE
  5
24E
330
3F
100
AcDbEntity
  8
1
  6
Continuous
 62
     3
100
AcDbLine
 10
-105.5173510652099
 20
-867.0221886919668
 30
0.0
 11
-105.5173510652099
 21
-869.6586803650706
 31
0.0
  0
LINE
  5
24F
330
3F
100
AcDbEntity
  8
1
  6
Continuous
 62
     3
100
AcDbLine
 10
-109.5173510652099
 20
-868.7221886919668
 30
0.0
 11
-109.5173510652099
 21
-868.6480267932992
 31
0.0
  0
LINE
  5
250
330
3F
100
AcDbEntity
  8
1
  6
Continuous
 62
     3
100
AcDbLine
 10
-110.4538427383137
 20
-867.7221886919668
 30
0.0
 11
-121.6409626903437
 21
-867.7221886919668
 31
0.0
  0
LINE
  5
251
330
3F
100
AcDbEntity
  8
1
  6
Continuous
 62
     3
100
AcDbLine
 10
-121.6409626903437
 20
-867.7221886919668
 30
0.0
 11
-122.5173510652099
 21
-866.2042394995357
 31
0.0
  0
LINE
  5
252
330
3F
100
AcDbEntity
  8
1
  6
Continuous
 62
     3
100
AcDbLine
 10
-121.6409626903437
 20
-831.7221886919668
 30
0.0
 11
-110.4538427383137
 21
-831.7221886919668
 31
0.0
  0
LINE
  5
253
330
3F
100
AcDbEntity
  8
1
  6
Continuous
 62
     3
100
AcDbLine
 10
-122.5173510652099
 20
-833.240137884398
 30
0.0
 11
-121.6409626903437
 21
-831.7221886919668
 31
0.0
  0
LINE
  5
254
330
3F
100
AcDbEntity
  8
1
  6
Continuous
 62
     3
100
AcDbLine
 10
-152.5173510652099
 20
-842.5284414069977
 30
0.0
 11
-152.5173510652099
 21
-856.9159359769359
 31
0.0
  0
LINE
  5
255
330
3F
100
AcDbEntity
  8
1
  6
Continuous
 62
     3
100
AcDbLine
 10
-154.5373831680211
 20
-860.414734211925
 30
0.0
 11
-166.9973189623987
 21
-867.6084814968946
 31
0.0
  0
LINE
  5
256
330
3F
100
AcDbEntity
  8
1
  6
Continuous
 62
     3
100
AcDbLine
 10
-171.0373831680208
 20
-867.6084814968946
 30
0.0
 11
-183.4973189623985
 21
-860.4147342119254
 31
0.0
  0
LINE
  5
257
330
3F
100
AcDbEntity
  8
1
  6
Continuous
 62
     3
100
AcDbLine
 10
-185.5173510652097
 20
-856.9159359769365
 30
0.0
 11
-185.5173510652099
 21
-842.5284414069976
 31
0.0
  0
LINE
  5
258
330
3F
100
AcDbEntity
  8
1
  6
Continuous
 62
     3
100
AcDbLine
 10
-183.4973189623985
 20
-839.029643172008
 30
0.0
 11
-171.0373831680215
 21
-831.835895887039
 31
0.0
  0
LINE
  5
259
330
3F
100
AcDbEntity
  8
1
  6
Continuous
 62
     3
100
AcDbLine
 10
-166.9973189623985
 20
-831.835895887039
 30
0.0
 11
-154.5373831680213
 21
-839.0296431720082
 31
0.0
  0
LINE
  5
25A
330
3F
100
AcDbEntity
  8
1
  6
DASH_CENTER
 62
     1
100
AcDbLine
 10
-145.0173510652099
 20
-849.7221886919668
 30
0.0
 11
-193.0173510652099
 21
-849.7221886919668
 31
0.0
  0
LINE
  5
25B
330
3F
100
AcDbEntity
  8
1
  6
DASH_CENTER
 62
     1
100
AcDbLine
 10
-169.0173510652099
 20
-825.7221886919668
 30
0.0
 11
-169.0173510652099
 21
-873.7221886919668
 31
0.0
  0
LINE
  5
25C
330
3F
100
AcDbEntity
  8
1
  6
Continuous
 62
     3
100
AcDbLine
 10
-218.4891644234283
 20
-723.972188691967
 30
0.0
 11
-228.51735106521
 21
-723.972188691967
 31
0.0
  0
ARC
  5
25D
330
3F
100
AcDbEntity
  8
1
  6
Continuous
 62
     3
100
AcDbCircle
 10
-227.5808593921063
 20
-830.7221886919668
 30
0.0
 40
0.999999999999949
100
AcDbArc
 50
-165.5224878140693
 51
-90.0
  0
ARC
  5
25E
330
3F
100
AcDbEntity
  8
1
  6
Continuous
 62
     3
100
AcDbCircle
 10
-227.5808593921063
 20
-868.7221886919668
 30
0.0
 40
1.0
100
AcDbArc
 50
90.0
 51
165.5224878140693
  0
ARC
  5
25F
330
3F
100
AcDbEntity
  8
1
  6
Continuous
 62
     3
100
AcDbCircle
 10
-232.2717132395205
 20
-849.7221886919668
 30
0.0
 40
16.75436217431052
100
AcDbArc
 50
-34.65161409590033
 51
34.65161409590033
  0
ARC
  5
260
330
3F
100
AcDbEntity
  8
1
  6
Continuous
 62
     3
100
AcDbCircle
 10
-220.6942637457421
 20
-835.4904558860975
 30
0.0
 40
5.196513675947551
100
AcDbArc
 50
-64.89097488666589
 51
-8.00474765084665
  0
ARC
  5
261
330
3F
100
AcDbEntity
  8
1
  6
Continuous
 62
     3
100
AcDbCircle
 10
-220.6942637457421
 20
-863.9539214978357
 30
0.0
 40
5.196513675947153
100
AcDbArc
 50
2.41087748176286
 51
64.89097488666377
  0
ARC
  5
262
330
3F
100
AcDbEntity
  8
1
  6
Continuous
 62
     3
100
AcDbCircle
 10
-117.3404383846778
 20
-863.9539214978357
 30
0.0
 40
5.196513675947139
100
AcDbArc
 50
115.1090251133362
 51
177.5891225182372
  0
ARC
  5
263
330
3F
100
AcDbEntity
  8
1
  6
Continuous
 62
     3
100
AcDbCircle
 10
-117.3404383846778
 20
-835.4904558860975
 30
0.0
 40
5.196513675947145
100
AcDbArc
 50
-171.9952523491533
 51
-115.1090251133341
  0
ARC
  5
264
330
3F
100
AcDbEntity
  8
1
  6
Continuous
 62
     3
100
AcDbCircle
 10
-105.7629888908994
 20
-849.7221886919668
 30
0.0
 40
16.75436217431052
100
AcDbArc
 50
145.3483859040997
 51
-145.3483859040997
  0
ARC
  5
265
330
3F
100
AcDbEntity
  8
1
  6
Continuous
 62
     3
100
AcDbCircle
 10
-110.4538427383137
 20
-868.7221886919668
 30
0.0
 40
1.000000000000045
100
AcDbArc
 50
14.47751218592925
 51
90.0
  0
ARC
  5
266
330
3F
100
AcDbEntity
  8
1
  6
Continuous
 62
     3
100
AcDbCircle
 10
-110.4538427383137
 20
-830.7221886919668
 30
0.0
 40
1.0
100
AcDbArc
 50
-90.0
 51
-14.47751218592925
  0
ARC
  5
267
330
3F
100
AcDbEntity
  8
1
  6
Continuous
 62
     3
100
AcDbCircle
 10
-169.0173510652099
 20
-849.7221886919668
 30
0.0
 40
17.99999999999985
100
AcDbArc
 50
-36.44353569089682
 51
-23.55646430910114
  0
ARC
  5
268
330
3F
100
AcDbEntity
  8
1
  6
Continuous
 62
     3
100
AcDbCircle
 10
-169.0173510652099
 20
-849.7221886919668
 30
0.0
 40
18.00000000000003
100
AcDbArc
 50
23.55646430910147
 51
36.44353569089866
  0
ARC
  5
269
330
3F
100
AcDbEntity
  8
1
  6
Continuous
 62
     3
100
AcDbCircle
 10
-169.0173510652099
 20
-849.7221886919668
 30
0.0
 40
17.99999999999989
100
AcDbArc
 50
-96.44353569089702
 51
-83.55646430910198
  0
ARC
  5
26A
330
3F
100
AcDbEntity
  8
1
  6
Continuous
 62
     3
100
AcDbCircle
 10
-169.0173510652099
 20
-849.7221886919668
 30
0.0
 40
18.0000000000001
100
AcDbArc
 50
143.5564643091011
 51
156.4435356908982
  0
ARC
  5
26B
330
3F
100
AcDbEntity
  8
1
  6
Continuous
 62
     3
100
AcDbCircle
 10
-169.0173510652099
 20
-849.7221886919668
 30
0.0
 40
18.00000000000003
100
AcDbArc
 50
-156.443535690897
 51
-143.5564643091016
  0
ARC
  5
26C
330
3F
100
AcDbEntity
  8
1
  6
Continuous
 62
     3
100
AcDbCircle
 10
-169.0173510652099
 20
-849.7221886919668
 30
0.0
 40
18.00000000000006
100
AcDbArc
 50
83.5564643091014
 51
96.44353569089924
  0
ARC
  5
26D
330
3F
100
AcDbEntity
  8
1
  6
Continuous
 62
     3
100
AcDbCircle
 10
-220.6942637457421
 20
-728.6776420562069
 30
0.0
 40
5.196513675947153
100
AcDbArc
 50
2.41087748176286
 51
64.89097488666377
  0
ARC
  5
26E
330
3F
100
AcDbEntity
  8
1
  6
Continuous
 62
     3
100
AcDbCircle
 10
-220.6942637457421
 20
-719.266735327727
 30
0.0
 40
5.196513675947139
100
AcDbArc
 50
-64.89097488666377
 51
-2.41087748176286
  0
CIRCLE
  5
26F
330
3F
100
AcDbEntity
  8
1
  6
Continuous
 62
     3
100
AcDbCircle
 10
-169.0173510652099
 20
-849.7221886919668
 30
0.0
 40
11.7693754862913
  0
CIRCLE
  5
270
330
3F
100
AcDbEntity
  8
1
  6
Continuous
 62
     1
100
AcDbCircle
 10
-169.0173510652099
 20
-849.7221886919668
 30
0.0
 40
13.36294291552412
  0
CIRCLE
  5
271
330
3F
100
AcDbEntity
  8
1
  6
Continuous
 62
     3
100
AcDbCircle
 10
-169.0173510652099
 20
-849.7221886919668
 30
0.0
 40
16.5
  0
CIRCLE
  5
272
330
3F
100
AcDbEntity
  8
1
  6
Continuous
 62
     3
100
AcDbCircle
 10
-169.0173510652099
 20
-849.7221886919668
 30
0.0
 40
20.0
  0
ARC
  5
273
330
3F
100
AcDbEntity
  8
1
  6
Continuous
 62
     3
100
AcDbCircle
 10
-232.01735106521
 20
-867.7221886919668
 30
0.0
 40
2.000000000000063
100
AcDbArc
 50
-104.4775121859295
 51
-90.0
  0
ARC
  5
274
330
3F
100
AcDbEntity
  8
1
  6
Continuous
 62
     3
100
AcDbCircle
 10
-232.01735106521
 20
-831.7221886919668
 30
0.0
 40
2.0
100
AcDbArc
 50
90.0
 51
104.4775121859295
  0
ARC
  5
275
330
3F
100
AcDbEntity
  8
1
  6
Continuous
 62
     3
100
AcDbCircle
 10
-229.51735106521
 20
-868.7221886919668
 30
0.0
 40
1.0
100
AcDbArc
 50
-90.0
 51
0.0
  0
ARC
  5
276
330
3F
100
AcDbEntity
  8
1
  6
Continuous
 62
     3
100
AcDbCircle
 10
-229.51735106521
 20
-830.7221886919668
 30
0.0
 40
1.0
100
AcDbArc
 50
0.0
 51
90.0
  0
ARC
  5
277
330
3F
100
AcDbEntity
  8
1
  6
Continuous
 62
     3
100
AcDbCircle
 10
-227.51735106521
 20
-706.472188691967
 30
0.0
 40
1.0
100
AcDbArc
 50
180.0
 51
-90.0
  0
ARC
  5
278
330
3F
100
AcDbEntity
  8
1
  6
Continuous
 62
     3
100
AcDbCircle
 10
-229.51735106521
 20
-704.972188691967
 30
0.0
 40
1.0
100
AcDbArc
 50
0.0
 51
90.0
  0
ARC
  5
279
330
3F
100
AcDbEntity
  8
1
  6
Continuous
 62
     3
100
AcDbCircle
 10
-227.51735106521
 20
-741.472188691967
 30
0.0
 40
1.0
100
AcDbArc
 50
90.0
 51
180.0
  0
ARC
  5
27A
330
3F
100
AcDbEntity
  8
1
  6
Continuous
 62
     3
100
AcDbCircle
 10
-229.51735106521
 20
-742.972188691967
 30
0.0
 40
1.0
100
AcDbArc
 50
-90.0
 51
0.0
  0
ARC
  5
27B
330
3F
100
AcDbEntity
  8
1
  6
Continuous
 62
     3
100
AcDbCircle
 10
-232.01735106521
 20
-705.972188691967
 30
0.0
 40
2.0
100
AcDbArc
 50
90.0
 51
104.4775121859295
  0
ARC
  5
27C
330
3F
100
AcDbEntity
  8
1
  6
PHANTOM
 62
     3
100
AcDbCircle
 10
-232.01735106521
 20
-741.972188691967
 30
0.0
 40
2.000000000000063
100
AcDbArc
 50
-104.4775121859295
 51
-90.0
  0
ARC
  5
27D
330
3F
100
AcDbEntity
  8
1
  6
Continuous
 62
     3
100
AcDbCircle
 10
-108.5173510652099
 20
-830.7221886919668
 30
0.0
 40
1.0
100
AcDbArc
 50
90.0
 51
180.0
  0
ARC
  5
27E
330
3F
100
AcDbEntity
  8
1
  6
Continuous
 62
     3
100
AcDbCircle
 10
-108.5173510652099
 20
-868.7221886919668
 30
0.0
 40
1.0
100
AcDbArc
 50
180.0
 51
-90.0
  0
ARC
  5
27F
330
3F
100
AcDbEntity
  8
1
  6
Continuous
 62
     3
100
AcDbCircle
 10
-106.0173510652099
 20
-831.7221886919668
 30
0.0
 40
2.000000000000063
100
AcDbArc
 50
75.52248781407054
 51
90.0
  0
ARC
  5
280
330
3F
100
AcDbEntity
  8
1
  6
Continuous
 62
     3
100
AcDbCircle
 10
-106.0173510652099
 20
-867.7221886919668
 30
0.0
 40
2.0
100
AcDbArc
 50
-90.0
 51
-75.52248781407054
  0
ENDBLK
  5
41
330
3F
100
AcDbEntity
  8
0
100
AcDbBlockEnd
  0
BLOCK
  5
28C
330
283
100
AcDbEntity
  8
0
100
AcDbBlockBegin
  2
*D06
 70
     1
 71
     0
 10
0.0
 20
0.0
 30
0.0
  3
*D06
  1

  0
LINE
  5
284
330
283
100
AcDbEntity
  8
1
  6
Continuous
 62
     2
100
AcDbLine
 10
-297.566668541327
 20
-799.7221886919668
 30
0.0
 11
-297.566668541327
 21
-774.7221886919668
 31
0.0
  0
LINE
  5
285
330
283
100
AcDbEntity
  8
1
  6
Continuous
 62
     2
100
AcDbLine
 10
-257.7673510652099
 20
-774.7221886919668
 30
0.0
 11
-298.566668541327
 21
-774.7221886919668
 31
0.0
  0
LINE
  5
286
330
283
100
AcDbEntity
  8
1
  6
Continuous
 62
     2
100
AcDbLine
 10
-273.5173510652099
 20
-799.7221886919668
 30
0.0
 11
-298.566668541327
 21
-799.7221886919668
 31
0.0
  0
LINE
  5
287
330
283
100
AcDbEntity
  8
1
 62
     2
100
AcDbLine
 10
-297.566668541327
 20
-799.7221886919668
 30
0.0
 11
-298.5044907148359
 21
-796.2221886919668
 31
0.0
  0
LINE
  5
288
330
283
100
AcDbEntity
  8
1
 62
     2
100
AcDbLine
 10
-297.566668541327
 20
-799.7221886919668
 30
0.0
 11
-296.628846367818
 21
-796.2221886919668
 31
0.0
  0
LINE
  5
289
330
283
100
AcDbEntity
  8
1
 62
     2
100
AcDbLine
 10
-297.566668541327
 20
-774.7221886919668
 30
0.0
 11
-296.628846367818
 21
-778.2221886919668
 31
0.0
  0
LINE
  5
28A
330
283
100
AcDbEntity
  8
1
 62
     2
100
AcDbLine
 10
-297.566668541327
 20
-774.7221886919668
 30
0.0
 11
-298.5044907148359
 21
-778.2221886919668
 31
0.0
  0
MTEXT
  5
28B
330
283
100
AcDbEntity
  8
1
 62
     2
100
AcDbMText
 10
-299.166668541327
 20
-787.436100514703
 30
0.0
 40
3.5
 41
0.0
 71
     7
 72
     1
  1
25
  7
CONVERTER_1
 11
0.0
 21
1.0
 31
0.0
 73
     1
 44
0.60024009603842
  0
ENDBLK
  5
28D
330
283
100
AcDbEntity
  8
0
100
AcDbBlockEnd
  0
BLOCK
  5
28F
330
28E
100
AcDbEntity
  8
0
100
AcDbBlockBegin
  2
_Open30
 70
     0
 71
     0
 10
0.0
 20
0.0
 30
0.0
  3
_Open30
  1

  0
LINE
  5
291
330
28E
100
AcDbEntity
  8
0
  6
ByBlock
 62
     0
370
    -2
100
AcDbLine
 10
-1.0
 20
0.267949
 30
0.0
 11
0.0
 21
0.0
 31
0.0
  0
LINE
  5
292
330
28E
100
AcDbEntity
  8
0
  6
ByBlock
 62
     0
370
    -2
100
AcDbLine
 10
0.0
 20
0.0
 30
0.0
 11
-1.0
 21
-0.267949
 31
0.0
  0
LINE
  5
293
330
28E
100
AcDbEntity
  8
0
  6
ByBlock
 62
     0
370
    -2
100
AcDbLine
 10
0.0
 20
0.0
 30
0.0
 11
-1.0
 21
0.0
 31
0.0
  0
ENDBLK
  5
290
330
28E
100
AcDbEntity
  8
0
100
AcDbBlockEnd
  0
BLOCK
  5
29F
330
296
100
AcDbEntity
  8
0
100
AcDbBlockBegin
  2
*D18
 70
     1
 71
     0
 10
0.0
 20
0.0
 30
0.0
  3
*D18
  1

  0
LINE
  5
297
330
296
100
AcDbEntity
  8
1
  6
Continuous
 62
     2
100
AcDbLine
 10
-297.329225823906
 20
-849.7221886919668
 30
0.0
 11
-297.329225823906
 21
-799.7221886919668
 31
0.0
  0
LINE
  5
298
330
296
100
AcDbEntity
  8
1
  6
Continuous
 62
     2
100
AcDbLine
 10
-273.5173510652099
 20
-799.7221886919668
 30
0.0
 11
-298.329225823906
 21
-799.7221886919668
 31
0.0
  0
LINE
  5
299
330
296
100
AcDbEntity
  8
1
  6
Continuous
 62
     2
100
AcDbLine
 10
-293.8647819778919
 20
-849.7221886919668
 30
0.0
 11
-298.329225823906
 21
-849.7221886919668
 31
0.0
  0
LINE
  5
29A
330
296
100
AcDbEntity
  8
1
 62
     2
100
AcDbLine
 10
-297.329225823906
 20
-849.7221886919668
 30
0.0
 11
-298.2670479974149
 21
-846.2221886919668
 31
0.0
  0
LINE
  5
29B
330
296
100
AcDbEntity
  8
1
 62
     2
100
AcDbLine
 10
-297.329225823906
 20
-849.7221886919668
 30
0.0
 11
-296.391403650397
 21
-846.2221886919668
 31
0.0
  0
LINE
  5
29C
330
296
100
AcDbEntity
  8
1
 62
     2
100
AcDbLine
 10
-297.329225823906
 20
-799.7221886919668
 30
0.0
 11
-296.391403650397
 21
-803.2221886919668
 31
0.0
  0
LINE
  5
29D
330
296
100
AcDbEntity
  8
1
 62
     2
100
AcDbLine
 10
-297.329225823906
 20
-799.7221886919668
 30
0.0
 11
-298.2670479974149
 21
-803.2221886919668
 31
0.0
  0
MTEXT
  5
29E
330
296
100
AcDbEntity
  8
1
 62
     2
100
AcDbMText
 10
-298.929225823906
 20
-822.521875859015
 30
0.0
 40
3.5
 41
0.0
 71
     7
 72
     1
  1
50
  7
CONVERTER_1
 11
0.0
 21
1.0
 31
0.0
 73
     1
 44
0.60024009603842
  0
ENDBLK
  5
2A0
330
296
100
AcDbEntity
  8
0
100
AcDbBlockEnd
  0
BLOCK
  5
2AC
330
2A3
100
AcDbEntity
  8
0
100
AcDbBlockBegin
  2
*D29
 70
     1
 71
     0
 10
0.0
 20
0.0
 30
0.0
  3
*D29
  1

  0
LINE
  5
2A4
330
2A3
100
AcDbEntity
  8
1
  6
Continuous
 62
     2
100
AcDbLine
 10
-252.5173510652099
 20
-881.734100585159
 30
0.0
 11
-287.5173510652099
 21
-881.734100585159
 31
0.0
  0
LINE
  5
2A5
330
2A3
100
AcDbEntity
  8
1
  6
Continuous
 62
     2
100
AcDbLine
 10
-287.5173510652099
 20
-867.2061632881823
 30
0.0
 11
-287.5173510652099
 21
-882.734100585159
 31
0.0
  0
LINE
  5
2A6
330
2A3
100
AcDbEntity
  8
1
  6
Continuous
 62
     2
100
AcDbLine
 10
-252.5173510652099
 20
-873.9564850340501
 30
0.0
 11
-252.5173510652099
 21
-882.734100585159
 31
0.0
  0
LINE
  5
2A7
330
2A3
100
AcDbEntity
  8
1
 62
     2
100
AcDbLine
 10
-252.5173510652099
 20
-881.734100585159
 30
0.0
 11
-256.0173510652099
 21
-882.671922758668
 31
0.0
  0
LINE
  5
2A8
330
2A3
100
AcDbEntity
  8
1
 62
     2
100
AcDbLine
 10
-252.5173510652099
 20
-881.734100585159
 30
0.0
 11
-256.0173510652099
 21
-880.7962784116501
 31
0.0
  0
LINE
  5
2A9
330
2A3
100
AcDbEntity
  8
1
 62
     2
100
AcDbLine
 10
-287.5173510652099
 20
-881.734100585159
 30
0.0
 11
-284.0173510652099
 21
-880.7962784116501
 31
0.0
  0
LINE
  5
2AA
330
2A3
100
AcDbEntity
  8
1
 62
     2
100
AcDbLine
 10
-287.5173510652099
 20
-881.734100585159
 30
0.0
 11
-284.0173510652099
 21
-882.671922758668
 31
0.0
  0
MTEXT
  5
2AB
330
2A3
100
AcDbEntity
  8
1
 62
     2
100
AcDbMText
 10
-273.869801892153
 20
-880.134100585159
 30
0.0
 40
3.5
 41
0.0
 71
     7
 72
     1
  1
35
  7
CONVERTER_1
 11
0.9999999999970621
 21
2.424068405545307E-6
 31
0.0
 73
     1
 44
0.60024009603842
  0
ENDBLK
  5
2AD
330
2A3
100
AcDbEntity
  8
0
100
AcDbBlockEnd
  0
BLOCK
  5
2B9
330
2B0
100
AcDbEntity
  8
0
100
AcDbBlockBegin
  2
*D310
 70
     1
 71
     0
 10
0.0
 20
0.0
 30
0.0
  3
*D310
  1

  0
LINE
  5
2B1
330
2B0
100
AcDbEntity
  8
1
  6
Continuous
 62
     2
100
AcDbLine
 10
-287.5173510652099
 20
-891.9356250934981
 30
0.0
 11
-215.51735106521
 21
-891.9356250934981
 31
0.0
  0
LINE
  5
2B2
330
2B0
100
AcDbEntity
  8
1
  6
Continuous
 62
     2
100
AcDbLine
 10
-215.51735106521
 20
-867.2042394995357
 30
0.0
 11
-215.51735106521
 21
-892.9356250934981
 31
0.0
  0
LINE
  5
2B3
330
2B0
100
AcDbEntity
  8
1
  6
Continuous
 62
     2
100
AcDbLine
 10
-287.5173510652099
 20
-867.2061632881823
 30
0.0
 11
-287.5173510652099
 21
-892.9356250934981
 31
0.0
  0
LINE
  5
2B4
330
2B0
100
AcDbEntity
  8
1
 62
     2
100
AcDbLine
 10
-287.5173510652099
 20
-891.9356250934981
 30
0.0
 11
-284.0173510652099
 21
-890.9978029199891
 31
0.0
  0
LINE
  5
2B5
330
2B0
100
AcDbEntity
  8
1
 62
     2
100
AcDbLine
 10
-287.5173510652099
 20
-891.9356250934981
 30
0.0
 11
-284.0173510652099
 21
-892.873447267007
 31
0.0
  0
LINE
  5
2B6
330
2B0
100
AcDbEntity
  8
1
 62
     2
100
AcDbLine
 10
-215.51735106521
 20
-891.9356250934981
 30
0.0
 11
-219.01735106521
 21
-892.873447267007
 31
0.0
  0
LINE
  5
2B7
330
2B0
100
AcDbEntity
  8
1
 62
     2
100
AcDbLine
 10
-215.51735106521
 20
-891.9356250934981
 30
0.0
 11
-219.01735106521
 21
-890.9978029199891
 31
0.0
  0
MTEXT
  5
2B8
330
2B0
100
AcDbEntity
  8
1
 62
     2
100
AcDbMText
 10
-253.866812660116
 20
-890.335625093498
 30
0.0
 40
3.5
 41
0.0
 71
     7
 72
     1
  1
72
  7
CONVERTER_1
 11
0.9999999999970621
 21
2.424068405545307E-6
 31
0.0
 73
     1
 44
0.60024009603842
  0
ENDBLK
  5
2BA
330
2B0
100
AcDbEntity
  8
0
100
AcDbBlockEnd
  0
ENDSEC
  0
SECTION
  2
ENTITIES
  0
INSERT
  5
42
330
1F
100
AcDbEntity
  8
1
100
AcDbBlockReference
  2
_2
 10
-422.5699444074461
 20
-596.6193529016481
 30
0.0
  0
INSERT
  5
43
330
1F
100
AcDbEntity
  8
1
100
AcDbBlockReference
  2
_3
 10
-338.0173510652099
 20
-589.479631922478
 30
0.0
  0
INSERT
  5
44
330
1F
100
AcDbEntity
  8
0
100
AcDbBlockReference
  2
Top__1
 10
191.295259154455
 20
-641.434142029035
 30
0.0
  0
INSERT
  5
45
330
1F
100
AcDbEntity
  8
0
100
AcDbBlockReference
  2
Top__2
 10
289.9186979232371
 20
-1441.125607189241
 30
0.0
  0
INSERT
  5
46
330
1F
100
AcDbEntity
  8
0
100
AcDbBlockReference
  2
Top__3
 10
-107.146110475367
 20
-1364.9345809027
 30
0.0
  0
TEXT
  5
282
330
1F
100
AcDbEntity
  8
1
 62
     3
100
AcDbText
 10
-368.1147522364931
 20
-889.817325937117
 30
0.0
 40
5.0
  1
VY5302A0022
 41
1.08
  7
CONVERTER_5
100
AcDbText
  0
DIMENSION
  5
295
330
1F
100
AcDbEntity
  8
1
100
AcDbDimension
  2
*D06
 10
-297.566668541327
 20
-799.7221886919668
 30
0.0
 11
-300.916668541327
 21
-784.811100514703
 31
0.0
 70
    32
  1
<>
 71
     5
 42
-1.0
 53
90.0
  3
ME10_DIM_0
100
AcDbAlignedDimension
 13
-256.7673510652099
 23
-774.7221886919668
 33
0.0
 14
-272.5173510652099
 24
-799.7221886919668
 34
0.0
 50
90.0
100
AcDbRotatedDimension
  0
DIMENSION
  5
2A2
330
1F
100
AcDbEntity
  8
1
100
AcDbDimension
  2
*D18
 10
-297.329225823906
 20
-849.7221886919668
 30
0.0
 11
-300.679225823906
 21
-819.896875859015
 31
0.0
 70
    32
  1
<>
 71
     5
 42
-1.0
 53
90.0
  3
ME10_DIM_1
100
AcDbAlignedDimension
 13
-272.5173510652099
 23
-799.7221886919668
 33
0.0
 14
-292.8647819778919
 24
-849.7221886919668
 34
0.0
 50
90.0
100
AcDbRotatedDimension
  0
DIMENSION
  5
2AF
330
1F
100
AcDbEntity
  8
1
100
AcDbDimension
  2
*D29
 10
-252.5173510652099
 20
-881.734100585159
 30
0.0
 11
-271.244801892153
 21
-878.384100585159
 31
0.0
 70
    32
  1
<>
 71
     5
 42
-1.0
 53
0.00013888888889
  3
ME10_DIM_2
100
AcDbAlignedDimension
 13
-287.5173510652099
 23
-866.2061632881823
 33
0.0
 14
-252.5173510652099
 24
-872.9564850340501
 34
0.0
100
AcDbRotatedDimension
  0
DIMENSION
  5
2BC
330
1F
100
AcDbEntity
  8
1
100
AcDbDimension
  2
*D310
 10
-287.5173510652099
 20
-891.9356250934981
 30
0.0
 11
-251.241812660116
 21
-888.585625093498
 31
0.0
 70
    32
  1
<>
 71
     5
 42
-1.0
 53
0.00013888888889
  3
ME10_DIM_3
100
AcDbAlignedDimension
 13
-215.51735106521
 23
-866.2042394995357
 33
0.0
 14
-287.5173510652099
 24
-866.2061632881823
 34
0.0
100
AcDbRotatedDimension
  0
ENDSEC
  0
SECTION
  2
OBJECTS
  0
DICTIONARY
  5
C
330
0
100
AcDbDictionary
281
     1
  3
ACAD_GROUP
350
D
  3
ACAD_LAYOUT
350
1A
  3
ACAD_MLINESTYLE
350
17
  3
ACAD_PLOTSETTINGS
350
19
  3
ACAD_PLOTSTYLENAME
350
E
  0
DICTIONARY
  5
D
102
{ACAD_REACTORS
330
C
102
}
330
C
100
AcDbDictionary
281
     1
  0
DICTIONARY
  5
1A
102
{ACAD_REACTORS
330
C
102
}
330
C
100
AcDbDictionary
281
     1
  3
Layout1
350
1E
  3
Layout2
350
26
  3
Model
350
22
  0
DICTIONARY
  5
17
102
{ACAD_REACTORS
330
C
102
}
330
C
100
AcDbDictionary
281
     1
  3
Standard
350
18
  0
DICTIONARY
  5
19
102
{ACAD_REACTORS
330
C
102
}
330
C
100
AcDbDictionary
281
     1
  0
ACDBDICTIONARYWDFLT
  5
E
102
{ACAD_REACTORS
330
C
102
}
330
C
100
AcDbDictionary
281
     1
  3
Normal
350
F
100
AcDbDictionaryWithDefault
340
F
  0
LAYOUT
  5
1E
102
{ACAD_REACTORS
330
1A
102
}
330
1A
100
AcDbPlotSettings
  1

  2

  4

  6

 40
0.0
 41
0.0
 42
0.0
 43
0.0
 44
0.0
 45
0.0
 46
0.0
 47
0.0
 48
0.0
 49
0.0
140
0.0
141
0.0
142
1.0
143
1.0
 70
   688
 72
     0
 73
     0
 74
     5
  7

 75
    16
147
1.0
148
0.0
149
0.0
100
AcDbLayout
  1
Layout1
 70
     1
 71
     1
 10
0.0
 20
0.0
 11
0.0
 21
0.0
 12
0.0
 22
0.0
 32
0.0
 14
0.0
 24
0.0
 34
0.0
 15
0.0
 25
0.0
 35
0.0
146
0.0
 13
0.0
 23
0.0
 33
0.0
 16
1.0
 26
0.0
 36
0.0
 17
0.0
 27
1.0
 37
0.0
 76
     0
330
1B
  0
LAYOUT
  5
26
102
{ACAD_REACTORS
330
1A
102
}
330
1A
100
AcDbPlotSettings
  1

  2

  4

  6

 40
0.0
 41
0.0
 42
0.0
 43
0.0
 44
0.0
 45
0.0
 46
0.0
 47
0.0
 48
0.0
 49
0.0
140
0.0
141
0.0
142
1.0
143
1.0
 70
   688
 72
     0
 73
     0
 74
     5
  7

 75
    16
147
1.0
148
0.0
149
0.0
100
AcDbLayout
  1
Layout2
 70
     1
 71
     2
 10
0.0
 20
0.0
 11
0.0
 21
0.0
 12
0.0
 22
0.0
 32
0.0
 14
0.0
 24
0.0
 34
0.0
 15
0.0
 25
0.0
 35
0.0
146
0.0
 13
0.0
 23
0.0
 33
0.0
 16
1.0
 26
0.0
 36
0.0
 17
0.0
 27
1.0
 37
0.0
 76
     0
330
23
  0
LAYOUT
  5
22
102
{ACAD_REACTORS
330
1A
102
}
330
1A
100
AcDbPlotSettings
  1

  2

  4

  6

 40
0.0
 41
0.0
 42
0.0
 43
0.0
 44
0.0
 45
0.0
 46
0.0
 47
0.0
 48
0.0
 49
0.0
140
0.0
141
0.0
142
1.0
143
1.0
 70
  1712
 72
     0
 73
     0
 74
     0
  7

 75
     0
147
1.0
148
0.0
149
0.0
100
AcDbLayout
  1
Model
 70
     1
 71
     0
 10
0.0
 20
0.0
 11
0.0
 21
0.0
 12
0.0
 22
0.0
 32
0.0
 14
-368.680695421575
 24
-892.9356250934981
 34
0.0
 15
-45.16992015252797
 25
-700.972188691967
 35
0.0
146
0.0
 13
0.0
 23
0.0
 33
0.0
 16
1.0
 26
0.0
 36
0.0
 17
0.0
 27
1.0
 37
0.0
 76
     0
330
1F
  0
MLINESTYLE
  5
18
102
{ACAD_REACTORS
330
17
102
}
330
17
100
AcDbMlineStyle
  2
Standard
 70
     0
  3

 62
   256
 51
90.0
 52
90.0
 71
     2
 49
0.5
 62
   256
  6
BYLAYER
 49
-0.5
 62
   256
  6
BYLAYER
  0
ACDBPLACEHOLDER
  5
F
102
{ACAD_REACTORS
330
E
102
}
330
E
  0
ENDSEC
  0
EOF
