  0
SECTION
  2
HEADER
  9
$ACADVER
  1
AC1015
  9
$ACADMAINTVER
 70
     6
  9
$DWGCODEPAGE
  3
ANSI_1252
  9
$INSBASE
 10
0.0
 20
0.0
 30
0.0
  9
$EXTMIN
 10
-411.2733671211051
 20
-1681.5025284566
 30
0.0
  9
$EXTMAX
 10
42.12178533186315
 20
-1432.55100762926
 30
0.0
  9
$LIMMIN
 10
0.0
 20
0.0
  9
$LIMMAX
 10
12.0
 20
9.0
  9
$ORTHOMODE
 70
     0
  9
$REGENMODE
 70
     1
  9
$FILLMODE
 70
     1
  9
$QTEXTMODE
 70
     0
  9
$MIRRTEXT
 70
     1
  9
$LTSCALE
 40
1.0
  9
$ATTMODE
 70
     1
  9
$TEXTSIZE
 40
0.2
  9
$TRACEWID
 40
0.05
  9
$TEXTSTYLE
  7
Standard
  9
$CLAYER
  8
0
  9
$CELTYPE
  6
ByLayer
  9
$CECOLOR
 62
   256
  9
$CELTSCALE
 40
1.0
  9
$DISPSILH
 70
     0
  9
$DIMSCALE
 40
1.0
  9
$DIMASZ
 40
0.18
  9
$DIMEXO
 40
0.0625
  9
$DIMDLI
 40
0.38
  9
$DIMRND
 40
0.0
  9
$DIMDLE
 40
0.0
  9
$DIMEXE
 40
0.18
  9
$DIMTP
 40
0.0
  9
$DIMTM
 40
0.0
  9
$DIMTXT
 40
0.18
  9
$DIMCEN
 40
0.09
  9
$DIMTSZ
 40
0.0
  9
$DIMTOL
 70
     0
  9
$DIMLIM
 70
     0
  9
$DIMTIH
 70
     1
  9
$DIMTOH
 70
     1
  9
$DIMSE1
 70
     0
  9
$DIMSE2
 70
     0
  9
$DIMTAD
 70
     0
  9
$DIMZIN
 70
     0
  9
$DIMBLK
  1

  9
$DIMASO
 70
     1
  9
$DIMSHO
 70
     1
  9
$DIMPOST
  1

  9
$DIMAPOST
  1

  9
$DIMALT
 70
     0
  9
$DIMALTD
 70
     2
  9
$DIMALTF
 40
25.4
  9
$DIMLFAC
 40
1.0
  9
$DIMTOFL
 70
     0
  9
$DIMTVP
 40
0.0
  9
$DIMTIX
 70
     0
  9
$DIMSOXD
 70
     0
  9
$DIMSAH
 70
     0
  9
$DIMBLK1
  1

  9
$DIMBLK2
  1

  9
$DIMSTYLE
  2
Standard
  9
$DIMCLRD
 70
     0
  9
$DIMCLRE
 70
     0
  9
$DIMCLRT
 70
     0
  9
$DIMTFAC
 40
1.0
  9
$DIMGAP
 40
0.09
  9
$DIMJUST
 70
     0
  9
$DIMSD1
 70
     0
  9
$DIMSD2
 70
     0
  9
$DIMTOLJ
 70
     1
  9
$DIMTZIN
 70
     0
  9
$DIMALTZ
 70
     0
  9
$DIMALTTZ
 70
     0
  9
$DIMUPT
 70
     0
  9
$DIMDEC
 70
     4
  9
$DIMTDEC
 70
     4
  9
$DIMALTU
 70
     2
  9
$DIMALTTD
 70
     2
  9
$DIMTXSTY
  7
Standard
  9
$DIMAUNIT
 70
     0
  9
$DIMADEC
 70
     0
  9
$DIMALTRND
 40
0.0
  9
$DIMAZIN
 70
     0
  9
$DIMDSEP
 70
    46
  9
$DIMATFIT
 70
     3
  9
$DIMFRAC
 70
     0
  9
$DIMLDRBLK
  1

  9
$DIMLUNIT
 70
     2
  9
$DIMLWD
 70
    -2
  9
$DIMLWE
 70
    -2
  9
$DIMTMOVE
 70
     0
  9
$LUNITS
 70
     2
  9
$LUPREC
 70
     4
  9
$SKETCHINC
 40
0.1
  9
$FILLETRAD
 40
0.5
  9
$AUNITS
 70
     0
  9
$AUPREC
 70
     0
  9
$MENU
  1
.
  9
$ELEVATION
 40
0.0
  9
$PELEVATION
 40
0.0
  9
$THICKNESS
 40
0.0
  9
$LIMCHECK
 70
     0
  9
$CHAMFERA
 40
0.5
  9
$CHAMFERB
 40
0.5
  9
$CHAMFERC
 40
1.0
  9
$CHAMFERD
 40
0.0
  9
$SKPOLY
 70
     0
  9
$TDCREATE
 40
2455063.688587778
  9
$TDUCREATE
 40
2455063.313587778
  9
$TDUPDATE
 40
2455063.688587789
  9
$TDUUPDATE
 40
2455063.313587789
  9
$TDINDWG
 40
0.0000000116
  9
$TDUSRTIMER
 40
0.0000000116
  9
$USRTIMER
 70
     1
  9
$ANGBASE
 50
0.0
  9
$ANGDIR
 70
     0
  9
$PDMODE
 70
     0
  9
$PDSIZE
 40
0.0
  9
$PLINEWID
 40
0.0
  9
$SPLFRAME
 70
     0
  9
$SPLINETYPE
 70
     6
  9
$SPLINESEGS
 70
     8
  9
$HANDSEED
  5
3C3
  9
$SURFTAB1
 70
     6
  9
$SURFTAB2
 70
     6
  9
$SURFTYPE
 70
     6
  9
$SURFU
 70
     6
  9
$SURFV
 70
     6
  9
$UCSBASE
  2

  9
$UCSNAME
  2

  9
$UCSORG
 10
0.0
 20
0.0
 30
0.0
  9
$UCSXDIR
 10
1.0
 20
0.0
 30
0.0
  9
$UCSYDIR
 10
0.0
 20
1.0
 30
0.0
  9
$UCSORTHOREF
  2

  9
$UCSORTHOVIEW
 70
     0
  9
$UCSORGTOP
 10
0.0
 20
0.0
 30
0.0
  9
$UCSORGBOTTOM
 10
0.0
 20
0.0
 30
0.0
  9
$UCSORGLEFT
 10
0.0
 20
0.0
 30
0.0
  9
$UCSORGRIGHT
 10
0.0
 20
0.0
 30
0.0
  9
$UCSORGFRONT
 10
0.0
 20
0.0
 30
0.0
  9
$UCSORGBACK
 10
0.0
 20
0.0
 30
0.0
  9
$PUCSBASE
  2

  9
$PUCSNAME
  2

  9
$PUCSORG
 10
0.0
 20
0.0
 30
0.0
  9
$PUCSXDIR
 10
1.0
 20
0.0
 30
0.0
  9
$PUCSYDIR
 10
0.0
 20
1.0
 30
0.0
  9
$PUCSORTHOREF
  2

  9
$PUCSORTHOVIEW
 70
     0
  9
$PUCSORGTOP
 10
0.0
 20
0.0
 30
0.0
  9
$PUCSORGBOTTOM
 10
0.0
 20
0.0
 30
0.0
  9
$PUCSORGLEFT
 10
0.0
 20
0.0
 30
0.0
  9
$PUCSORGRIGHT
 10
0.0
 20
0.0
 30
0.0
  9
$PUCSORGFRONT
 10
0.0
 20
0.0
 30
0.0
  9
$PUCSORGBACK
 10
0.0
 20
0.0
 30
0.0
  9
$USERI1
 70
     0
  9
$USERI2
 70
     0
  9
$USERI3
 70
     0
  9
$USERI4
 70
     0
  9
$USERI5
 70
     0
  9
$USERR1
 40
14.0
  9
$USERR2
 40
0.0
  9
$USERR3
 40
0.0
  9
$USERR4
 40
0.0
  9
$USERR5
 40
0.0
  9
$WORLDVIEW
 70
     1
  9
$SHADEDGE
 70
     3
  9
$SHADEDIF
 70
    70
  9
$TILEMODE
 70
     1
  9
$MAXACTVP
 70
    64
  9
$PINSBASE
 10
0.0
 20
0.0
 30
0.0
  9
$PLIMCHECK
 70
     0
  9
$PEXTMIN
 10
1.00000000000000E+20
 20
1.00000000000000E+20
 30
1.00000000000000E+20
  9
$PEXTMAX
 10
-1.00000000000000E+20
 20
-1.00000000000000E+20
 30
-1.00000000000000E+20
  9
$PLIMMIN
 10
0.0
 20
0.0
  9
$PLIMMAX
 10
12.0
 20
9.0
  9
$UNITMODE
 70
     0
  9
$VISRETAIN
 70
     1
  9
$PLINEGEN
 70
     0
  9
$PSLTSCALE
 70
     1
  9
$TREEDEPTH
 70
  3020
  9
$CMLSTYLE
  2
Standard
  9
$CMLJUST
 70
     0
  9
$CMLSCALE
 40
1.0
  9
$PROXYGRAPHICS
 70
     1
  9
$MEASUREMENT
 70
     1
  9
$CELWEIGHT
370
    -1
  9
$ENDCAPS
280
     0
  9
$JOINSTYLE
280
     0
  9
$LWDISPLAY
290
     0
  9
$INSUNITS
 70
     1
  9
$HYPERLINKBASE
  1

  9
$STYLESHEET
  1

  9
$XEDIT
290
     1
  9
$CEPSNTYPE
380
     0
  9
$PSTYLEMODE
290
     1
  9
$FINGERPRINTGUID
  2
{90F90CD9-AF74-4EA0-8DEF-C04BFE9B096A}
  9
$VERSIONGUID
  2
{FAEB1C32-E019-11D5-929B-00C0DF256EC4}
  9
$EXTNAMES
290
     1
  9
$PSVPSCALE
 40
0.0
  9
$OLESTARTUP
290
     0
  0
ENDSEC
  0
SECTION
  2
CLASSES
  0
CLASS
  1
ACDBDICTIONARYWDFLT
  2
AcDbDictionaryWithDefault
  3
ObjectDBX Classes
 90
        0
280
     0
281
     0
  0
CLASS
  1

  2
exOdDbCircle
  3

 90
        0
280
     0
281
     1
  0
CLASS
  1
ACDBPLACEHOLDER
  2
AcDbPlaceHolder
  3
ObjectDBX Classes
 90
        0
280
     0
281
     0
  0
CLASS
  1
LAYOUT
  2
AcDbLayout
  3
ObjectDBX Classes
 90
        0
280
     0
281
     0
  0
ENDSEC
  0
SECTION
  2
TABLES
  0
TABLE
  2
VPORT
  5
8
330
0
100
AcDbSymbolTable
 70
     1
  0
VPORT
  5
29
330
8
100
AcDbSymbolTableRecord
100
AcDbViewportTableRecord
  2
*Active
 70
     0
 10
0.0
 20
0.0
 11
1.0
 21
1.0
 12
-184.575790894621
 22
-1557.02676804293
 13
0.0
 23
0.0
 14
0.5
 24
0.5
 15
0.5
 25
0.5
 16
0.0
 26
0.0
 36
1.0
 17
0.0
 27
0.0
 37
0.0
 40
311.1882049147951
 41
1.60267857142857
 42
50.0
 43
0.0
 44
0.0
 50
0.0
 51
0.0
 71
     0
 72
   100
 73
     1
 74
     3
 75
     0
 76
     0
 77
     0
 78
     0
281
     0
 65
     1
110
0.0
120
0.0
130
0.0
111
1.0
121
0.0
131
0.0
112
0.0
122
1.0
132
0.0
 79
     0
146
0.0
  0
ENDTAB
  0
TABLE
  2
LTYPE
  5
5
330
0
100
AcDbSymbolTable
 70
     8
  0
LTYPE
  5
14
330
5
100
AcDbSymbolTableRecord
100
AcDbLinetypeTableRecord
  2
ByBlock
 70
     0
  3

 72
    65
 73
     0
 40
0.0
  0
LTYPE
  5
15
330
5
100
AcDbSymbolTableRecord
100
AcDbLinetypeTableRecord
  2
ByLayer
 70
     0
  3

 72
    65
 73
     0
 40
0.0
  0
LTYPE
  5
16
330
5
100
AcDbSymbolTableRecord
100
AcDbLinetypeTableRecord
  2
Continuous
 70
     0
  3
Solid line
 72
    65
 73
     0
 40
0.0
  0
LTYPE
  5
2A
330
5
100
AcDbSymbolTableRecord
100
AcDbLinetypeTableRecord
  2
DASHED
 70
     0
  3
Dashed
 72
    65
 73
     2
 40
15.0
 49
7.0
 74
     0
 49
-8.0
 74
     0
  0
LTYPE
  5
2B
330
5
100
AcDbSymbolTableRecord
100
AcDbLinetypeTableRecord
  2
DOTTED
 70
     0
  3
Dotted
 72
    65
 73
     2
 40
1.0
 49
0.0
 74
     0
 49
-1.0
 74
     0
  0
LTYPE
  5
2C
330
5
100
AcDbSymbolTableRecord
100
AcDbLinetypeTableRecord
  2
DOT_CENTER
 70
     0
  3
Dot_Center
 72
    65
 73
     4
 40
14.0
 49
12.0
 74
     0
 49
-1.0
 74
     0
 49
0.0
 74
     0
 49
-1.0
 74
     0
  0
LTYPE
  5
2D
330
5
100
AcDbSymbolTableRecord
100
AcDbLinetypeTableRecord
  2
LONG_DASHED
 70
     0
  3
Long_Dashed
 72
    65
 73
     2
 40
15.0
 49
10.0
 74
     0
 49
-5.0
 74
     0
  0
LTYPE
  5
2E
330
5
100
AcDbSymbolTableRecord
100
AcDbLinetypeTableRecord
  2
DASH_CENTER
 70
     0
  3
Dash_Center
 72
    65
 73
     4
 40
14.0
 49
11.0
 74
     0
 49
-1.0
 74
     0
 49
1.0
 74
     0
 49
-1.0
 74
     0
  0
LTYPE
  5
2F
330
5
100
AcDbSymbolTableRecord
100
AcDbLinetypeTableRecord
  2
PHANTOM
 70
     0
  3
Phantom
 72
    65
 73
     6
 40
13.0
 49
10.0
 74
     0
 49
-1.0
 74
     0
 49
0.0
 74
     0
 49
-1.0
 74
     0
 49
0.0
 74
     0
 49
-1.0
 74
     0
  0
LTYPE
  5
30
330
5
100
AcDbSymbolTableRecord
100
AcDbLinetypeTableRecord
  2
CENTER_DASH_DASH
 70
     0
  3
Center_Dash_Dash
 72
    65
 73
     6
 40
14.0
 49
9.0
 74
     0
 49
-1.0
 74
     0
 49
1.0
 74
     0
 49
-1.0
 74
     0
 49
1.0
 74
     0
 49
-1.0
 74
     0
  0
ENDTAB
  0
TABLE
  2
LAYER
  5
2
330
0
100
AcDbSymbolTable
 70
     3
  0
LAYER
  5
10
330
2
100
AcDbSymbolTableRecord
100
AcDbLayerTableRecord
  2
0
 70
     0
 62
     7
  6
Continuous
370
    -3
390
F
  0
LAYER
  5
31
330
2
100
AcDbSymbolTableRecord
100
AcDbLayerTableRecord
  2
1
 70
     0
 62
     7
  6
Continuous
370
    -3
390
F
  0
LAYER
  5
32
330
2
100
AcDbSymbolTableRecord
100
AcDbLayerTableRecord
  2
6_ALL_DRFT_GEOM
 70
     0
 62
     7
  6
Continuous
370
    -3
390
F
  0
ENDTAB
  0
TABLE
  2
STYLE
  5
3
330
0
100
AcDbSymbolTable
 70
     4
  0
STYLE
  5
11
330
3
100
AcDbSymbolTableRecord
100
AcDbTextStyleTableRecord
  2
Standard
 70
     0
 40
0.0
 41
1.0
 50
0.0
 71
     0
 42
0.2
  3
txt
  4

  0
STYLE
  5
2B2
330
3
100
AcDbSymbolTableRecord
100
AcDbTextStyleTableRecord
  2
CONVERTER_1
 70
     0
 40
0.0
 41
0.855
 50
0.0
 71
     0
 42
0.2
  3
complex.shx
  4

  0
STYLE
  5
364
330
3
100
AcDbSymbolTableRecord
100
AcDbTextStyleTableRecord
  2
CONVERTER_2
 70
     0
 40
0.0
 41
0.9
 50
0.0
 71
     0
 42
0.2
  3
txt.shx
  4

  0
STYLE
  5
387
330
3
100
AcDbSymbolTableRecord
100
AcDbTextStyleTableRecord
  2
CONVERTER_3
 70
     0
 40
0.0
 41
1.08
 50
0.0
 71
     0
 42
0.2
  3
txt.shx
  4

  0
ENDTAB
  0
TABLE
  2
VIEW
  5
6
330
0
100
AcDbSymbolTable
 70
     0
  0
ENDTAB
  0
TABLE
  2
UCS
  5
7
330
0
100
AcDbSymbolTable
 70
     0
  0
ENDTAB
  0
TABLE
  2
APPID
  5
9
330
0
100
AcDbSymbolTable
 70
     1
  0
APPID
  5
12
330
9
100
AcDbSymbolTableRecord
100
AcDbRegAppTableRecord
  2
ACAD
 70
     0
  0
ENDTAB
  0
TABLE
  2
DIMSTYLE
  5
A
330
0
100
AcDbSymbolTable
 70
     5
100
AcDbDimStyleTable
  0
DIMSTYLE
105
27
330
A
100
AcDbSymbolTableRecord
100
AcDbDimStyleTableRecord
  2
Standard
 70
     0
340
11
  0
DIMSTYLE
105
39A
102
{ACAD_REACTORS
330
39B
102
}
330
A
100
AcDbSymbolTableRecord
100
AcDbDimStyleTableRecord
  2
ME10_DIM_0
 70
     0
 41
3.5
 42
1.0
 44
1.0
 73
     0
 74
     0
 77
     1
 78
     8
140
3.5
147
1.6
172
     1
173
     1
176
     2
177
     2
178
     2
271
     3
340
364
343
394
344
394
  0
DIMSTYLE
105
3A7
102
{ACAD_REACTORS
330
3A8
102
}
330
A
100
AcDbSymbolTableRecord
100
AcDbDimStyleTableRecord
  2
ME10_DIM_1
 70
     0
 41
3.5
 42
1.0
 44
1.0
 73
     0
 74
     0
 77
     1
 78
     8
140
3.5
147
1.6
172
     1
173
     1
176
     2
177
     2
178
     2
271
     3
340
364
343
394
344
394
  0
DIMSTYLE
105
3B4
102
{ACAD_REACTORS
330
3B5
102
}
330
A
100
AcDbSymbolTableRecord
100
AcDbDimStyleTableRecord
  2
ME10_DIM_2
 70
     0
 41
3.5
 42
1.0
 44
1.0
 73
     0
 74
     0
 77
     1
 78
     8
140
3.5
147
1.6
172
     1
173
     1
176
     2
177
     2
178
     2
271
     3
340
364
343
394
344
394
  0
DIMSTYLE
105
3C1
102
{ACAD_REACTORS
330
3C2
102
}
330
A
100
AcDbSymbolTableRecord
100
AcDbDimStyleTableRecord
  2
ME10_DIM_3
 70
     0
 41
3.5
 42
1.0
 44
1.0
 73
     0
 74
     0
 77
     1
 78
     8
140
3.5
147
1.6
172
     1
173
     1
176
     2
177
     2
178
     2
271
     3
340
364
343
394
344
394
  0
ENDTAB
  0
TABLE
  2
BLOCK_RECORD
  5
1
330
0
100
AcDbSymbolTable
 70
    12
  0
BLOCK_RECORD
  5
1F
330
1
100
AcDbSymbolTableRecord
100
AcDbBlockTableRecord
  2
*Model_Space
340
22
  0
BLOCK_RECORD
  5
1B
330
1
100
AcDbSymbolTableRecord
100
AcDbBlockTableRecord
  2
*Paper_Space
340
1E
  0
BLOCK_RECORD
  5
23
330
1
100
AcDbSymbolTableRecord
100
AcDbBlockTableRecord
  2
*Paper_Space0
340
26
  0
BLOCK_RECORD
  5
33
330
1
100
AcDbSymbolTableRecord
100
AcDbBlockTableRecord
  2
Top__1
340
0
102
{BLKREFS
331
45
102
}
  0
BLOCK_RECORD
  5
36
330
1
100
AcDbSymbolTableRecord
100
AcDbBlockTableRecord
  2
Top__2
340
0
102
{BLKREFS
331
46
102
}
  0
BLOCK_RECORD
  5
39
330
1
100
AcDbSymbolTableRecord
100
AcDbBlockTableRecord
  2
Top__3
340
0
102
{BLKREFS
331
47
102
}
  0
BLOCK_RECORD
  5
3C
330
1
100
AcDbSymbolTableRecord
100
AcDbBlockTableRecord
  2
_3
340
0
102
{BLKREFS
331
48
102
}
  0
BLOCK_RECORD
  5
3F
330
1
100
AcDbSymbolTableRecord
100
AcDbBlockTableRecord
  2
_2
340
0
102
{BLKREFS
331
49
102
}
  0
BLOCK_RECORD
  5
42
330
1
100
AcDbSymbolTableRecord
100
AcDbBlockTableRecord
  2
Top__4
340
0
102
{BLKREFS
331
4A
102
}
  0
BLOCK_RECORD
  5
389
330
1
100
AcDbSymbolTableRecord
100
AcDbBlockTableRecord
  2
*D07
340
0
  0
BLOCK_RECORD
  5
394
330
1
100
AcDbSymbolTableRecord
100
AcDbBlockTableRecord
  2
_Open30
340
0
  0
BLOCK_RECORD
  5
39C
330
1
100
AcDbSymbolTableRecord
100
AcDbBlockTableRecord
  2
*D19
340
0
  0
BLOCK_RECORD
  5
3A9
330
1
100
AcDbSymbolTableRecord
100
AcDbBlockTableRecord
  2
*D210
340
0
  0
BLOCK_RECORD
  5
3B6
330
1
100
AcDbSymbolTableRecord
100
AcDbBlockTableRecord
  2
*D311
340
0
  0
ENDTAB
  0
ENDSEC
  0
SECTION
  2
BLOCKS
  0
BLOCK
  5
20
330
1F
100
AcDbEntity
  8
0
100
AcDbBlockBegin
  2
*Model_Space
 70
     0
 71
     0
 10
0.0
 20
0.0
 30
0.0
  3
*Model_Space
  1

  0
ENDBLK
  5
21
330
1F
100
AcDbEntity
  8
0
100
AcDbBlockEnd
  0
BLOCK
  5
1C
330
1B
100
AcDbEntity
 67
     1
  8
0
100
AcDbBlockBegin
  2
*Paper_Space
 70
     0
 71
     0
 10
0.0
 20
0.0
 30
0.0
  3
*Paper_Space
  1

  0
ENDBLK
  5
1D
330
1B
100
AcDbEntity
 67
     1
  8
0
100
AcDbBlockEnd
  0
BLOCK
  5
24
330
23
100
AcDbEntity
  8
0
100
AcDbBlockBegin
  2
*Paper_Space0
 70
     0
 71
     0
 10
0.0
 20
0.0
 30
0.0
  3
*Paper_Space0
  1

  0
ENDBLK
  5
25
330
23
100
AcDbEntity
  8
0
100
AcDbBlockEnd
  0
BLOCK
  5
34
330
33
100
AcDbEntity
  8
0
100
AcDbBlockBegin
  2
Top__1
 70
     0
 71
     0
 10
235.18102900239
 20
-2018.69039856386
 30
0.0
  3
Top__1
  1

  0
LINE
  5
4B
330
33
100
AcDbEntity
  8
1
  6
Continuous
 62
     3
100
AcDbLine
 10
-196.5173510652099
 20
-1491.05100762926
 30
0.0
 11
-196.5173510652099
 21
-1440.05100762926
 31
0.0
  0
LINE
  5
4C
330
33
100
AcDbEntity
  8
1
  6
Continuous
 62
     3
100
AcDbLine
 10
-196.5173510652099
 20
-1491.05100762926
 30
0.0
 11
-197.960726738184
 21
-1493.55100762926
 31
0.0
  0
LINE
  5
4D
330
33
100
AcDbEntity
  8
1
  6
Continuous
 62
     3
100
AcDbLine
 10
-197.960726738184
 20
-1437.55100762926
 30
0.0
 11
-196.5173510652099
 21
-1440.05100762926
 31
0.0
  0
LINE
  5
4E
330
33
100
AcDbEntity
  8
1
  6
Continuous
 62
     3
100
AcDbLine
 10
-49.37821466813688
 20
-1655.1727238711
 30
0.0
 11
-46.37821466813688
 21
-1655.1727238711
 31
0.0
  0
LINE
  5
4F
330
33
100
AcDbEntity
  8
1
  6
Continuous
 62
     3
100
AcDbLine
 10
-49.37821466813688
 20
-1593.1727238711
 30
0.0
 11
-46.37821466813688
 21
-1593.1727238711
 31
0.0
  0
LINE
  5
50
330
33
100
AcDbEntity
  8
1
  6
Continuous
 62
     3
100
AcDbLine
 10
-68.93483899516278
 20
-1593.6727238711
 30
0.0
 11
-50.24424007192135
 21
-1593.6727238711
 31
0.0
  0
LINE
  5
51
330
33
100
AcDbEntity
  8
1
  6
Continuous
 62
     3
100
AcDbLine
 10
-50.24424007192135
 20
-1654.6727238711
 30
0.0
 11
-68.93483899516278
 21
-1654.6727238711
 31
0.0
  0
LINE
  5
52
330
33
100
AcDbEntity
  8
1
  6
Continuous
 62
     3
100
AcDbLine
 10
-68.93483899516278
 20
-1654.6727238711
 30
0.0
 11
-70.37821466813688
 21
-1652.1727238711
 31
0.0
  0
LINE
  5
53
330
33
100
AcDbEntity
  8
1
  6
Continuous
 62
     3
100
AcDbLine
 10
-70.37821466813688
 20
-1596.1727238711
 30
0.0
 11
-68.93483899516278
 21
-1593.6727238711
 31
0.0
  0
LINE
  5
54
330
33
100
AcDbEntity
  8
1
  6
Continuous
 62
     3
100
AcDbLine
 10
-46.37821466813688
 20
-1593.1727238711
 30
0.0
 11
-46.37821466813688
 21
-1597.3727238711
 31
0.0
  0
LINE
  5
55
330
33
100
AcDbEntity
  8
1
  6
Continuous
 62
     3
100
AcDbLine
 10
-46.37821466813688
 20
-1650.9727238711
 30
0.0
 11
-46.37821466813688
 21
-1655.1727238711
 31
0.0
  0
LINE
  5
56
330
33
100
AcDbEntity
  8
1
  6
Continuous
 62
     3
100
AcDbLine
 10
-50.24424007192135
 20
-1654.6727238711
 30
0.0
 11
-50.24424007192135
 21
-1593.6727238711
 31
0.0
  0
LINE
  5
57
330
33
100
AcDbEntity
  8
1
  6
Continuous
 62
     3
100
AcDbLine
 10
-70.37821466813688
 20
-1596.1727238711
 30
0.0
 11
-70.37821466813688
 21
-1652.1727238711
 31
0.0
  0
LINE
  5
58
330
33
100
AcDbEntity
  8
1
  6
Continuous
 62
     3
100
AcDbLine
 10
-64.49258440361609
 20
-1606.162093606568
 30
0.0
 11
-50.24424007192135
 21
-1606.162093606568
 31
0.0
  0
LINE
  5
59
330
33
100
AcDbEntity
  8
1
  6
Continuous
 62
     3
100
AcDbLine
 10
-64.49258440360501
 20
-1642.183354135632
 30
0.0
 11
-50.24424007192135
 21
-1642.183354135632
 31
0.0
  0
LINE
  5
5A
330
33
100
AcDbEntity
  8
1
  6
DASH_CENTER
 62
     1
100
AcDbLine
 10
-135.5173510652099
 20
-1586.9727238711
 30
0.0
 11
-135.5173510652099
 21
-1661.3727238711
 31
0.0
  0
LINE
  5
5B
330
33
100
AcDbEntity
  8
1
  6
DASH_CENTER
 62
     1
100
AcDbLine
 10
-98.31735106520992
 20
-1624.1727238711
 30
0.0
 11
-172.7173510652099
 21
-1624.1727238711
 31
0.0
  0
LINE
  5
5C
330
33
100
AcDbEntity
  8
1
  6
Continuous
 62
     3
100
AcDbLine
 10
-107.5173510652098
 20
-1624.1727238711
 30
0.0
 11
-107.5173510652099
 21
-1636.266110493548
 31
0.0
  0
LINE
  5
5D
330
33
100
AcDbEntity
  8
1
  6
Continuous
 62
     3
100
AcDbLine
 10
-107.5173510652099
 20
-1612.079337248652
 30
0.0
 11
-107.5173510652098
 21
-1624.1727238711
 31
0.0
  0
LINE
  5
5E
330
33
100
AcDbEntity
  8
1
  6
Continuous
 62
     3
100
AcDbLine
 10
-111.0441710323832
 20
-1642.37474186584
 30
0.0
 11
-131.9905310980366
 21
-1654.468128488288
 31
0.0
  0
LINE
  5
5F
330
33
100
AcDbEntity
  8
1
  6
Continuous
 62
     3
100
AcDbLine
 10
-139.0441710323832
 20
-1654.468128488288
 30
0.0
 11
-159.9905310980366
 21
-1642.37474186584
 31
0.0
  0
LINE
  5
60
330
33
100
AcDbEntity
  8
1
  6
Continuous
 62
     3
100
AcDbLine
 10
-163.5173510652099
 20
-1636.266110493548
 30
0.0
 11
-163.5173510652099
 21
-1612.079337248652
 31
0.0
  0
LINE
  5
61
330
33
100
AcDbEntity
  8
1
  6
Continuous
 62
     3
100
AcDbLine
 10
-159.9905310980366
 20
-1605.97070587636
 30
0.0
 11
-139.0441710323832
 21
-1593.877319253912
 31
0.0
  0
LINE
  5
62
330
33
100
AcDbEntity
  8
1
  6
Continuous
 62
     3
100
AcDbLine
 10
-131.9905310980366
 20
-1593.877319253912
 30
0.0
 11
-111.0441710323831
 21
-1605.97070587636
 31
0.0
  0
LINE
  5
63
330
33
100
AcDbEntity
  8
1
  6
Continuous
 62
     3
100
AcDbLine
 10
-220.5173510652099
 20
-1496.55100762926
 30
0.0
 11
-220.5173510652099
 21
-1492.35100762926
 31
0.0
  0
LINE
  5
64
330
33
100
AcDbEntity
  8
1
  6
Continuous
 62
     3
100
AcDbLine
 10
-216.6513256614254
 20
-1642.183354135632
 30
0.0
 11
-202.4029813297418
 21
-1642.183354135632
 31
0.0
  0
LINE
  5
65
330
33
100
AcDbEntity
  8
1
  6
Continuous
 62
     3
100
AcDbLine
 10
-216.6513256614254
 20
-1606.162093606568
 30
0.0
 11
-202.4029813297307
 21
-1606.162093606568
 31
0.0
  0
LINE
  5
66
330
33
100
AcDbEntity
  8
1
  6
Continuous
 62
     3
100
AcDbLine
 10
-196.5173510652099
 20
-1652.1727238711
 30
0.0
 11
-196.5173510652099
 21
-1596.1727238711
 31
0.0
  0
LINE
  5
67
330
33
100
AcDbEntity
  8
1
  6
Continuous
 62
     3
100
AcDbLine
 10
-216.6513256614254
 20
-1593.6727238711
 30
0.0
 11
-216.6513256614254
 21
-1654.6727238711
 31
0.0
  0
LINE
  5
68
330
33
100
AcDbEntity
  8
1
  6
Continuous
 62
     3
100
AcDbLine
 10
-216.5173510652099
 20
-1495.55100762926
 30
0.0
 11
-216.5173510652099
 21
-1496.05100762926
 31
0.0
  0
LINE
  5
69
330
33
100
AcDbEntity
  8
1
  6
Continuous
 62
     3
100
AcDbLine
 10
-216.5173510652099
 20
-1435.55100762926
 30
0.0
 11
-216.5173510652099
 21
-1435.05100762926
 31
0.0
  0
LINE
  5
6A
330
33
100
AcDbEntity
  8
1
  6
Continuous
 62
     3
100
AcDbLine
 10
-220.5173510652099
 20
-1496.55100762926
 30
0.0
 11
-217.5173510652099
 21
-1496.55100762926
 31
0.0
  0
LINE
  5
6B
330
33
100
AcDbEntity
  8
1
  6
Continuous
 62
     3
100
AcDbLine
 10
-216.5173510652099
 20
-1495.55100762926
 30
0.0
 11
-216.5173510652099
 21
-1494.55100762926
 31
0.0
  0
LINE
  5
6C
330
33
100
AcDbEntity
  8
1
  6
Continuous
 62
     3
100
AcDbLine
 10
-220.5173510652099
 20
-1434.55100762926
 30
0.0
 11
-217.5173510652099
 21
-1434.55100762926
 31
0.0
  0
LINE
  5
6D
330
33
100
AcDbEntity
  8
1
  6
Continuous
 62
     3
100
AcDbLine
 10
-216.5173510652099
 20
-1435.55100762926
 30
0.0
 11
-216.5173510652099
 21
-1436.55100762926
 31
0.0
  0
LINE
  5
6E
330
33
100
AcDbEntity
  8
1
  6
Continuous
 62
     3
100
AcDbLine
 10
-215.5173510652099
 20
-1437.55100762926
 30
0.0
 11
-197.960726738184
 21
-1437.55100762926
 31
0.0
  0
LINE
  5
6F
330
33
100
AcDbEntity
  8
1
  6
Continuous
 62
     3
100
AcDbLine
 10
-215.5173510652099
 20
-1493.55100762926
 30
0.0
 11
-197.960726738184
 21
-1493.55100762926
 31
0.0
  0
LINE
  5
70
330
33
100
AcDbEntity
  8
1
  6
Continuous
 62
     3
100
AcDbLine
 10
-220.5173510652099
 20
-1438.75100762926
 30
0.0
 11
-220.5173510652099
 21
-1434.55100762926
 31
0.0
  0
LINE
  5
71
330
33
100
AcDbEntity
  8
1
  6
Continuous
 62
     3
100
AcDbLine
 10
-220.5173510652099
 20
-1655.1727238711
 30
0.0
 11
-220.5173510652099
 21
-1650.9727238711
 31
0.0
  0
LINE
  5
72
330
33
100
AcDbEntity
  8
1
  6
Continuous
 62
     3
100
AcDbLine
 10
-220.5173510652099
 20
-1597.3727238711
 30
0.0
 11
-220.5173510652099
 21
-1593.1727238711
 31
0.0
  0
LINE
  5
73
330
33
100
AcDbEntity
  8
1
  6
Continuous
 62
     3
100
AcDbLine
 10
-197.960726738184
 20
-1593.6727238711
 30
0.0
 11
-196.5173510652099
 21
-1596.1727238711
 31
0.0
  0
LINE
  5
74
330
33
100
AcDbEntity
  8
1
  6
Continuous
 62
     3
100
AcDbLine
 10
-196.5173510652099
 20
-1652.1727238711
 30
0.0
 11
-197.960726738184
 21
-1654.6727238711
 31
0.0
  0
LINE
  5
75
330
33
100
AcDbEntity
  8
1
  6
Continuous
 62
     3
100
AcDbLine
 10
-197.960726738184
 20
-1654.6727238711
 30
0.0
 11
-216.6513256614254
 21
-1654.6727238711
 31
0.0
  0
LINE
  5
76
330
33
100
AcDbEntity
  8
1
  6
Continuous
 62
     3
100
AcDbLine
 10
-216.6513256614254
 20
-1593.6727238711
 30
0.0
 11
-197.960726738184
 21
-1593.6727238711
 31
0.0
  0
LINE
  5
77
330
33
100
AcDbEntity
  8
1
  6
Continuous
 62
     3
100
AcDbLine
 10
-220.5173510652099
 20
-1593.1727238711
 30
0.0
 11
-217.5173510652099
 21
-1593.1727238711
 31
0.0
  0
LINE
  5
78
330
33
100
AcDbEntity
  8
1
  6
Continuous
 62
     3
100
AcDbLine
 10
-220.5173510652099
 20
-1655.1727238711
 30
0.0
 11
-217.5173510652099
 21
-1655.1727238711
 31
0.0
  0
LINE
  5
79
330
33
100
AcDbEntity
  8
1
  6
Continuous
 62
     3
100
AcDbLine
 10
-216.5173510652099
 20
-1436.55100762926
 30
0.0
 11
-216.5173510652099
 21
-1465.55100762926
 31
0.0
  0
LINE
  5
7A
330
33
100
AcDbEntity
  8
1
  6
Continuous
 62
     3
100
AcDbLine
 10
-202.4029813297418
 20
-1465.55100762926
 30
0.0
 11
-216.5173510652099
 21
-1465.55100762926
 31
0.0
  0
LINE
  5
7B
330
33
100
AcDbEntity
  8
1
  6
Continuous
 62
     3
100
AcDbLine
 10
-216.5173510652099
 20
-1465.55100762926
 30
0.0
 11
-216.5173510652099
 21
-1494.55100762926
 31
0.0
  0
ARC
  5
7C
330
33
100
AcDbEntity
  8
1
  6
Continuous
 62
     3
100
AcDbCircle
 10
-39.87821466813688
 20
-1624.1727238711
 30
0.0
 40
30.50000000000008
100
AcDbArc
 50
143.8066170998974
 51
180.0
  0
ARC
  5
7D
330
33
100
AcDbEntity
  8
1
  6
Continuous
 62
     3
100
AcDbCircle
 10
-62.3962491297832
 20
-1598.441641649611
 30
0.0
 40
7.999999999997142
100
AcDbArc
 50
176.1520816518517
 51
-105.1912563765455
  0
ARC
  5
7E
330
33
100
AcDbEntity
  8
1
  6
Continuous
 62
     3
100
AcDbCircle
 10
-62.3962491297832
 20
-1649.903806092589
 30
0.0
 40
7.999999999996968
100
AcDbArc
 50
105.1912563764688
 51
-176.1520816518533
  0
ARC
  5
7F
330
33
100
AcDbEntity
  8
1
  6
Continuous
 62
     3
100
AcDbCircle
 10
-39.87821466813688
 20
-1624.1727238711
 30
0.0
 40
30.5
100
AcDbArc
 50
180.0
 51
-143.8066170998974
  0
ARC
  5
80
330
33
100
AcDbEntity
  8
1
  6
Continuous
 62
     3
100
AcDbCircle
 10
-135.5173510652099
 20
-1624.1727238711
 30
0.0
 40
30.50000000000006
100
AcDbArc
 50
23.35983767501907
 51
36.64016232498064
  0
ARC
  5
81
330
33
100
AcDbEntity
  8
1
  6
Continuous
 62
     3
100
AcDbCircle
 10
-135.5173510652099
 20
-1624.1727238711
 30
0.0
 40
30.49999999999971
100
AcDbArc
 50
-36.64016232498042
 51
-23.35983767501907
  0
ARC
  5
82
330
33
100
AcDbEntity
  8
1
  6
Continuous
 62
     3
100
AcDbCircle
 10
-135.5173510652099
 20
-1624.1727238711
 30
0.0
 40
30.49999999999984
100
AcDbArc
 50
143.3598376750192
 51
156.6401623249809
  0
ARC
  5
83
330
33
100
AcDbEntity
  8
1
  6
Continuous
 62
     3
100
AcDbCircle
 10
-135.5173510652099
 20
-1624.1727238711
 30
0.0
 40
30.49999999999988
100
AcDbArc
 50
83.35983767501881
 51
96.64016232498113
  0
ARC
  5
84
330
33
100
AcDbEntity
  8
1
  6
Continuous
 62
     3
100
AcDbCircle
 10
-227.0173510652099
 20
-1624.1727238711
 30
0.0
 40
30.50000000000006
100
AcDbArc
 50
-36.19338290010268
 51
0.0
  0
ARC
  5
85
330
33
100
AcDbEntity
  8
1
  6
Continuous
 62
     3
100
AcDbCircle
 10
-204.4993166035636
 20
-1649.903806092589
 30
0.0
 40
7.999999999997155
100
AcDbArc
 50
-3.84791834814672
 51
74.80874362353117
  0
ARC
  5
86
330
33
100
AcDbEntity
  8
1
  6
Continuous
 62
     3
100
AcDbCircle
 10
-204.4993166035636
 20
-1598.441641649611
 30
0.0
 40
7.99999999999988
100
AcDbArc
 50
-74.80874362345438
 51
3.84791834814834
  0
ARC
  5
87
330
33
100
AcDbEntity
  8
1
  6
Continuous
 62
     3
100
AcDbCircle
 10
-227.0173510652099
 20
-1624.1727238711
 30
0.0
 40
30.5
100
AcDbArc
 50
0.0
 51
36.19338290010268
  0
ARC
  5
88
330
33
100
AcDbEntity
  8
1
  6
Continuous
 62
     3
100
AcDbCircle
 10
-204.4993166035636
 20
-1473.271459586217
 30
0.0
 40
7.99999999999717
100
AcDbArc
 50
-3.84791834814834
 51
74.80874362353075
  0
ARC
  5
89
330
33
100
AcDbEntity
  8
1
  6
Continuous
 62
     3
100
AcDbCircle
 10
-204.4993166035636
 20
-1457.830555672303
 30
0.0
 40
7.999999999996968
100
AcDbArc
 50
-74.80874362353117
 51
3.84791834814834
  0
CIRCLE
  5
8A
330
33
100
AcDbEntity
  8
1
  6
Continuous
 62
     3
100
AcDbCircle
 10
-135.5173510652099
 20
-1624.1727238711
 30
0.0
 40
28.00000000000011
  0
CIRCLE
  5
8B
330
33
100
AcDbEntity
  8
1
  6
Continuous
 62
     1
100
AcDbCircle
 10
-135.5173510652099
 20
-1624.1727238711
 30
0.0
 40
23.79999999999991
  0
CIRCLE
  5
8C
330
33
100
AcDbEntity
  8
1
  6
Continuous
 62
     3
100
AcDbCircle
 10
-135.5173510652099
 20
-1624.1727238711
 30
0.0
 40
22.40000000000001
  0
CIRCLE
  5
8D
330
33
100
AcDbEntity
  8
1
  6
Continuous
 62
     3
100
AcDbCircle
 10
-135.5173510652099
 20
-1624.1727238711
 30
0.0
 40
31.0
  0
ARC
  5
8E
330
33
100
AcDbEntity
  8
1
  6
Continuous
 62
     3
100
AcDbCircle
 10
-49.37821466813688
 20
-1594.1727238711
 30
0.0
 40
1.0
100
AcDbArc
 50
90.0
 51
150.0000000000009
  0
ARC
  5
8F
330
33
100
AcDbEntity
  8
1
  6
Continuous
 62
     3
100
AcDbCircle
 10
-49.37821466813688
 20
-1654.1727238711
 30
0.0
 40
1.000000000000027
100
AcDbArc
 50
-150.0000000000009
 51
-90.0
  0
ARC
  5
90
330
33
100
AcDbEntity
  8
1
  6
Continuous
 62
     3
100
AcDbCircle
 10
-215.5173510652099
 20
-1436.55100762926
 30
0.0
 40
1.0
100
AcDbArc
 50
180.0
 51
-90.0
  0
ARC
  5
91
330
33
100
AcDbEntity
  8
1
  6
Continuous
 62
     3
100
AcDbCircle
 10
-217.5173510652099
 20
-1495.55100762926
 30
0.0
 40
1.000000000000058
100
AcDbArc
 50
-29.9999999999981
 51
0.0
  0
ARC
  5
92
330
33
100
AcDbEntity
  8
1
  6
Continuous
 62
     3
100
AcDbCircle
 10
-217.5173510652099
 20
-1435.55100762926
 30
0.0
 40
1.000000000000058
100
AcDbArc
 50
29.9999999999981
 51
90.0
  0
ARC
  5
93
330
33
100
AcDbEntity
  8
1
  6
Continuous
 62
     3
100
AcDbCircle
 10
-217.5173510652099
 20
-1495.55100762926
 30
0.0
 40
1.0
100
AcDbArc
 50
-90.0
 51
-29.9999999999981
  0
ARC
  5
94
330
33
100
AcDbEntity
  8
1
  6
Continuous
 62
     3
100
AcDbCircle
 10
-215.5173510652099
 20
-1494.55100762926
 30
0.0
 40
1.0
100
AcDbArc
 50
90.0
 51
180.0
  0
ARC
  5
95
330
33
100
AcDbEntity
  8
1
  6
Continuous
 62
     3
100
AcDbCircle
 10
-217.5173510652099
 20
-1435.55100762926
 30
0.0
 40
1.0
100
AcDbArc
 50
0.0
 51
29.9999999999981
  0
ARC
  5
96
330
33
100
AcDbEntity
  8
1
  6
Continuous
 62
     3
100
AcDbCircle
 10
-217.5173510652099
 20
-1654.1727238711
 30
0.0
 40
1.0
100
AcDbArc
 50
-90.0
 51
-29.9999999999981
  0
ARC
  5
97
330
33
100
AcDbEntity
  8
1
  6
Continuous
 62
     3
100
AcDbCircle
 10
-217.5173510652099
 20
-1594.1727238711
 30
0.0
 40
1.000000000000058
100
AcDbArc
 50
29.9999999999981
 51
90.0
  0
ENDBLK
  5
35
330
33
100
AcDbEntity
  8
0
100
AcDbBlockEnd
  0
BLOCK
  5
37
330
36
100
AcDbEntity
  8
0
100
AcDbBlockBegin
  2
Top__2
 70
     0
 71
     0
 10
292.602948726531
 20
-2136.372716576097
 30
0.0
  3
Top__2
  1

  0
LINE
  5
98
330
36
100
AcDbEntity
  8
1
  6
DOT_CENTER
 62
     1
100
AcDbLine
 10
-309.0173510652099
 20
-1465.55100762926
 30
0.0
 11
-190.471167655841
 21
-1465.55100762926
 31
0.0
  0
LINE
  5
99
330
36
100
AcDbEntity
  8
1
  6
Continuous
 62
     3
100
AcDbLine
 10
-283.0173510652099
 20
-1465.55100762926
 30
0.0
 11
-283.0173510652099
 21
-1493.55100762926
 31
0.0
  0
LINE
  5
9A
330
36
100
AcDbEntity
  8
1
  6
Continuous
 62
     3
100
AcDbLine
 10
-283.0173510652099
 20
-1465.55100762926
 30
0.0
 11
-300.131720800678
 21
-1465.55100762926
 31
0.0
  0
LINE
  5
9B
330
36
100
AcDbEntity
  8
1
  6
Continuous
 62
     3
100
AcDbLine
 10
-283.0173510652099
 20
-1437.55100762926
 30
0.0
 11
-283.0173510652099
 21
-1465.55100762926
 31
0.0
  0
LINE
  5
9C
330
36
100
AcDbEntity
  8
1
  6
Continuous
 62
     3
100
AcDbLine
 10
-226.5173510652099
 20
-1495.55100762926
 30
0.0
 11
-226.5173510652099
 21
-1435.55100762926
 31
0.0
  0
LINE
  5
9D
330
36
100
AcDbEntity
  8
1
  6
Continuous
 62
     3
100
AcDbLine
 10
-225.5173510652099
 20
-1434.55100762926
 30
0.0
 11
-225.5173510652099
 21
-1496.55100762926
 31
0.0
  0
LINE
  5
9E
330
36
100
AcDbEntity
  8
1
  6
Continuous
 62
     3
100
AcDbLine
 10
-220.5173510652099
 20
-1434.818956821691
 30
0.0
 11
-220.5173510652099
 21
-1496.283058436829
 31
0.0
  0
LINE
  5
9F
330
36
100
AcDbEntity
  8
1
  6
Continuous
 62
     3
100
AcDbLine
 10
-276.0173510652099
 20
-1438.55100762926
 30
0.0
 11
-272.0365723611531
 21
-1438.55100762926
 31
0.0
  0
LINE
  5
A0
330
36
100
AcDbEntity
  8
1
  6
Continuous
 62
     3
100
AcDbLine
 10
-252.5173510652099
 20
-1435.55100762926
 30
0.0
 11
-226.5173510652099
 21
-1435.55100762926
 31
0.0
  0
LINE
  5
A1
330
36
100
AcDbEntity
  8
1
  6
Continuous
 62
     3
100
AcDbLine
 10
-226.5173510652099
 20
-1435.55100762926
 30
0.0
 11
-225.5173510652099
 21
-1434.55100762926
 31
0.0
  0
LINE
  5
A2
330
36
100
AcDbEntity
  8
1
  6
Continuous
 62
     3
100
AcDbLine
 10
-225.5173510652099
 20
-1434.55100762926
 30
0.0
 11
-221.5173510652099
 21
-1434.55100762926
 31
0.0
  0
LINE
  5
A3
330
36
100
AcDbEntity
  8
1
  6
Continuous
 62
     3
100
AcDbLine
 10
-305.0173510652099
 20
-1437.55100762926
 30
0.0
 11
-283.0173510652099
 21
-1437.55100762926
 31
0.0
  0
LINE
  5
A4
330
36
100
AcDbEntity
  8
1
  6
Continuous
 62
     3
100
AcDbLine
 10
-305.0173510652099
 20
-1493.55100762926
 30
0.0
 11
-283.0173510652099
 21
-1493.55100762926
 31
0.0
  0
LINE
  5
A5
330
36
100
AcDbEntity
  8
1
  6
Continuous
 62
     3
100
AcDbLine
 10
-306.0173510652099
 20
-1439.283058436829
 30
0.0
 11
-305.0173510652099
 21
-1437.55100762926
 31
0.0
  0
LINE
  5
A6
330
36
100
AcDbEntity
  8
1
  6
Continuous
 62
     3
100
AcDbLine
 10
-306.0173510652099
 20
-1439.283058436829
 30
0.0
 11
-306.0173510652099
 21
-1491.818956821691
 31
0.0
  0
LINE
  5
A7
330
36
100
AcDbEntity
  8
1
  6
Continuous
 62
     3
100
AcDbLine
 10
-279.9455542954854
 20
-1438.55100762926
 30
0.0
 11
-276.0173510652099
 21
-1438.55100762926
 31
0.0
  0
LINE
  5
A8
330
36
100
AcDbEntity
  8
1
  6
Continuous
 62
     3
100
AcDbLine
 10
-226.5173510652099
 20
-1495.55100762926
 30
0.0
 11
-252.5173510652099
 21
-1495.55100762926
 31
0.0
  0
LINE
  5
A9
330
36
100
AcDbEntity
  8
1
  6
Continuous
 62
     3
100
AcDbLine
 10
-225.5173510652099
 20
-1496.55100762926
 30
0.0
 11
-226.5173510652099
 21
-1495.55100762926
 31
0.0
  0
LINE
  5
AA
330
36
100
AcDbEntity
  8
1
  6
Continuous
 62
     3
100
AcDbLine
 10
-221.5173510652099
 20
-1496.55100762926
 30
0.0
 11
-225.5173510652099
 21
-1496.55100762926
 31
0.0
  0
LINE
  5
AB
330
36
100
AcDbEntity
  8
1
  6
Continuous
 62
     3
100
AcDbLine
 10
-272.0365723611531
 20
-1492.55100762926
 30
0.0
 11
-279.9455542954854
 21
-1492.55100762926
 31
0.0
  0
LINE
  5
AC
330
36
100
AcDbEntity
  8
1
  6
Continuous
 62
     3
100
AcDbLine
 10
-282.4455542954854
 20
-1493.220880610338
 30
0.0
 11
-283.0173510652099
 21
-1493.55100762926
 31
0.0
  0
LINE
  5
AD
330
36
100
AcDbEntity
  8
1
  6
Continuous
 62
     3
100
AcDbLine
 10
-282.4455542954854
 20
-1493.220880610338
 30
0.0
 11
-283.0173510652099
 21
-1493.55100762926
 31
0.0
  0
LINE
  5
AE
330
36
100
AcDbEntity
  8
1
  6
DASH_CENTER
 62
     1
100
AcDbLine
 10
-252.5173510652099
 20
-1498.55100762926
 30
0.0
 11
-252.5173510652099
 21
-1432.55100762926
 31
0.0
  0
LINE
  5
AF
330
36
100
AcDbEntity
  8
1
  6
Continuous
 62
     3
100
AcDbLine
 10
-305.0173510652099
 20
-1493.55100762926
 30
0.0
 11
-306.0173510652099
 21
-1491.818956821691
 31
0.0
  0
LINE
  5
B0
330
36
100
AcDbEntity
  8
1
  6
Continuous
 62
     3
100
AcDbLine
 10
-283.0173510652099
 20
-1437.55100762926
 30
0.0
 11
-282.4455542954854
 21
-1437.881134648182
 31
0.0
  0
ARC
  5
B1
330
36
100
AcDbEntity
  8
1
  6
Continuous
 62
     3
100
AcDbCircle
 10
-252.5173510652099
 20
-1435.55100762926
 30
0.0
 40
59.99999999999963
100
AcDbArc
 50
-107.4753651465016
 51
-90.0
  0
ARC
  5
B2
330
36
100
AcDbEntity
  8
1
  6
Continuous
 62
     3
100
AcDbCircle
 10
-252.5173510652099
 20
-1495.55100762926
 30
0.0
 40
60.0
100
AcDbArc
 50
90.0
 51
107.4753651465015
  0
ARC
  5
B3
330
36
100
AcDbEntity
  8
1
  6
Continuous
 62
     3
100
AcDbCircle
 10
-298.0353855268562
 20
-1457.830555672303
 30
0.0
 40
7.999999999997142
100
AcDbArc
 50
176.1520816518517
 51
-105.1912563764688
  0
ARC
  5
B4
330
36
100
AcDbEntity
  8
1
  6
Continuous
 62
     3
100
AcDbCircle
 10
-298.0353855268562
 20
-1473.271459586217
 30
0.0
 40
7.999999999996748
100
AcDbArc
 50
105.1912563764693
 51
-176.1520816518517
  0
ARC
  5
B5
330
36
100
AcDbEntity
  8
1
  6
Continuous
 62
     3
100
AcDbCircle
 10
-221.5173510652099
 20
-1494.55100762926
 30
0.0
 40
2.0
100
AcDbArc
 50
-90.0
 51
-59.99999999999946
  0
ARC
  5
B6
330
36
100
AcDbEntity
  8
1
  6
Continuous
 62
     3
100
AcDbCircle
 10
-221.5173510652099
 20
-1436.55100762926
 30
0.0
 40
2.000000000000164
100
AcDbArc
 50
60.00000000000272
 51
90.0
  0
ARC
  5
B7
330
36
100
AcDbEntity
  8
1
  6
Continuous
 62
     3
100
AcDbCircle
 10
-279.9455542954854
 20
-1433.55100762926
 30
0.0
 40
4.99999999999982
100
AcDbArc
 50
-120.0000000000012
 51
-90.0
  0
ARC
  5
B8
330
36
100
AcDbEntity
  8
1
  6
Continuous
 62
     3
100
AcDbCircle
 10
-279.9455542954854
 20
-1497.55100762926
 30
0.0
 40
5.0
100
AcDbArc
 50
90.0
 51
120.0000000000012
  0
ARC
  5
B9
330
36
100
AcDbEntity
  8
1
  6
Continuous
 62
     3
100
AcDbCircle
 10
-272.0365723611531
 20
-1497.55100762926
 30
0.0
 40
5.000000000000387
100
AcDbArc
 50
72.52463485349983
 51
90.0
  0
ARC
  5
BA
330
36
100
AcDbEntity
  8
1
  6
Continuous
 62
     3
100
AcDbCircle
 10
-272.0365723611531
 20
-1433.55100762926
 30
0.0
 40
5.0
100
AcDbArc
 50
-90.0
 51
-72.52463485349905
  0
ENDBLK
  5
38
330
36
100
AcDbEntity
  8
0
100
AcDbBlockEnd
  0
BLOCK
  5
3A
330
39
100
AcDbEntity
  8
0
100
AcDbBlockBegin
  2
Top__3
 70
     0
 71
     0
 10
355.854915550706
 20
-1268.23821657842
 30
0.0
  3
Top__3
  1

  0
POINT
  5
BB
330
39
100
AcDbEntity
  8
1
 62
     3
 60
     1
100
AcDbPoint
 10
557.7922961771744
 20
-1337.970267385989
 30
0.0
  0
POINT
  5
BC
330
39
100
AcDbEntity
  8
1
 62
     3
 60
     1
100
AcDbPoint
 10
557.7922961771744
 20
-1276.506165770851
 30
0.0
  0
LINE
  5
BD
330
39
100
AcDbEntity
  8
1
  6
Continuous
 62
     3
100
AcDbLine
 10
-40.37821466813685
 20
-1628.1727238711
 30
0.0
 11
-40.37821466813682
 21
-1654.1727238711
 31
0.0
  0
LINE
  5
BE
330
39
100
AcDbEntity
  8
1
  6
Continuous
 62
     3
100
AcDbLine
 10
-41.37821466813682
 20
-1620.1727238711
 30
0.0
 11
-41.37821466813688
 21
-1593.1727238711
 31
0.0
  0
LINE
  5
BF
330
39
100
AcDbEntity
  8
1
  6
Continuous
 62
     3
100
AcDbLine
 10
-41.37821466813682
 20
-1620.1727238711
 30
0.0
 11
8.12178533186318
 21
-1620.1727238711
 31
0.0
  0
LINE
  5
C0
330
39
100
AcDbEntity
  8
1
  6
Continuous
 62
     3
100
AcDbLine
 10
8.12178533186318
 20
-1628.1727238711
 30
0.0
 11
-41.37821466813682
 21
-1628.1727238711
 31
0.0
  0
LINE
  5
C1
330
39
100
AcDbEntity
  8
1
  6
Continuous
 62
     3
100
AcDbLine
 10
8.12178533186318
 20
-1620.1727238711
 30
0.0
 11
8.12178533186318
 21
-1628.1727238711
 31
0.0
  0
LINE
  5
C2
330
39
100
AcDbEntity
  8
1
  6
Continuous
 62
     3
100
AcDbLine
 10
-40.37821466813688
 20
-1594.1727238711
 30
0.0
 11
-35.33880587317844
 21
-1594.1727238711
 31
0.0
  0
LINE
  5
C3
330
39
100
AcDbEntity
  8
1
  6
Continuous
 62
     3
100
AcDbLine
 10
-14.37821466813688
 20
-1654.1727238711
 30
0.0
 11
-40.37821466813682
 21
-1654.1727238711
 31
0.0
  0
LINE
  5
C4
330
39
100
AcDbEntity
  8
1
  6
Continuous
 62
     3
100
AcDbLine
 10
-30.64034276924883
 20
-1590.882824587728
 30
0.0
 11
-26.67975156420729
 21
-1580.001189684186
 31
0.0
  0
LINE
  5
C5
330
39
100
AcDbEntity
  8
1
  6
Continuous
 62
     3
100
AcDbLine
 10
-31.33880587317844
 20
-1594.1727238711
 30
0.0
 11
-35.33880587317844
 21
-1594.1727238711
 31
0.0
  0
LINE
  5
C6
330
39
100
AcDbEntity
  8
1
  6
Continuous
 62
     3
100
AcDbLine
 10
2.97582413577376
 20
-1593.882824587728
 30
0.0
 11
-2.07667777206643
 21
-1580.001189684186
 31
0.0
  0
LINE
  5
C7
330
39
100
AcDbEntity
  8
1
  6
DOT_CENTER
 62
     1
100
AcDbLine
 10
-14.37821466813688
 20
-1548.1727238711
 30
0.0
 11
-14.37821466813688
 21
-1658.1727238711
 31
0.0
  0
LINE
  5
C8
330
39
100
AcDbEntity
  8
1
  6
Continuous
 62
     3
100
AcDbLine
 10
-41.37821466813688
 20
-1593.1727238711
 30
0.0
 11
-40.37821466813688
 21
-1594.1727238711
 31
0.0
  0
LINE
  5
C9
330
39
100
AcDbEntity
  8
1
  6
Continuous
 62
     3
100
AcDbLine
 10
-45.37821466813682
 20
-1593.1727238711
 30
0.0
 11
-41.37821466813688
 21
-1593.1727238711
 31
0.0
  0
LINE
  5
CA
330
39
100
AcDbEntity
  8
1
  6
Continuous
 62
     3
100
AcDbLine
 10
-40.37821466813682
 20
-1654.1727238711
 30
0.0
 11
-41.37821466813682
 21
-1655.1727238711
 31
0.0
  0
LINE
  5
CB
330
39
100
AcDbEntity
  8
1
  6
Continuous
 62
     3
100
AcDbLine
 10
-41.37821466813682
 20
-1655.1727238711
 30
0.0
 11
-45.37821466813682
 21
-1655.1727238711
 31
0.0
  0
LINE
  5
CC
330
39
100
AcDbEntity
  8
1
  6
Continuous
 62
     3
100
AcDbLine
 10
12.04998856213862
 20
-1651.1727238711
 30
0.0
 11
5.14100662780626
 21
-1651.1727238711
 31
0.0
  0
LINE
  5
CD
330
39
100
AcDbEntity
  8
1
  6
Continuous
 62
     3
100
AcDbLine
 10
19.45191235078525
 20
-1654.6727238711
 30
0.0
 11
14.54998856213862
 21
-1651.842596852178
 31
0.0
  0
LINE
  5
CE
330
39
100
AcDbEntity
  8
1
  6
Continuous
 62
     3
100
AcDbLine
 10
-2.37821466813696
 20
-1591.435175305667
 30
0.0
 11
-2.37821466813682
 21
-1567.636825486238
 31
0.0
  0
LINE
  5
CF
330
39
100
AcDbEntity
  8
1
  6
Continuous
 62
     3
100
AcDbLine
 10
-26.37821466813682
 20
-1589.1727238711
 30
0.0
 11
-26.37821466813691
 21
-1567.636825486238
 31
0.0
  0
LINE
  5
D0
330
39
100
AcDbEntity
  8
1
  6
Continuous
 62
     3
100
AcDbLine
 10
20.45191235078525
 20
-1593.6727238711
 30
0.0
 11
36.67840965888897
 21
-1593.6727238711
 31
0.0
  0
LINE
  5
D1
330
39
100
AcDbEntity
  8
1
  6
Continuous
 62
     3
100
AcDbLine
 10
15.54998856213862
 20
-1596.502850890022
 30
0.0
 11
20.45191235078525
 21
-1593.6727238711
 31
0.0
  0
LINE
  5
D2
330
39
100
AcDbEntity
  8
1
  6
Continuous
 62
     3
100
AcDbLine
 10
36.67840965888897
 20
-1654.6727238711
 30
0.0
 11
19.62178533186315
 21
-1654.6727238711
 31
0.0
  0
LINE
  5
D3
330
39
100
AcDbEntity
  8
1
  6
Continuous
 62
     3
100
AcDbLine
 10
38.12178533186315
 20
-1652.1727238711
 30
0.0
 11
36.67840965888897
 21
-1654.6727238711
 31
0.0
  0
LINE
  5
D4
330
39
100
AcDbEntity
  8
1
  6
Continuous
 62
     3
100
AcDbLine
 10
5.14100662780638
 20
-1597.1727238711
 30
0.0
 11
13.04998856213862
 21
-1597.1727238711
 31
0.0
  0
LINE
  5
D5
330
39
100
AcDbEntity
  8
1
  6
DOT_CENTER
 62
     1
100
AcDbLine
 10
-76.42439807750577
 20
-1624.1727238711
 30
0.0
 11
42.12178533186315
 21
-1624.1727238711
 31
0.0
  0
LINE
  5
D6
330
39
100
AcDbEntity
  8
1
  6
Continuous
 62
     3
100
AcDbLine
 10
36.67840965888897
 20
-1593.6727238711
 30
0.0
 11
38.12178533186315
 21
-1596.1727238711
 31
0.0
  0
LINE
  5
D7
330
39
100
AcDbEntity
  8
1
  6
Continuous
 62
     3
100
AcDbLine
 10
38.12178533186315
 20
-1652.1727238711
 30
0.0
 11
38.12178533186315
 21
-1596.1727238711
 31
0.0
  0
LINE
  5
D8
330
39
100
AcDbEntity
  8
1
  6
Continuous
 62
     3
100
AcDbLine
 10
-27.37821466813691
 20
-1552.1727238711
 30
0.0
 11
-1.37821466813688
 21
-1552.1727238711
 31
0.0
  0
LINE
  5
D9
330
39
100
AcDbEntity
  8
1
  6
Continuous
 62
     3
100
AcDbLine
 10
-27.37821466813691
 20
-1552.1727238711
 30
0.0
 11
-34.37821466813691
 21
-1552.1727238711
 31
0.0
  0
LINE
  5
DA
330
39
100
AcDbEntity
  8
1
  6
Continuous
 62
     3
100
AcDbLine
 10
-1.37821466813688
 20
-1552.1727238711
 30
0.0
 11
5.62178533186312
 21
-1552.1727238711
 31
0.0
  0
LINE
  5
DB
330
39
100
AcDbEntity
  8
1
  6
Continuous
 62
     3
100
AcDbLine
 10
-33.37821466813691
 20
-1556.6727238711
 30
0.0
 11
-31.37821466813691
 21
-1556.6727238711
 31
0.0
  0
LINE
  5
DC
330
39
100
AcDbEntity
  8
1
  6
Continuous
 62
     3
100
AcDbLine
 10
2.62178533186312
 20
-1556.6727238711
 30
0.0
 11
4.62178533186312
 21
-1556.6727238711
 31
0.0
  0
LINE
  5
DD
330
39
100
AcDbEntity
  8
1
  6
Continuous
 62
     3
100
AcDbLine
 10
-34.37821466813691
 20
-1552.1727238711
 30
0.0
 11
-34.37821466813691
 21
-1555.6727238711
 31
0.0
  0
LINE
  5
DE
330
39
100
AcDbEntity
  8
1
  6
Continuous
 62
     3
100
AcDbLine
 10
-36.37821466813682
 20
-1552.1727238711
 30
0.0
 11
-36.37821466813682
 21
-1554.6727238711
 31
0.0
  0
LINE
  5
DF
330
39
100
AcDbEntity
  8
1
  6
Continuous
 62
     3
100
AcDbLine
 10
-34.37821466813691
 20
-1552.1727238711
 30
0.0
 11
-36.37821466813682
 21
-1552.1727238711
 31
0.0
  0
LINE
  5
E0
330
39
100
AcDbEntity
  8
1
  6
Continuous
 62
     3
100
AcDbLine
 10
-34.37821466813682
 20
-1556.6727238711
 30
0.0
 11
-33.37821466813691
 21
-1556.6727238711
 31
0.0
  0
LINE
  5
E1
330
39
100
AcDbEntity
  8
1
  6
Continuous
 62
     3
100
AcDbLine
 10
5.62178533186312
 20
-1555.6727238711
 30
0.0
 11
5.62178533186312
 21
-1552.1727238711
 31
0.0
  0
LINE
  5
E2
330
39
100
AcDbEntity
  8
1
  6
Continuous
 62
     3
100
AcDbLine
 10
-0.37821466813688
 20
-1564.1727238711
 30
0.0
 11
-0.37821466813688
 21
-1559.6727238711
 31
0.0
  0
LINE
  5
E3
330
39
100
AcDbEntity
  8
1
  6
Continuous
 62
     3
100
AcDbLine
 10
-28.37821466813691
 20
-1559.6727238711
 30
0.0
 11
-28.37821466813691
 21
-1564.1727238711
 31
0.0
  0
LINE
  5
E4
330
39
100
AcDbEntity
  8
1
  6
Continuous
 62
     3
100
AcDbLine
 10
-46.37821466813688
 20
-1595.9227238711
 30
0.0
 11
-46.37821466813682
 21
-1593.440673063531
 31
0.0
  0
LINE
  5
E5
330
39
100
AcDbEntity
  8
1
  6
Continuous
 62
     3
100
AcDbLine
 10
-46.37821466813682
 20
-1654.904774678669
 30
0.0
 11
-46.37821466813688
 21
-1595.9227238711
 31
0.0
  0
LINE
  5
E6
330
39
100
AcDbEntity
  8
1
  6
Continuous
 62
     3
100
AcDbLine
 10
14.12178533186315
 20
-1597.1727238711
 30
0.0
 11
14.12178533186315
 21
-1624.1727238711
 31
0.0
  0
LINE
  5
E7
330
39
100
AcDbEntity
  8
1
  6
Continuous
 62
     3
100
AcDbLine
 10
14.12178533186315
 20
-1624.1727238711
 30
0.0
 11
14.12178533186315
 21
-1651.1727238711
 31
0.0
  0
LINE
  5
E8
330
39
100
AcDbEntity
  8
1
  6
Continuous
 62
     3
100
AcDbLine
 10
20.00741559638394
 20
-1606.162093606568
 30
0.0
 11
32.23615506734237
 21
-1606.162093606568
 31
0.0
  0
LINE
  5
E9
330
39
100
AcDbEntity
  8
1
  6
Continuous
 62
     3
100
AcDbLine
 10
20.00741559639502
 20
-1642.183354135632
 30
0.0
 11
32.23615506734237
 21
-1642.183354135632
 31
0.0
  0
LINE
  5
EA
330
39
100
AcDbEntity
  8
1
  6
Continuous
 62
     3
100
AcDbLine
 10
-2.79061825397386
 20
-1594.68338061379
 30
0.0
 11
-9.79061825397386
 21
-1593.68338061379
 31
0.0
  0
LINE
  5
EB
330
39
100
AcDbEntity
  8
1
  6
Continuous
 62
     3
100
AcDbLine
 10
-18.90142204271086
 20
-1593.68338061379
 30
0.0
 11
-26.90142204271089
 21
-1593.68338061379
 31
0.0
  0
LINE
  5
EC
330
39
100
AcDbEntity
  8
1
  6
Continuous
 62
     3
100
AcDbLine
 10
-15.87821466813688
 20
-1593.1727238711
 30
0.0
 11
-15.87821466813688
 21
-1580.1727238711
 31
0.0
  0
LINE
  5
ED
330
39
100
AcDbEntity
  8
1
  6
Continuous
 62
     3
100
AcDbLine
 10
-12.87821466813688
 20
-1593.1727238711
 30
0.0
 11
-12.87821466813688
 21
-1580.1727238711
 31
0.0
  0
LINE
  5
EE
330
39
100
AcDbEntity
  8
1
  6
Continuous
 62
     3
100
AcDbLine
 10
-31.37821466813691
 20
-1556.6727238711
 30
0.0
 11
2.62178533186312
 21
-1556.6727238711
 31
0.0
  0
LINE
  5
EF
330
39
100
AcDbEntity
  8
1
  6
Continuous
 62
     3
100
AcDbLine
 10
-27.37821466813691
 20
-1565.904774678669
 30
0.0
 11
-1.37821466813682
 21
-1565.904774678669
 31
0.0
  0
LINE
  5
F0
330
39
100
AcDbEntity
  8
1
  6
Continuous
 62
     3
100
AcDbLine
 10
-41.37821466813682
 20
-1655.1727238711
 30
0.0
 11
-41.37821466813682
 21
-1628.1727238711
 31
0.0
  0
LINE
  5
F1
330
39
100
AcDbEntity
  8
1
  6
Continuous
 62
     3
100
AcDbLine
 10
-40.37821466813688
 20
-1594.1727238711
 30
0.0
 11
-40.37821466813686
 21
-1620.1727238711
 31
0.0
  0
LINE
  5
F2
330
39
100
AcDbEntity
  8
1
  6
Continuous
 62
     3
100
AcDbLine
 10
-137.5173510652099
 20
-1552.1727238711
 30
0.0
 11
-133.5173510652099
 21
-1552.1727238711
 31
0.0
  0
LINE
  5
F3
330
39
100
AcDbEntity
  8
1
  6
Continuous
 62
     3
100
AcDbLine
 10
-137.5173510652099
 20
-1556.6727238711
 30
0.0
 11
-133.5173510652099
 21
-1556.6727238711
 31
0.0
  0
LINE
  5
F4
330
39
100
AcDbEntity
  8
1
  6
Continuous
 62
     3
100
AcDbLine
 10
-137.5173510652099
 20
-1556.6727238711
 30
0.0
 11
-137.5173510652099
 21
-1552.1727238711
 31
0.0
  0
LINE
  5
F5
330
39
100
AcDbEntity
  8
1
  6
Continuous
 62
     3
100
AcDbLine
 10
-133.5173510652099
 20
-1552.1727238711
 30
0.0
 11
-122.5173510652099
 21
-1552.1727238711
 31
0.0
  0
LINE
  5
F6
330
39
100
AcDbEntity
  8
1
  6
Continuous
 62
     3
100
AcDbLine
 10
-133.5173510652099
 20
-1556.6727238711
 30
0.0
 11
-118.5173510652099
 21
-1556.6727238711
 31
0.0
  0
LINE
  5
F7
330
39
100
AcDbEntity
  8
1
  6
Continuous
 62
     3
100
AcDbLine
 10
-133.5173510652099
 20
-1552.1727238711
 30
0.0
 11
-133.5173510652099
 21
-1556.6727238711
 31
0.0
  0
LINE
  5
F8
330
39
100
AcDbEntity
  8
1
  6
Continuous
 62
     3
100
AcDbLine
 10
-148.5173510652099
 20
-1552.1727238711
 30
0.0
 11
-137.5173510652099
 21
-1552.1727238711
 31
0.0
  0
LINE
  5
F9
330
39
100
AcDbEntity
  8
1
  6
Continuous
 62
     3
100
AcDbLine
 10
-123.2158141691396
 20
-1580.001189684186
 30
0.0
 11
-115.8646565589315
 21
-1600.198329225085
 31
0.0
  0
LINE
  5
FA
330
39
100
AcDbEntity
  8
1
  6
Continuous
 62
     3
100
AcDbLine
 10
-147.8188879612803
 20
-1580.001189684186
 30
0.0
 11
-155.1700455714884
 21
-1600.198329225085
 31
0.0
  0
LINE
  5
FB
330
39
100
AcDbEntity
  8
1
  6
DOT_CENTER
 62
     1
100
AcDbLine
 10
-165.5173510652099
 20
-1624.1727238711
 30
0.0
 11
-104.5173510652099
 21
-1624.1727238711
 31
0.0
  0
LINE
  5
FC
330
39
100
AcDbEntity
  8
1
  6
DOT_CENTER
 62
     1
100
AcDbLine
 10
-135.5173510652099
 20
-1548.1727238711
 30
0.0
 11
-135.5173510652099
 21
-1657.6727238711
 31
0.0
  0
LINE
  5
FD
330
39
100
AcDbEntity
  8
1
  6
Continuous
 62
     3
100
AcDbLine
 10
-148.5173510652099
 20
-1565.904774678669
 30
0.0
 11
-122.5173510652099
 21
-1565.904774678669
 31
0.0
  0
LINE
  5
FE
330
39
100
AcDbEntity
  8
1
  6
Continuous
 62
     3
100
AcDbLine
 10
-152.5173510652099
 20
-1556.6727238711
 30
0.0
 11
-137.5173510652099
 21
-1556.6727238711
 31
0.0
  0
LINE
  5
FF
330
39
100
AcDbEntity
  8
1
  6
Continuous
 62
     3
100
AcDbLine
 10
-121.5173510652099
 20
-1564.1727238711
 30
0.0
 11
-121.5173510652099
 21
-1559.6727238711
 31
0.0
  0
LINE
  5
100
330
39
100
AcDbEntity
  8
1
  6
Continuous
 62
     3
100
AcDbLine
 10
-149.5173510652099
 20
-1559.6727238711
 30
0.0
 11
-149.5173510652099
 21
-1564.1727238711
 31
0.0
  0
LINE
  5
101
330
39
100
AcDbEntity
  8
1
  6
Continuous
 62
     3
100
AcDbLine
 10
-155.5173510652099
 20
-1552.1727238711
 30
0.0
 11
-155.5173510652099
 21
-1555.6727238711
 31
0.0
  0
LINE
  5
102
330
39
100
AcDbEntity
  8
1
  6
Continuous
 62
     3
100
AcDbLine
 10
-115.5173510652099
 20
-1555.6727238711
 30
0.0
 11
-115.5173510652099
 21
-1552.1727238711
 31
0.0
  0
LINE
  5
103
330
39
100
AcDbEntity
  8
1
  6
Continuous
 62
     3
100
AcDbLine
 10
-154.5173510652099
 20
-1556.6727238711
 30
0.0
 11
-152.5173510652099
 21
-1556.6727238711
 31
0.0
  0
LINE
  5
104
330
39
100
AcDbEntity
  8
1
  6
Continuous
 62
     3
100
AcDbLine
 10
-118.5173510652099
 20
-1556.6727238711
 30
0.0
 11
-116.5173510652099
 21
-1556.6727238711
 31
0.0
  0
LINE
  5
105
330
39
100
AcDbEntity
  8
1
  6
Continuous
 62
     3
100
AcDbLine
 10
-155.5173510652099
 20
-1552.1727238711
 30
0.0
 11
-148.5173510652099
 21
-1552.1727238711
 31
0.0
  0
LINE
  5
106
330
39
100
AcDbEntity
  8
1
  6
Continuous
 62
     3
100
AcDbLine
 10
-115.5173510652099
 20
-1552.1727238711
 30
0.0
 11
-122.5173510652099
 21
-1552.1727238711
 31
0.0
  0
LINE
  5
107
330
39
100
AcDbEntity
  8
1
  6
Continuous
 62
     3
100
AcDbLine
 10
-123.5173510652099
 20
-1567.636825486238
 30
0.0
 11
-123.5173510652099
 21
-1593.578606789543
 31
0.0
  0
LINE
  5
108
330
39
100
AcDbEntity
  8
1
  6
Continuous
 62
     3
100
AcDbLine
 10
-147.5173510652099
 20
-1567.636825486238
 30
0.0
 11
-147.5173510652098
 21
-1593.578606789543
 31
0.0
  0
LINE
  5
109
330
39
100
AcDbEntity
  8
1
  6
Continuous
 62
     3
100
AcDbLine
 10
-137.0173510652099
 20
-1580.1727238711
 30
0.0
 11
-137.0173510652099
 21
-1593.1727238711
 31
0.0
  0
LINE
  5
10A
330
39
100
AcDbEntity
  8
1
  6
Continuous
 62
     3
100
AcDbLine
 10
-134.0173510652099
 20
-1580.1727238711
 30
0.0
 11
-134.0173510652099
 21
-1593.1727238711
 31
0.0
  0
LINE
  5
10B
330
39
100
AcDbEntity
  8
1
  6
Continuous
 62
     3
100
AcDbLine
 10
-391.0401125941883
 20
-1580.001189684186
 30
0.0
 11
-398.6994288194313
 21
-1601.044988061504
 31
0.0
  0
LINE
  5
10C
330
39
100
AcDbEntity
  8
1
  6
Continuous
 62
     3
100
AcDbLine
 10
-366.4370388020476
 20
-1580.001189684186
 30
0.0
 11
-358.7777225768045
 21
-1601.044988061504
 31
0.0
  0
LINE
  5
10D
330
39
100
AcDbEntity
  8
1
  6
DOT_CENTER
 62
     1
100
AcDbLine
 10
-409.7385756981179
 20
-1624.1727238711
 30
0.0
 11
-347.7385756981179
 21
-1624.1727238711
 31
0.0
  0
LINE
  5
10E
330
39
100
AcDbEntity
  8
1
  6
Continuous
 62
     3
100
AcDbLine
 10
-377.2385756981179
 20
-1580.1727238711
 30
0.0
 11
-377.2385756981179
 21
-1593.1727238711
 31
0.0
  0
LINE
  5
10F
330
39
100
AcDbEntity
  8
1
  6
Continuous
 62
     3
100
AcDbLine
 10
-380.2385756981179
 20
-1580.1727238711
 30
0.0
 11
-380.2385756981179
 21
-1593.1727238711
 31
0.0
  0
LINE
  5
110
330
39
100
AcDbEntity
  8
1
  6
Continuous
 62
     3
100
AcDbLine
 10
-390.7385756981179
 20
-1567.636825486238
 30
0.0
 11
-390.7385756981178
 21
-1593.578606789543
 31
0.0
  0
LINE
  5
111
330
39
100
AcDbEntity
  8
1
  6
Continuous
 62
     3
100
AcDbLine
 10
-366.7385756981178
 20
-1567.636825486238
 30
0.0
 11
-366.7385756981179
 21
-1593.578606789543
 31
0.0
  0
LINE
  5
112
330
39
100
AcDbEntity
  8
1
  6
Continuous
 62
     3
100
AcDbLine
 10
-391.7385756981179
 20
-1552.1727238711
 30
0.0
 11
-365.7385756981179
 21
-1552.1727238711
 31
0.0
  0
LINE
  5
113
330
39
100
AcDbEntity
  8
1
  6
Continuous
 62
     3
100
AcDbLine
 10
-358.7385756981179
 20
-1552.1727238711
 30
0.0
 11
-365.7385756981179
 21
-1552.1727238711
 31
0.0
  0
LINE
  5
114
330
39
100
AcDbEntity
  8
1
  6
Continuous
 62
     3
100
AcDbLine
 10
-398.7385756981179
 20
-1552.1727238711
 30
0.0
 11
-391.7385756981179
 21
-1552.1727238711
 31
0.0
  0
LINE
  5
115
330
39
100
AcDbEntity
  8
1
  6
Continuous
 62
     3
100
AcDbLine
 10
-361.7385756981179
 20
-1556.6727238711
 30
0.0
 11
-359.7385756981179
 21
-1556.6727238711
 31
0.0
  0
LINE
  5
116
330
39
100
AcDbEntity
  8
1
  6
Continuous
 62
     3
100
AcDbLine
 10
-397.7385756981179
 20
-1556.6727238711
 30
0.0
 11
-395.7385756981179
 21
-1556.6727238711
 31
0.0
  0
LINE
  5
117
330
39
100
AcDbEntity
  8
1
  6
Continuous
 62
     3
100
AcDbLine
 10
-358.7385756981179
 20
-1555.6727238711
 30
0.0
 11
-358.7385756981179
 21
-1552.1727238711
 31
0.0
  0
LINE
  5
118
330
39
100
AcDbEntity
  8
1
  6
Continuous
 62
     3
100
AcDbLine
 10
-398.7385756981179
 20
-1552.1727238711
 30
0.0
 11
-398.7385756981179
 21
-1555.6727238711
 31
0.0
  0
LINE
  5
119
330
39
100
AcDbEntity
  8
1
  6
Continuous
 62
     3
100
AcDbLine
 10
-392.7385756981179
 20
-1559.6727238711
 30
0.0
 11
-392.7385756981179
 21
-1564.1727238711
 31
0.0
  0
LINE
  5
11A
330
39
100
AcDbEntity
  8
1
  6
Continuous
 62
     3
100
AcDbLine
 10
-364.7385756981179
 20
-1564.1727238711
 30
0.0
 11
-364.7385756981179
 21
-1559.6727238711
 31
0.0
  0
LINE
  5
11B
330
39
100
AcDbEntity
  8
1
  6
Continuous
 62
     3
100
AcDbLine
 10
-395.7385756981179
 20
-1556.6727238711
 30
0.0
 11
-361.7385756981179
 21
-1556.6727238711
 31
0.0
  0
LINE
  5
11C
330
39
100
AcDbEntity
  8
1
  6
Continuous
 62
     3
100
AcDbLine
 10
-391.7385756981179
 20
-1565.904774678669
 30
0.0
 11
-365.7385756981178
 21
-1565.904774678669
 31
0.0
  0
LINE
  5
11D
330
39
100
AcDbEntity
  8
1
  6
Continuous
 62
     3
100
AcDbLine
 10
-226.51735106521
 20
-1654.1727238711
 30
0.0
 11
-226.5173510652099
 21
-1594.1727238711
 31
0.0
  0
LINE
  5
11E
330
39
100
AcDbEntity
  8
1
  6
Continuous
 62
     3
100
AcDbLine
 10
-225.5173510652099
 20
-1593.1727238711
 30
0.0
 11
-225.51735106521
 21
-1655.1727238711
 31
0.0
  0
LINE
  5
11F
330
39
100
AcDbEntity
  8
1
  6
Continuous
 62
     3
100
AcDbLine
 10
-265.5173510652099
 20
-1565.904774678669
 30
0.0
 11
-239.5173510652099
 21
-1565.904774678669
 31
0.0
  0
LINE
  5
120
330
39
100
AcDbEntity
  8
1
  6
Continuous
 62
     3
100
AcDbLine
 10
-269.5173510652099
 20
-1556.6727238711
 30
0.0
 11
-235.5173510652099
 21
-1556.6727238711
 31
0.0
  0
LINE
  5
121
330
39
100
AcDbEntity
  8
1
  6
Continuous
 62
     3
100
AcDbLine
 10
-254.0173510652099
 20
-1580.1727238711
 30
0.0
 11
-254.0173510652099
 21
-1593.1727238711
 31
0.0
  0
LINE
  5
122
330
39
100
AcDbEntity
  8
1
  6
Continuous
 62
     3
100
AcDbLine
 10
-251.0173510652099
 20
-1580.1727238711
 30
0.0
 11
-251.0173510652099
 21
-1593.1727238711
 31
0.0
  0
LINE
  5
123
330
39
100
AcDbEntity
  8
1
  6
Continuous
 62
     3
100
AcDbLine
 10
-239.9941436906359
 20
-1593.68338061379
 30
0.0
 11
-247.9941436906359
 21
-1593.68338061379
 31
0.0
  0
LINE
  5
124
330
39
100
AcDbEntity
  8
1
  6
Continuous
 62
     3
100
AcDbLine
 10
-257.1049474793729
 20
-1593.68338061379
 30
0.0
 11
-264.1049474793729
 21
-1594.68338061379
 31
0.0
  0
LINE
  5
125
330
39
100
AcDbEntity
  8
1
  6
Continuous
 62
     3
100
AcDbLine
 10
-239.2534348024209
 20
-1625.8227238711
 30
0.0
 11
-245.2534348024209
 21
-1625.8227238711
 31
0.0
  0
LINE
  5
126
330
39
100
AcDbEntity
  8
1
  6
Continuous
 62
     3
100
AcDbLine
 10
-245.2534348024209
 20
-1622.5227238711
 30
0.0
 11
-239.2534348024209
 21
-1622.5227238711
 31
0.0
  0
LINE
  5
127
330
39
100
AcDbEntity
  8
1
  6
Continuous
 62
     3
100
AcDbLine
 10
-239.2534348024209
 20
-1629.1727238711
 30
0.0
 11
-239.2534348024209
 21
-1625.8227238711
 31
0.0
  0
LINE
  5
128
330
39
100
AcDbEntity
  8
1
  6
Continuous
 62
     3
100
AcDbLine
 10
-230.5931807645766
 20
-1624.1727238711
 30
0.0
 11
-239.2534348024209
 21
-1629.1727238711
 31
0.0
  0
LINE
  5
129
330
39
100
AcDbEntity
  8
1
  6
Continuous
 62
     3
100
AcDbLine
 10
-239.2534348024209
 20
-1619.1727238711
 30
0.0
 11
-230.5931807645766
 21
-1624.1727238711
 31
0.0
  0
LINE
  5
12A
330
39
100
AcDbEntity
  8
1
  6
Continuous
 62
     3
100
AcDbLine
 10
-239.2534348024209
 20
-1622.5227238711
 30
0.0
 11
-239.2534348024209
 21
-1619.1727238711
 31
0.0
  0
LINE
  5
12B
330
39
100
AcDbEntity
  8
1
  6
Continuous
 62
     3
100
AcDbLine
 10
-272.24235106521
 20
-1625.8227238711
 30
0.0
 11
-272.24235106521
 21
-1622.5227238711
 31
0.0
  0
LINE
  5
12C
330
39
100
AcDbEntity
  8
1
  6
Continuous
 62
     3
100
AcDbLine
 10
-260.24235106521
 20
-1625.8227238711
 30
0.0
 11
-272.24235106521
 21
-1625.8227238711
 31
0.0
  0
LINE
  5
12D
330
39
100
AcDbEntity
  8
1
  6
Continuous
 62
     3
100
AcDbLine
 10
-272.24235106521
 20
-1622.5227238711
 30
0.0
 11
-260.24235106521
 21
-1622.5227238711
 31
0.0
  0
LINE
  5
12E
330
39
100
AcDbEntity
  8
1
  6
Continuous
 62
     3
100
AcDbLine
 10
-260.24235106521
 20
-1622.5227238711
 30
0.0
 11
-260.24235106521
 21
-1625.8227238711
 31
0.0
  0
LINE
  5
12F
330
39
100
AcDbEntity
  8
1
  6
Continuous
 62
     3
100
AcDbLine
 10
-245.2534348024209
 20
-1625.8227238711
 30
0.0
 11
-245.2534348024209
 21
-1622.5227238711
 31
0.0
  0
LINE
  5
130
330
39
100
AcDbEntity
  8
1
  6
Continuous
 62
     3
100
AcDbLine
 10
-260.24235106521
 20
-1618.1727238711
 30
0.0
 11
-254.6334919599482
 21
-1618.1727238711
 31
0.0
  0
LINE
  5
131
330
39
100
AcDbEntity
  8
1
  6
Continuous
 62
     3
100
AcDbLine
 10
-254.6334919599481
 20
-1624.1727238711
 30
0.0
 11
-254.0018254160454
 21
-1624.1727238711
 31
0.0
  0
LINE
  5
132
330
39
100
AcDbEntity
  8
1
  6
Continuous
 62
     3
100
AcDbLine
 10
-251.0002071256366
 20
-1621.171105580691
 30
0.0
 11
-251.0002071256366
 21
-1618.1727238711
 31
0.0
  0
LINE
  5
133
330
39
100
AcDbEntity
  8
1
  6
Continuous
 62
     3
100
AcDbLine
 10
-254.6334919599481
 20
-1624.1727238711
 30
0.0
 11
-260.24235106521
 21
-1630.1727238711
 31
0.0
  0
LINE
  5
134
330
39
100
AcDbEntity
  8
1
  6
Continuous
 62
     3
100
AcDbLine
 10
-260.24235106521
 20
-1630.1727238711
 30
0.0
 11
-254.6334919599482
 21
-1630.1727238711
 31
0.0
  0
LINE
  5
135
330
39
100
AcDbEntity
  8
1
  6
Continuous
 62
     3
100
AcDbLine
 10
-251.0002071256366
 20
-1618.1727238711
 30
0.0
 11
-245.2534348024209
 21
-1618.1727238711
 31
0.0
  0
LINE
  5
136
330
39
100
AcDbEntity
  8
1
  6
Continuous
 62
     3
100
AcDbLine
 10
-245.2534348024209
 20
-1618.1727238711
 30
0.0
 11
-254.6334919599482
 21
-1630.1727238711
 31
0.0
  0
LINE
  5
137
330
39
100
AcDbEntity
  8
1
  6
Continuous
 62
     3
100
AcDbLine
 10
-254.6334919599482
 20
-1618.1727238711
 30
0.0
 11
-254.6334919599482
 21
-1623.850865761208
 31
0.0
  0
LINE
  5
138
330
39
100
AcDbEntity
  8
1
  6
Continuous
 62
     3
100
AcDbLine
 10
-254.6334919599482
 20
-1623.850865761208
 30
0.0
 11
-260.24235106521
 21
-1618.1727238711
 31
0.0
  0
LINE
  5
139
330
39
100
AcDbEntity
  8
1
  6
Continuous
 62
     3
100
AcDbLine
 10
-255.0548510652099
 20
-1608.1727238711
 30
0.0
 11
-254.0923510652099
 21
-1608.1727238711
 31
0.0
  0
LINE
  5
13A
330
39
100
AcDbEntity
  8
1
  6
Continuous
 62
     3
100
AcDbLine
 10
-254.0923510652099
 20
-1608.1727238711
 30
0.0
 11
-254.0923510652099
 21
-1612.7227238711
 31
0.0
  0
LINE
  5
13B
330
39
100
AcDbEntity
  8
1
  6
Continuous
 62
     3
100
AcDbLine
 10
-254.0923510652099
 20
-1612.7227238711
 30
0.0
 11
-253.2173510652099
 21
-1612.7227238711
 31
0.0
  0
LINE
  5
13C
330
39
100
AcDbEntity
  8
1
  6
Continuous
 62
     3
100
AcDbLine
 10
-253.2173510652099
 20
-1612.7227238711
 30
0.0
 11
-253.2173510652099
 21
-1613.5977238711
 31
0.0
  0
LINE
  5
13D
330
39
100
AcDbEntity
  8
1
  6
Continuous
 62
     3
100
AcDbLine
 10
-253.2173510652099
 20
-1613.5977238711
 30
0.0
 11
-254.0923510652099
 21
-1613.5977238711
 31
0.0
  0
LINE
  5
13E
330
39
100
AcDbEntity
  8
1
  6
Continuous
 62
     3
100
AcDbLine
 10
-254.0923510652099
 20
-1613.5977238711
 30
0.0
 11
-254.0923510652099
 21
-1615.1727238711
 31
0.0
  0
LINE
  5
13F
330
39
100
AcDbEntity
  8
1
  6
Continuous
 62
     3
100
AcDbLine
 10
-254.0923510652099
 20
-1615.1727238711
 30
0.0
 11
-255.0548510652099
 21
-1615.1727238711
 31
0.0
  0
LINE
  5
140
330
39
100
AcDbEntity
  8
1
  6
Continuous
 62
     3
100
AcDbLine
 10
-255.0548510652099
 20
-1615.1727238711
 30
0.0
 11
-255.0548510652099
 21
-1613.5977238711
 31
0.0
  0
LINE
  5
141
330
39
100
AcDbEntity
  8
1
  6
Continuous
 62
     3
100
AcDbLine
 10
-255.0548510652099
 20
-1613.5977238711
 30
0.0
 11
-258.0298510652099
 21
-1613.5977238711
 31
0.0
  0
LINE
  5
142
330
39
100
AcDbEntity
  8
1
  6
Continuous
 62
     3
100
AcDbLine
 10
-258.0298510652099
 20
-1613.5977238711
 30
0.0
 11
-258.0298510652099
 21
-1612.6352238711
 31
0.0
  0
LINE
  5
143
330
39
100
AcDbEntity
  8
1
  6
Continuous
 62
     3
100
AcDbLine
 10
-258.0298510652099
 20
-1612.6352238711
 30
0.0
 11
-255.0548510652099
 21
-1608.1727238711
 31
0.0
  0
LINE
  5
144
330
39
100
AcDbEntity
  8
1
  6
Continuous
 62
     3
100
AcDbLine
 10
-255.0548510652099
 20
-1609.7477238711
 30
0.0
 11
-257.0673510652099
 21
-1612.7227238711
 31
0.0
  0
LINE
  5
145
330
39
100
AcDbEntity
  8
1
  6
Continuous
 62
     3
100
AcDbLine
 10
-257.0673510652099
 20
-1612.7227238711
 30
0.0
 11
-255.0548510652099
 21
-1612.7227238711
 31
0.0
  0
LINE
  5
146
330
39
100
AcDbEntity
  8
1
  6
Continuous
 62
     3
100
AcDbLine
 10
-255.0548510652099
 20
-1612.7227238711
 30
0.0
 11
-255.0548510652099
 21
-1609.7477238711
 31
0.0
  0
LINE
  5
147
330
39
100
AcDbEntity
  8
1
  6
Continuous
 62
     3
100
AcDbLine
 10
-249.7173510652099
 20
-1614.2977238711
 30
0.0
 11
-249.1048510652099
 21
-1614.2977238711
 31
0.0
  0
LINE
  5
148
330
39
100
AcDbEntity
  8
1
  6
Continuous
 62
     3
100
AcDbLine
 10
-249.1048510652099
 20
-1614.2977238711
 30
0.0
 11
-248.7548510652099
 21
-1614.1227238711
 31
0.0
  0
LINE
  5
149
330
39
100
AcDbEntity
  8
1
  6
Continuous
 62
     3
100
AcDbLine
 10
-248.7548510652099
 20
-1614.1227238711
 30
0.0
 11
-248.4048510652099
 21
-1613.8602238711
 31
0.0
  0
LINE
  5
14A
330
39
100
AcDbEntity
  8
1
  6
Continuous
 62
     3
100
AcDbLine
 10
-248.4048510652099
 20
-1613.8602238711
 30
0.0
 11
-248.2298510652099
 21
-1613.5977238711
 31
0.0
  0
LINE
  5
14B
330
39
100
AcDbEntity
  8
1
  6
Continuous
 62
     3
100
AcDbLine
 10
-248.2298510652099
 20
-1613.5977238711
 30
0.0
 11
-248.0548510652099
 21
-1613.1602238711
 31
0.0
  0
LINE
  5
14C
330
39
100
AcDbEntity
  8
1
  6
Continuous
 62
     3
100
AcDbLine
 10
-248.0548510652099
 20
-1613.1602238711
 30
0.0
 11
-247.9673510652099
 21
-1612.1977238711
 31
0.0
  0
LINE
  5
14D
330
39
100
AcDbEntity
  8
1
  6
Continuous
 62
     3
100
AcDbLine
 10
-247.9673510652099
 20
-1612.1977238711
 30
0.0
 11
-247.9673510652099
 21
-1611.1477238711
 31
0.0
  0
LINE
  5
14E
330
39
100
AcDbEntity
  8
1
  6
Continuous
 62
     3
100
AcDbLine
 10
-247.9673510652099
 20
-1611.1477238711
 30
0.0
 11
-248.0548510652099
 21
-1610.1852238711
 31
0.0
  0
LINE
  5
14F
330
39
100
AcDbEntity
  8
1
  6
Continuous
 62
     3
100
AcDbLine
 10
-248.0548510652099
 20
-1610.1852238711
 30
0.0
 11
-248.2298510652099
 21
-1609.7477238711
 31
0.0
  0
LINE
  5
150
330
39
100
AcDbEntity
  8
1
  6
Continuous
 62
     3
100
AcDbLine
 10
-248.2298510652099
 20
-1609.7477238711
 30
0.0
 11
-248.4048510652099
 21
-1609.4852238711
 31
0.0
  0
LINE
  5
151
330
39
100
AcDbEntity
  8
1
  6
Continuous
 62
     3
100
AcDbLine
 10
-248.4048510652099
 20
-1609.4852238711
 30
0.0
 11
-248.7548510652099
 21
-1609.2227238711
 31
0.0
  0
LINE
  5
152
330
39
100
AcDbEntity
  8
1
  6
Continuous
 62
     3
100
AcDbLine
 10
-248.7548510652099
 20
-1609.2227238711
 30
0.0
 11
-249.1048510652099
 21
-1609.0477238711
 31
0.0
  0
LINE
  5
153
330
39
100
AcDbEntity
  8
1
  6
Continuous
 62
     3
100
AcDbLine
 10
-249.1048510652099
 20
-1609.0477238711
 30
0.0
 11
-249.7173510652099
 21
-1609.0477238711
 31
0.0
  0
LINE
  5
154
330
39
100
AcDbEntity
  8
1
  6
Continuous
 62
     3
100
AcDbLine
 10
-249.7173510652099
 20
-1609.0477238711
 30
0.0
 11
-250.0673510652099
 21
-1609.2227238711
 31
0.0
  0
LINE
  5
155
330
39
100
AcDbEntity
  8
1
  6
Continuous
 62
     3
100
AcDbLine
 10
-250.0673510652099
 20
-1609.2227238711
 30
0.0
 11
-250.4173510652099
 21
-1609.4852238711
 31
0.0
  0
LINE
  5
156
330
39
100
AcDbEntity
  8
1
  6
Continuous
 62
     3
100
AcDbLine
 10
-250.4173510652099
 20
-1609.4852238711
 30
0.0
 11
-250.5923510652099
 21
-1609.7477238711
 31
0.0
  0
LINE
  5
157
330
39
100
AcDbEntity
  8
1
  6
Continuous
 62
     3
100
AcDbLine
 10
-250.5923510652099
 20
-1609.7477238711
 30
0.0
 11
-250.7673510652099
 21
-1610.1852238711
 31
0.0
  0
LINE
  5
158
330
39
100
AcDbEntity
  8
1
  6
Continuous
 62
     3
100
AcDbLine
 10
-250.7673510652099
 20
-1610.1852238711
 30
0.0
 11
-250.8548510652099
 21
-1611.1477238711
 31
0.0
  0
LINE
  5
159
330
39
100
AcDbEntity
  8
1
  6
Continuous
 62
     3
100
AcDbLine
 10
-250.8548510652099
 20
-1611.1477238711
 30
0.0
 11
-250.8548510652099
 21
-1612.1977238711
 31
0.0
  0
LINE
  5
15A
330
39
100
AcDbEntity
  8
1
  6
Continuous
 62
     3
100
AcDbLine
 10
-250.8548510652099
 20
-1612.1977238711
 30
0.0
 11
-250.7673510652099
 21
-1613.1602238711
 31
0.0
  0
LINE
  5
15B
330
39
100
AcDbEntity
  8
1
  6
Continuous
 62
     3
100
AcDbLine
 10
-250.7673510652099
 20
-1613.1602238711
 30
0.0
 11
-250.5923510652099
 21
-1613.5977238711
 31
0.0
  0
LINE
  5
15C
330
39
100
AcDbEntity
  8
1
  6
Continuous
 62
     3
100
AcDbLine
 10
-250.5923510652099
 20
-1613.5977238711
 30
0.0
 11
-250.4173510652099
 21
-1613.8602238711
 31
0.0
  0
LINE
  5
15D
330
39
100
AcDbEntity
  8
1
  6
Continuous
 62
     3
100
AcDbLine
 10
-250.4173510652099
 20
-1613.8602238711
 30
0.0
 11
-250.0673510652099
 21
-1614.1227238711
 31
0.0
  0
LINE
  5
15E
330
39
100
AcDbEntity
  8
1
  6
Continuous
 62
     3
100
AcDbLine
 10
-250.0673510652099
 20
-1614.1227238711
 30
0.0
 11
-249.7173510652099
 21
-1614.2977238711
 31
0.0
  0
LINE
  5
15F
330
39
100
AcDbEntity
  8
1
  6
Continuous
 62
     3
100
AcDbLine
 10
-248.0548510652099
 20
-1614.7352238711
 30
0.0
 11
-247.7923510652099
 21
-1614.4727238711
 31
0.0
  0
LINE
  5
160
330
39
100
AcDbEntity
  8
1
  6
Continuous
 62
     3
100
AcDbLine
 10
-247.7923510652099
 20
-1614.4727238711
 30
0.0
 11
-247.5298510652099
 21
-1614.1227238711
 31
0.0
  0
LINE
  5
161
330
39
100
AcDbEntity
  8
1
  6
Continuous
 62
     3
100
AcDbLine
 10
-247.5298510652099
 20
-1614.1227238711
 30
0.0
 11
-247.3548510652099
 21
-1613.7727238711
 31
0.0
  0
LINE
  5
162
330
39
100
AcDbEntity
  8
1
  6
Continuous
 62
     3
100
AcDbLine
 10
-247.3548510652099
 20
-1613.7727238711
 30
0.0
 11
-247.1798510652099
 21
-1613.3352238711
 31
0.0
  0
LINE
  5
163
330
39
100
AcDbEntity
  8
1
  6
Continuous
 62
     3
100
AcDbLine
 10
-247.1798510652099
 20
-1613.3352238711
 30
0.0
 11
-247.0923510652099
 21
-1612.8102238711
 31
0.0
  0
LINE
  5
164
330
39
100
AcDbEntity
  8
1
  6
Continuous
 62
     3
100
AcDbLine
 10
-247.0923510652099
 20
-1612.8102238711
 30
0.0
 11
-247.0048510652099
 21
-1612.0227238711
 31
0.0
  0
LINE
  5
165
330
39
100
AcDbEntity
  8
1
  6
Continuous
 62
     3
100
AcDbLine
 10
-247.0048510652099
 20
-1612.0227238711
 30
0.0
 11
-247.0048510652099
 21
-1611.3227238711
 31
0.0
  0
LINE
  5
166
330
39
100
AcDbEntity
  8
1
  6
Continuous
 62
     3
100
AcDbLine
 10
-247.0048510652099
 20
-1611.3227238711
 30
0.0
 11
-247.0923510652099
 21
-1610.5352238711
 31
0.0
  0
LINE
  5
167
330
39
100
AcDbEntity
  8
1
  6
Continuous
 62
     3
100
AcDbLine
 10
-247.0923510652099
 20
-1610.5352238711
 30
0.0
 11
-247.1798510652099
 21
-1610.0102238711
 31
0.0
  0
LINE
  5
168
330
39
100
AcDbEntity
  8
1
  6
Continuous
 62
     3
100
AcDbLine
 10
-247.1798510652099
 20
-1610.0102238711
 30
0.0
 11
-247.3548510652099
 21
-1609.5727238711
 31
0.0
  0
LINE
  5
169
330
39
100
AcDbEntity
  8
1
  6
Continuous
 62
     3
100
AcDbLine
 10
-247.3548510652099
 20
-1609.5727238711
 30
0.0
 11
-247.5298510652099
 21
-1609.2227238711
 31
0.0
  0
LINE
  5
16A
330
39
100
AcDbEntity
  8
1
  6
Continuous
 62
     3
100
AcDbLine
 10
-247.5298510652099
 20
-1609.2227238711
 30
0.0
 11
-247.7923510652099
 21
-1608.8727238711
 31
0.0
  0
LINE
  5
16B
330
39
100
AcDbEntity
  8
1
  6
Continuous
 62
     3
100
AcDbLine
 10
-247.7923510652099
 20
-1608.8727238711
 30
0.0
 11
-248.0548510652099
 21
-1608.6102238711
 31
0.0
  0
LINE
  5
16C
330
39
100
AcDbEntity
  8
1
  6
Continuous
 62
     3
100
AcDbLine
 10
-248.0548510652099
 20
-1608.6102238711
 30
0.0
 11
-248.3173510652099
 21
-1608.4352238711
 31
0.0
  0
LINE
  5
16D
330
39
100
AcDbEntity
  8
1
  6
Continuous
 62
     3
100
AcDbLine
 10
-248.3173510652099
 20
-1608.4352238711
 30
0.0
 11
-248.7548510652099
 21
-1608.2602238711
 31
0.0
  0
LINE
  5
16E
330
39
100
AcDbEntity
  8
1
  6
Continuous
 62
     3
100
AcDbLine
 10
-248.7548510652099
 20
-1608.2602238711
 30
0.0
 11
-249.1048510652099
 21
-1608.1727238711
 31
0.0
  0
LINE
  5
16F
330
39
100
AcDbEntity
  8
1
  6
Continuous
 62
     3
100
AcDbLine
 10
-249.1048510652099
 20
-1608.1727238711
 30
0.0
 11
-249.7173510652099
 21
-1608.1727238711
 31
0.0
  0
LINE
  5
170
330
39
100
AcDbEntity
  8
1
  6
Continuous
 62
     3
100
AcDbLine
 10
-249.7173510652099
 20
-1608.1727238711
 30
0.0
 11
-250.0673510652099
 21
-1608.2602238711
 31
0.0
  0
LINE
  5
171
330
39
100
AcDbEntity
  8
1
  6
Continuous
 62
     3
100
AcDbLine
 10
-250.0673510652099
 20
-1608.2602238711
 30
0.0
 11
-250.5048510652099
 21
-1608.4352238711
 31
0.0
  0
LINE
  5
172
330
39
100
AcDbEntity
  8
1
  6
Continuous
 62
     3
100
AcDbLine
 10
-250.5048510652099
 20
-1608.4352238711
 30
0.0
 11
-250.7673510652099
 21
-1608.6102238711
 31
0.0
  0
LINE
  5
173
330
39
100
AcDbEntity
  8
1
  6
Continuous
 62
     3
100
AcDbLine
 10
-250.7673510652099
 20
-1608.6102238711
 30
0.0
 11
-251.0298510652099
 21
-1608.8727238711
 31
0.0
  0
LINE
  5
174
330
39
100
AcDbEntity
  8
1
  6
Continuous
 62
     3
100
AcDbLine
 10
-251.0298510652099
 20
-1608.8727238711
 30
0.0
 11
-251.2923510652099
 21
-1609.2227238711
 31
0.0
  0
LINE
  5
175
330
39
100
AcDbEntity
  8
1
  6
Continuous
 62
     3
100
AcDbLine
 10
-251.2923510652099
 20
-1609.2227238711
 30
0.0
 11
-251.4673510652099
 21
-1609.5727238711
 31
0.0
  0
LINE
  5
176
330
39
100
AcDbEntity
  8
1
  6
Continuous
 62
     3
100
AcDbLine
 10
-251.4673510652099
 20
-1609.5727238711
 30
0.0
 11
-251.6423510652099
 21
-1610.0102238711
 31
0.0
  0
LINE
  5
177
330
39
100
AcDbEntity
  8
1
  6
Continuous
 62
     3
100
AcDbLine
 10
-251.6423510652099
 20
-1610.0102238711
 30
0.0
 11
-251.7298510652099
 21
-1610.5352238711
 31
0.0
  0
LINE
  5
178
330
39
100
AcDbEntity
  8
1
  6
Continuous
 62
     3
100
AcDbLine
 10
-251.7298510652099
 20
-1610.5352238711
 30
0.0
 11
-251.8173510652099
 21
-1611.3227238711
 31
0.0
  0
LINE
  5
179
330
39
100
AcDbEntity
  8
1
  6
Continuous
 62
     3
100
AcDbLine
 10
-251.8173510652099
 20
-1611.3227238711
 30
0.0
 11
-251.8173510652099
 21
-1612.0227238711
 31
0.0
  0
LINE
  5
17A
330
39
100
AcDbEntity
  8
1
  6
Continuous
 62
     3
100
AcDbLine
 10
-251.8173510652099
 20
-1612.0227238711
 30
0.0
 11
-251.7298510652099
 21
-1612.8102238711
 31
0.0
  0
LINE
  5
17B
330
39
100
AcDbEntity
  8
1
  6
Continuous
 62
     3
100
AcDbLine
 10
-251.7298510652099
 20
-1612.8102238711
 30
0.0
 11
-251.6423510652099
 21
-1613.3352238711
 31
0.0
  0
LINE
  5
17C
330
39
100
AcDbEntity
  8
1
  6
Continuous
 62
     3
100
AcDbLine
 10
-251.6423510652099
 20
-1613.3352238711
 30
0.0
 11
-251.4673510652099
 21
-1613.7727238711
 31
0.0
  0
LINE
  5
17D
330
39
100
AcDbEntity
  8
1
  6
Continuous
 62
     3
100
AcDbLine
 10
-251.4673510652099
 20
-1613.7727238711
 30
0.0
 11
-251.2923510652099
 21
-1614.1227238711
 31
0.0
  0
LINE
  5
17E
330
39
100
AcDbEntity
  8
1
  6
Continuous
 62
     3
100
AcDbLine
 10
-251.2923510652099
 20
-1614.1227238711
 30
0.0
 11
-251.0298510652099
 21
-1614.4727238711
 31
0.0
  0
LINE
  5
17F
330
39
100
AcDbEntity
  8
1
  6
Continuous
 62
     3
100
AcDbLine
 10
-251.0298510652099
 20
-1614.4727238711
 30
0.0
 11
-250.7673510652099
 21
-1614.7352238711
 31
0.0
  0
LINE
  5
180
330
39
100
AcDbEntity
  8
1
  6
Continuous
 62
     3
100
AcDbLine
 10
-250.7673510652099
 20
-1614.7352238711
 30
0.0
 11
-250.5048510652099
 21
-1614.9102238711
 31
0.0
  0
LINE
  5
181
330
39
100
AcDbEntity
  8
1
  6
Continuous
 62
     3
100
AcDbLine
 10
-250.5048510652099
 20
-1614.9102238711
 30
0.0
 11
-250.0673510652099
 21
-1615.0852238711
 31
0.0
  0
LINE
  5
182
330
39
100
AcDbEntity
  8
1
  6
Continuous
 62
     3
100
AcDbLine
 10
-250.0673510652099
 20
-1615.0852238711
 30
0.0
 11
-249.7173510652099
 21
-1615.1727238711
 31
0.0
  0
LINE
  5
183
330
39
100
AcDbEntity
  8
1
  6
Continuous
 62
     3
100
AcDbLine
 10
-249.7173510652099
 20
-1615.1727238711
 30
0.0
 11
-249.1048510652099
 21
-1615.1727238711
 31
0.0
  0
LINE
  5
184
330
39
100
AcDbEntity
  8
1
  6
Continuous
 62
     3
100
AcDbLine
 10
-249.1048510652099
 20
-1615.1727238711
 30
0.0
 11
-248.7548510652099
 21
-1615.0852238711
 31
0.0
  0
LINE
  5
185
330
39
100
AcDbEntity
  8
1
  6
Continuous
 62
     3
100
AcDbLine
 10
-248.7548510652099
 20
-1615.0852238711
 30
0.0
 11
-248.3173510652099
 21
-1614.9102238711
 31
0.0
  0
LINE
  5
186
330
39
100
AcDbEntity
  8
1
  6
Continuous
 62
     3
100
AcDbLine
 10
-248.3173510652099
 20
-1614.9102238711
 30
0.0
 11
-248.0548510652099
 21
-1614.7352238711
 31
0.0
  0
LINE
  5
187
330
39
100
AcDbEntity
  8
1
  6
Continuous
 62
     3
100
AcDbLine
 10
-260.6548510652099
 20
-1636.4977238711
 30
0.0
 11
-260.1298510652099
 21
-1636.4102238711
 31
0.0
  0
LINE
  5
188
330
39
100
AcDbEntity
  8
1
  6
Continuous
 62
     3
100
AcDbLine
 10
-260.1298510652099
 20
-1636.4102238711
 30
0.0
 11
-259.6923510652099
 21
-1636.2352238711
 31
0.0
  0
LINE
  5
189
330
39
100
AcDbEntity
  8
1
  6
Continuous
 62
     3
100
AcDbLine
 10
-259.6923510652099
 20
-1636.2352238711
 30
0.0
 11
-259.42985106521
 21
-1635.9727238711
 31
0.0
  0
LINE
  5
18A
330
39
100
AcDbEntity
  8
1
  6
Continuous
 62
     3
100
AcDbLine
 10
-259.42985106521
 20
-1635.9727238711
 30
0.0
 11
-259.2548510652099
 21
-1635.5352238711
 31
0.0
  0
LINE
  5
18B
330
39
100
AcDbEntity
  8
1
  6
Continuous
 62
     3
100
AcDbLine
 10
-259.2548510652099
 20
-1635.5352238711
 30
0.0
 11
-259.2548510652099
 21
-1635.0102238711
 31
0.0
  0
LINE
  5
18C
330
39
100
AcDbEntity
  8
1
  6
Continuous
 62
     3
100
AcDbLine
 10
-259.2548510652099
 20
-1635.0102238711
 30
0.0
 11
-259.42985106521
 21
-1634.5727238711
 31
0.0
  0
LINE
  5
18D
330
39
100
AcDbEntity
  8
1
  6
Continuous
 62
     3
100
AcDbLine
 10
-259.42985106521
 20
-1634.5727238711
 30
0.0
 11
-259.6923510652099
 21
-1634.3102238711
 31
0.0
  0
LINE
  5
18E
330
39
100
AcDbEntity
  8
1
  6
Continuous
 62
     3
100
AcDbLine
 10
-259.6923510652099
 20
-1634.3102238711
 30
0.0
 11
-260.1298510652099
 21
-1634.1352238711
 31
0.0
  0
LINE
  5
18F
330
39
100
AcDbEntity
  8
1
  6
Continuous
 62
     3
100
AcDbLine
 10
-260.1298510652099
 20
-1634.1352238711
 30
0.0
 11
-260.6548510652099
 21
-1634.0477238711
 31
0.0
  0
LINE
  5
190
330
39
100
AcDbEntity
  8
1
  6
Continuous
 62
     3
100
AcDbLine
 10
-260.6548510652099
 20
-1634.0477238711
 30
0.0
 11
-262.49235106521
 21
-1634.0477238711
 31
0.0
  0
LINE
  5
191
330
39
100
AcDbEntity
  8
1
  6
Continuous
 62
     3
100
AcDbLine
 10
-262.49235106521
 20
-1634.0477238711
 30
0.0
 11
-262.49235106521
 21
-1636.4977238711
 31
0.0
  0
LINE
  5
192
330
39
100
AcDbEntity
  8
1
  6
Continuous
 62
     3
100
AcDbLine
 10
-262.49235106521
 20
-1636.4977238711
 30
0.0
 11
-260.6548510652099
 21
-1636.4977238711
 31
0.0
  0
LINE
  5
193
330
39
100
AcDbEntity
  8
1
  6
Continuous
 62
     3
100
AcDbLine
 10
-258.3798510652099
 20
-1635.5352238711
 30
0.0
 11
-258.4673510652099
 21
-1636.1477238711
 31
0.0
  0
LINE
  5
194
330
39
100
AcDbEntity
  8
1
  6
Continuous
 62
     3
100
AcDbLine
 10
-258.4673510652099
 20
-1636.1477238711
 30
0.0
 11
-258.8173510652099
 21
-1636.6727238711
 31
0.0
  0
LINE
  5
195
330
39
100
AcDbEntity
  8
1
  6
Continuous
 62
     3
100
AcDbLine
 10
-258.8173510652099
 20
-1636.6727238711
 30
0.0
 11
-259.1673510652099
 21
-1637.0227238711
 31
0.0
  0
LINE
  5
196
330
39
100
AcDbEntity
  8
1
  6
Continuous
 62
     3
100
AcDbLine
 10
-259.1673510652099
 20
-1637.0227238711
 30
0.0
 11
-259.6923510652099
 21
-1637.2852238711
 31
0.0
  0
LINE
  5
197
330
39
100
AcDbEntity
  8
1
  6
Continuous
 62
     3
100
AcDbLine
 10
-259.6923510652099
 20
-1637.2852238711
 30
0.0
 11
-260.3923510652099
 21
-1637.3727238711
 31
0.0
  0
LINE
  5
198
330
39
100
AcDbEntity
  8
1
  6
Continuous
 62
     3
100
AcDbLine
 10
-260.3923510652099
 20
-1637.3727238711
 30
0.0
 11
-262.49235106521
 21
-1637.3727238711
 31
0.0
  0
LINE
  5
199
330
39
100
AcDbEntity
  8
1
  6
Continuous
 62
     3
100
AcDbLine
 10
-262.49235106521
 20
-1637.3727238711
 30
0.0
 11
-262.49235106521
 21
-1640.1727238711
 31
0.0
  0
LINE
  5
19A
330
39
100
AcDbEntity
  8
1
  6
Continuous
 62
     3
100
AcDbLine
 10
-262.49235106521
 20
-1640.1727238711
 30
0.0
 11
-263.4548510652099
 21
-1640.1727238711
 31
0.0
  0
LINE
  5
19B
330
39
100
AcDbEntity
  8
1
  6
Continuous
 62
     3
100
AcDbLine
 10
-263.4548510652099
 20
-1640.1727238711
 30
0.0
 11
-263.4548510652099
 21
-1633.1727238711
 31
0.0
  0
LINE
  5
19C
330
39
100
AcDbEntity
  8
1
  6
Continuous
 62
     3
100
AcDbLine
 10
-263.4548510652099
 20
-1633.1727238711
 30
0.0
 11
-260.3923510652099
 21
-1633.1727238711
 31
0.0
  0
LINE
  5
19D
330
39
100
AcDbEntity
  8
1
  6
Continuous
 62
     3
100
AcDbLine
 10
-260.3923510652099
 20
-1633.1727238711
 30
0.0
 11
-259.6923510652099
 21
-1633.2602238711
 31
0.0
  0
LINE
  5
19E
330
39
100
AcDbEntity
  8
1
  6
Continuous
 62
     3
100
AcDbLine
 10
-259.6923510652099
 20
-1633.2602238711
 30
0.0
 11
-259.1673510652099
 21
-1633.5227238711
 31
0.0
  0
LINE
  5
19F
330
39
100
AcDbEntity
  8
1
  6
Continuous
 62
     3
100
AcDbLine
 10
-259.1673510652099
 20
-1633.5227238711
 30
0.0
 11
-258.8173510652099
 21
-1633.8727238711
 31
0.0
  0
LINE
  5
1A0
330
39
100
AcDbEntity
  8
1
  6
Continuous
 62
     3
100
AcDbLine
 10
-258.8173510652099
 20
-1633.8727238711
 30
0.0
 11
-258.4673510652099
 21
-1634.3977238711
 31
0.0
  0
LINE
  5
1A1
330
39
100
AcDbEntity
  8
1
  6
Continuous
 62
     3
100
AcDbLine
 10
-258.4673510652099
 20
-1634.3977238711
 30
0.0
 11
-258.3798510652099
 21
-1635.0102238711
 31
0.0
  0
LINE
  5
1A2
330
39
100
AcDbEntity
  8
1
  6
Continuous
 62
     3
100
AcDbLine
 10
-258.3798510652099
 20
-1635.0102238711
 30
0.0
 11
-258.3798510652099
 21
-1635.5352238711
 31
0.0
  0
LINE
  5
1A3
330
39
100
AcDbEntity
  8
1
  6
Continuous
 62
     3
100
AcDbLine
 10
-256.9798510652099
 20
-1640.1727238711
 30
0.0
 11
-256.9798510652099
 21
-1633.1727238711
 31
0.0
  0
LINE
  5
1A4
330
39
100
AcDbEntity
  8
1
  6
Continuous
 62
     3
100
AcDbLine
 10
-256.9798510652099
 20
-1633.1727238711
 30
0.0
 11
-256.0173510652099
 21
-1633.1727238711
 31
0.0
  0
LINE
  5
1A5
330
39
100
AcDbEntity
  8
1
  6
Continuous
 62
     3
100
AcDbLine
 10
-256.0173510652099
 20
-1633.1727238711
 30
0.0
 11
-252.4298510652099
 21
-1638.5977238711
 31
0.0
  0
LINE
  5
1A6
330
39
100
AcDbEntity
  8
1
  6
Continuous
 62
     3
100
AcDbLine
 10
-252.4298510652099
 20
-1638.5977238711
 30
0.0
 11
-252.4298510652099
 21
-1633.1727238711
 31
0.0
  0
LINE
  5
1A7
330
39
100
AcDbEntity
  8
1
  6
Continuous
 62
     3
100
AcDbLine
 10
-252.4298510652099
 20
-1633.1727238711
 30
0.0
 11
-251.5548510652099
 21
-1633.1727238711
 31
0.0
  0
LINE
  5
1A8
330
39
100
AcDbEntity
  8
1
  6
Continuous
 62
     3
100
AcDbLine
 10
-251.5548510652099
 20
-1633.1727238711
 30
0.0
 11
-251.5548510652099
 21
-1640.1727238711
 31
0.0
  0
LINE
  5
1A9
330
39
100
AcDbEntity
  8
1
  6
Continuous
 62
     3
100
AcDbLine
 10
-251.5548510652099
 20
-1640.1727238711
 30
0.0
 11
-252.5173510652099
 21
-1640.1727238711
 31
0.0
  0
LINE
  5
1AA
330
39
100
AcDbEntity
  8
1
  6
Continuous
 62
     3
100
AcDbLine
 10
-252.5173510652099
 20
-1640.1727238711
 30
0.0
 11
-256.1048510652099
 21
-1634.7477238711
 31
0.0
  0
LINE
  5
1AB
330
39
100
AcDbEntity
  8
1
  6
Continuous
 62
     3
100
AcDbLine
 10
-256.1048510652099
 20
-1634.7477238711
 30
0.0
 11
-256.1048510652099
 21
-1640.1727238711
 31
0.0
  0
LINE
  5
1AC
330
39
100
AcDbEntity
  8
1
  6
Continuous
 62
     3
100
AcDbLine
 10
-256.1048510652099
 20
-1640.1727238711
 30
0.0
 11
-256.9798510652099
 21
-1640.1727238711
 31
0.0
  0
LINE
  5
1AD
330
39
100
AcDbEntity
  8
1
  6
Continuous
 62
     3
100
AcDbLine
 10
-247.6173510652099
 20
-1640.1727238711
 30
0.0
 11
-247.6173510652099
 21
-1633.1727238711
 31
0.0
  0
LINE
  5
1AE
330
39
100
AcDbEntity
  8
1
  6
Continuous
 62
     3
100
AcDbLine
 10
-247.6173510652099
 20
-1633.1727238711
 30
0.0
 11
-248.3173510652099
 21
-1633.1727238711
 31
0.0
  0
LINE
  5
1AF
330
39
100
AcDbEntity
  8
1
  6
Continuous
 62
     3
100
AcDbLine
 10
-248.3173510652099
 20
-1633.1727238711
 30
0.0
 11
-248.4048510652099
 21
-1633.4352238711
 31
0.0
  0
LINE
  5
1B0
330
39
100
AcDbEntity
  8
1
  6
Continuous
 62
     3
100
AcDbLine
 10
-248.4048510652099
 20
-1633.4352238711
 30
0.0
 11
-248.6673510652099
 21
-1633.7852238711
 31
0.0
  0
LINE
  5
1B1
330
39
100
AcDbEntity
  8
1
  6
Continuous
 62
     3
100
AcDbLine
 10
-248.6673510652099
 20
-1633.7852238711
 30
0.0
 11
-248.9298510652099
 21
-1634.0477238711
 31
0.0
  0
LINE
  5
1B2
330
39
100
AcDbEntity
  8
1
  6
Continuous
 62
     3
100
AcDbLine
 10
-248.9298510652099
 20
-1634.0477238711
 30
0.0
 11
-249.2798510652099
 21
-1634.2227238711
 31
0.0
  0
LINE
  5
1B3
330
39
100
AcDbEntity
  8
1
  6
Continuous
 62
     3
100
AcDbLine
 10
-249.2798510652099
 20
-1634.2227238711
 30
0.0
 11
-249.5423510652099
 21
-1634.3102238711
 31
0.0
  0
LINE
  5
1B4
330
39
100
AcDbEntity
  8
1
  6
Continuous
 62
     3
100
AcDbLine
 10
-249.5423510652099
 20
-1634.3102238711
 30
0.0
 11
-249.9798510652099
 21
-1634.3977238711
 31
0.0
  0
LINE
  5
1B5
330
39
100
AcDbEntity
  8
1
  6
Continuous
 62
     3
100
AcDbLine
 10
-249.9798510652099
 20
-1634.3977238711
 30
0.0
 11
-250.1548510652099
 21
-1634.3977238711
 31
0.0
  0
LINE
  5
1B6
330
39
100
AcDbEntity
  8
1
  6
Continuous
 62
     3
100
AcDbLine
 10
-250.1548510652099
 20
-1634.3977238711
 30
0.0
 11
-250.1548510652099
 21
-1635.0977238711
 31
0.0
  0
LINE
  5
1B7
330
39
100
AcDbEntity
  8
1
  6
Continuous
 62
     3
100
AcDbLine
 10
-250.1548510652099
 20
-1635.0977238711
 30
0.0
 11
-248.4923510652099
 21
-1635.0977238711
 31
0.0
  0
LINE
  5
1B8
330
39
100
AcDbEntity
  8
1
  6
Continuous
 62
     3
100
AcDbLine
 10
-248.4923510652099
 20
-1635.0977238711
 30
0.0
 11
-248.4923510652099
 21
-1640.1727238711
 31
0.0
  0
LINE
  5
1B9
330
39
100
AcDbEntity
  8
1
  6
Continuous
 62
     3
100
AcDbLine
 10
-248.4923510652099
 20
-1640.1727238711
 30
0.0
 11
-247.6173510652099
 21
-1640.1727238711
 31
0.0
  0
LINE
  5
1BA
330
39
100
AcDbEntity
  8
1
  6
Continuous
 62
     3
100
AcDbLine
 10
-242.8048510652099
 20
-1638.8602238711
 30
0.0
 11
-242.62985106521
 21
-1638.5977238711
 31
0.0
  0
LINE
  5
1BB
330
39
100
AcDbEntity
  8
1
  6
Continuous
 62
     3
100
AcDbLine
 10
-242.62985106521
 20
-1638.5977238711
 30
0.0
 11
-242.4548510652099
 21
-1638.1602238711
 31
0.0
  0
LINE
  5
1BC
330
39
100
AcDbEntity
  8
1
  6
Continuous
 62
     3
100
AcDbLine
 10
-242.4548510652099
 20
-1638.1602238711
 30
0.0
 11
-242.4548510652099
 21
-1637.6352238711
 31
0.0
  0
LINE
  5
1BD
330
39
100
AcDbEntity
  8
1
  6
Continuous
 62
     3
100
AcDbLine
 10
-242.4548510652099
 20
-1637.6352238711
 30
0.0
 11
-242.62985106521
 21
-1637.1977238711
 31
0.0
  0
LINE
  5
1BE
330
39
100
AcDbEntity
  8
1
  6
Continuous
 62
     3
100
AcDbLine
 10
-242.62985106521
 20
-1637.1977238711
 30
0.0
 11
-242.8048510652099
 21
-1636.9352238711
 31
0.0
  0
LINE
  5
1BF
330
39
100
AcDbEntity
  8
1
  6
Continuous
 62
     3
100
AcDbLine
 10
-242.8048510652099
 20
-1636.9352238711
 30
0.0
 11
-243.1548510652099
 21
-1636.6727238711
 31
0.0
  0
LINE
  5
1C0
330
39
100
AcDbEntity
  8
1
  6
Continuous
 62
     3
100
AcDbLine
 10
-243.1548510652099
 20
-1636.6727238711
 30
0.0
 11
-243.5923510652099
 21
-1636.4977238711
 31
0.0
  0
LINE
  5
1C1
330
39
100
AcDbEntity
  8
1
  6
Continuous
 62
     3
100
AcDbLine
 10
-243.5923510652099
 20
-1636.4977238711
 30
0.0
 11
-244.0298510652099
 21
-1636.4977238711
 31
0.0
  0
LINE
  5
1C2
330
39
100
AcDbEntity
  8
1
  6
Continuous
 62
     3
100
AcDbLine
 10
-244.0298510652099
 20
-1636.4977238711
 30
0.0
 11
-244.4673510652099
 21
-1636.6727238711
 31
0.0
  0
LINE
  5
1C3
330
39
100
AcDbEntity
  8
1
  6
Continuous
 62
     3
100
AcDbLine
 10
-244.4673510652099
 20
-1636.6727238711
 30
0.0
 11
-244.8173510652099
 21
-1636.9352238711
 31
0.0
  0
LINE
  5
1C4
330
39
100
AcDbEntity
  8
1
  6
Continuous
 62
     3
100
AcDbLine
 10
-244.8173510652099
 20
-1636.9352238711
 30
0.0
 11
-244.9923510652099
 21
-1637.1977238711
 31
0.0
  0
LINE
  5
1C5
330
39
100
AcDbEntity
  8
1
  6
Continuous
 62
     3
100
AcDbLine
 10
-244.9923510652099
 20
-1637.1977238711
 30
0.0
 11
-245.1673510652099
 21
-1637.6352238711
 31
0.0
  0
LINE
  5
1C6
330
39
100
AcDbEntity
  8
1
  6
Continuous
 62
     3
100
AcDbLine
 10
-245.1673510652099
 20
-1637.6352238711
 30
0.0
 11
-245.1673510652099
 21
-1638.1602238711
 31
0.0
  0
LINE
  5
1C7
330
39
100
AcDbEntity
  8
1
  6
Continuous
 62
     3
100
AcDbLine
 10
-245.1673510652099
 20
-1638.1602238711
 30
0.0
 11
-244.9923510652099
 21
-1638.5977238711
 31
0.0
  0
LINE
  5
1C8
330
39
100
AcDbEntity
  8
1
  6
Continuous
 62
     3
100
AcDbLine
 10
-244.9923510652099
 20
-1638.5977238711
 30
0.0
 11
-244.8173510652099
 21
-1638.8602238711
 31
0.0
  0
LINE
  5
1C9
330
39
100
AcDbEntity
  8
1
  6
Continuous
 62
     3
100
AcDbLine
 10
-244.8173510652099
 20
-1638.8602238711
 30
0.0
 11
-244.4673510652099
 21
-1639.1227238711
 31
0.0
  0
LINE
  5
1CA
330
39
100
AcDbEntity
  8
1
  6
Continuous
 62
     3
100
AcDbLine
 10
-244.4673510652099
 20
-1639.1227238711
 30
0.0
 11
-244.0298510652099
 21
-1639.2977238711
 31
0.0
  0
LINE
  5
1CB
330
39
100
AcDbEntity
  8
1
  6
Continuous
 62
     3
100
AcDbLine
 10
-244.0298510652099
 20
-1639.2977238711
 30
0.0
 11
-243.5923510652099
 21
-1639.2977238711
 31
0.0
  0
LINE
  5
1CC
330
39
100
AcDbEntity
  8
1
  6
Continuous
 62
     3
100
AcDbLine
 10
-243.5923510652099
 20
-1639.2977238711
 30
0.0
 11
-243.1548510652099
 21
-1639.1227238711
 31
0.0
  0
LINE
  5
1CD
330
39
100
AcDbEntity
  8
1
  6
Continuous
 62
     3
100
AcDbLine
 10
-243.1548510652099
 20
-1639.1227238711
 30
0.0
 11
-242.8048510652099
 21
-1638.8602238711
 31
0.0
  0
LINE
  5
1CE
330
39
100
AcDbEntity
  8
1
  6
Continuous
 62
     3
100
AcDbLine
 10
-241.5798510652099
 20
-1638.2477238711
 30
0.0
 11
-241.75485106521
 21
-1638.7727238711
 31
0.0
  0
LINE
  5
1CF
330
39
100
AcDbEntity
  8
1
  6
Continuous
 62
     3
100
AcDbLine
 10
-241.75485106521
 20
-1638.7727238711
 30
0.0
 11
-241.9298510652099
 21
-1639.1227238711
 31
0.0
  0
LINE
  5
1D0
330
39
100
AcDbEntity
  8
1
  6
Continuous
 62
     3
100
AcDbLine
 10
-241.9298510652099
 20
-1639.1227238711
 30
0.0
 11
-242.19235106521
 21
-1639.4727238711
 31
0.0
  0
LINE
  5
1D1
330
39
100
AcDbEntity
  8
1
  6
Continuous
 62
     3
100
AcDbLine
 10
-242.19235106521
 20
-1639.4727238711
 30
0.0
 11
-242.4548510652099
 21
-1639.7352238711
 31
0.0
  0
LINE
  5
1D2
330
39
100
AcDbEntity
  8
1
  6
Continuous
 62
     3
100
AcDbLine
 10
-242.4548510652099
 20
-1639.7352238711
 30
0.0
 11
-242.7173510652099
 21
-1639.9102238711
 31
0.0
  0
LINE
  5
1D3
330
39
100
AcDbEntity
  8
1
  6
Continuous
 62
     3
100
AcDbLine
 10
-242.7173510652099
 20
-1639.9102238711
 30
0.0
 11
-243.1548510652099
 21
-1640.0852238711
 31
0.0
  0
LINE
  5
1D4
330
39
100
AcDbEntity
  8
1
  6
Continuous
 62
     3
100
AcDbLine
 10
-243.1548510652099
 20
-1640.0852238711
 30
0.0
 11
-243.5923510652099
 21
-1640.1727238711
 31
0.0
  0
LINE
  5
1D5
330
39
100
AcDbEntity
  8
1
  6
Continuous
 62
     3
100
AcDbLine
 10
-243.5923510652099
 20
-1640.1727238711
 30
0.0
 11
-244.0298510652099
 21
-1640.1727238711
 31
0.0
  0
LINE
  5
1D6
330
39
100
AcDbEntity
  8
1
  6
Continuous
 62
     3
100
AcDbLine
 10
-244.0298510652099
 20
-1640.1727238711
 30
0.0
 11
-244.4673510652099
 21
-1640.0852238711
 31
0.0
  0
LINE
  5
1D7
330
39
100
AcDbEntity
  8
1
  6
Continuous
 62
     3
100
AcDbLine
 10
-244.4673510652099
 20
-1640.0852238711
 30
0.0
 11
-244.9048510652099
 21
-1639.9102238711
 31
0.0
  0
LINE
  5
1D8
330
39
100
AcDbEntity
  8
1
  6
Continuous
 62
     3
100
AcDbLine
 10
-244.9048510652099
 20
-1639.9102238711
 30
0.0
 11
-245.1673510652099
 21
-1639.7352238711
 31
0.0
  0
LINE
  5
1D9
330
39
100
AcDbEntity
  8
1
  6
Continuous
 62
     3
100
AcDbLine
 10
-245.1673510652099
 20
-1639.7352238711
 30
0.0
 11
-245.4298510652099
 21
-1639.4727238711
 31
0.0
  0
LINE
  5
1DA
330
39
100
AcDbEntity
  8
1
  6
Continuous
 62
     3
100
AcDbLine
 10
-245.4298510652099
 20
-1639.4727238711
 30
0.0
 11
-245.6923510652099
 21
-1639.1227238711
 31
0.0
  0
LINE
  5
1DB
330
39
100
AcDbEntity
  8
1
  6
Continuous
 62
     3
100
AcDbLine
 10
-245.6923510652099
 20
-1639.1227238711
 30
0.0
 11
-245.8673510652099
 21
-1638.7727238711
 31
0.0
  0
LINE
  5
1DC
330
39
100
AcDbEntity
  8
1
  6
Continuous
 62
     3
100
AcDbLine
 10
-245.8673510652099
 20
-1638.7727238711
 30
0.0
 11
-246.0423510652099
 21
-1638.3352238711
 31
0.0
  0
LINE
  5
1DD
330
39
100
AcDbEntity
  8
1
  6
Continuous
 62
     3
100
AcDbLine
 10
-246.0423510652099
 20
-1638.3352238711
 30
0.0
 11
-246.1298510652099
 21
-1637.8102238711
 31
0.0
  0
LINE
  5
1DE
330
39
100
AcDbEntity
  8
1
  6
Continuous
 62
     3
100
AcDbLine
 10
-246.1298510652099
 20
-1637.8102238711
 30
0.0
 11
-246.2173510652099
 21
-1637.0227238711
 31
0.0
  0
LINE
  5
1DF
330
39
100
AcDbEntity
  8
1
  6
Continuous
 62
     3
100
AcDbLine
 10
-246.2173510652099
 20
-1637.0227238711
 30
0.0
 11
-246.2173510652099
 21
-1636.3227238711
 31
0.0
  0
LINE
  5
1E0
330
39
100
AcDbEntity
  8
1
  6
Continuous
 62
     3
100
AcDbLine
 10
-246.2173510652099
 20
-1636.3227238711
 30
0.0
 11
-246.1298510652099
 21
-1635.5352238711
 31
0.0
  0
LINE
  5
1E1
330
39
100
AcDbEntity
  8
1
  6
Continuous
 62
     3
100
AcDbLine
 10
-246.1298510652099
 20
-1635.5352238711
 30
0.0
 11
-246.0423510652099
 21
-1635.0102238711
 31
0.0
  0
LINE
  5
1E2
330
39
100
AcDbEntity
  8
1
  6
Continuous
 62
     3
100
AcDbLine
 10
-246.0423510652099
 20
-1635.0102238711
 30
0.0
 11
-245.8673510652099
 21
-1634.5727238711
 31
0.0
  0
LINE
  5
1E3
330
39
100
AcDbEntity
  8
1
  6
Continuous
 62
     3
100
AcDbLine
 10
-245.8673510652099
 20
-1634.5727238711
 30
0.0
 11
-245.6923510652099
 21
-1634.2227238711
 31
0.0
  0
LINE
  5
1E4
330
39
100
AcDbEntity
  8
1
  6
Continuous
 62
     3
100
AcDbLine
 10
-245.6923510652099
 20
-1634.2227238711
 30
0.0
 11
-245.4298510652099
 21
-1633.8727238711
 31
0.0
  0
LINE
  5
1E5
330
39
100
AcDbEntity
  8
1
  6
Continuous
 62
     3
100
AcDbLine
 10
-245.4298510652099
 20
-1633.8727238711
 30
0.0
 11
-245.1673510652099
 21
-1633.6102238711
 31
0.0
  0
LINE
  5
1E6
330
39
100
AcDbEntity
  8
1
  6
Continuous
 62
     3
100
AcDbLine
 10
-245.1673510652099
 20
-1633.6102238711
 30
0.0
 11
-244.9048510652099
 21
-1633.4352238711
 31
0.0
  0
LINE
  5
1E7
330
39
100
AcDbEntity
  8
1
  6
Continuous
 62
     3
100
AcDbLine
 10
-244.9048510652099
 20
-1633.4352238711
 30
0.0
 11
-244.4673510652099
 21
-1633.2602238711
 31
0.0
  0
LINE
  5
1E8
330
39
100
AcDbEntity
  8
1
  6
Continuous
 62
     3
100
AcDbLine
 10
-244.4673510652099
 20
-1633.2602238711
 30
0.0
 11
-244.1173510652099
 21
-1633.1727238711
 31
0.0
  0
LINE
  5
1E9
330
39
100
AcDbEntity
  8
1
  6
Continuous
 62
     3
100
AcDbLine
 10
-244.1173510652099
 20
-1633.1727238711
 30
0.0
 11
-243.50485106521
 21
-1633.1727238711
 31
0.0
  0
LINE
  5
1EA
330
39
100
AcDbEntity
  8
1
  6
Continuous
 62
     3
100
AcDbLine
 10
-243.50485106521
 20
-1633.1727238711
 30
0.0
 11
-243.1548510652099
 21
-1633.2602238711
 31
0.0
  0
LINE
  5
1EB
330
39
100
AcDbEntity
  8
1
  6
Continuous
 62
     3
100
AcDbLine
 10
-243.1548510652099
 20
-1633.2602238711
 30
0.0
 11
-242.7173510652099
 21
-1633.4352238711
 31
0.0
  0
LINE
  5
1EC
330
39
100
AcDbEntity
  8
1
  6
Continuous
 62
     3
100
AcDbLine
 10
-242.7173510652099
 20
-1633.4352238711
 30
0.0
 11
-242.4548510652099
 21
-1633.6102238711
 31
0.0
  0
LINE
  5
1ED
330
39
100
AcDbEntity
  8
1
  6
Continuous
 62
     3
100
AcDbLine
 10
-242.4548510652099
 20
-1633.6102238711
 30
0.0
 11
-242.19235106521
 21
-1633.8727238711
 31
0.0
  0
LINE
  5
1EE
330
39
100
AcDbEntity
  8
1
  6
Continuous
 62
     3
100
AcDbLine
 10
-242.19235106521
 20
-1633.8727238711
 30
0.0
 11
-241.9298510652099
 21
-1634.2227238711
 31
0.0
  0
LINE
  5
1EF
330
39
100
AcDbEntity
  8
1
  6
Continuous
 62
     3
100
AcDbLine
 10
-241.9298510652099
 20
-1634.2227238711
 30
0.0
 11
-241.75485106521
 21
-1634.5727238711
 31
0.0
  0
LINE
  5
1F0
330
39
100
AcDbEntity
  8
1
  6
Continuous
 62
     3
100
AcDbLine
 10
-241.75485106521
 20
-1634.5727238711
 30
0.0
 11
-241.6673510652099
 21
-1635.0102238711
 31
0.0
  0
LINE
  5
1F1
330
39
100
AcDbEntity
  8
1
  6
Continuous
 62
     3
100
AcDbLine
 10
-241.6673510652099
 20
-1635.0102238711
 30
0.0
 11
-241.6673510652099
 21
-1635.1852238711
 31
0.0
  0
LINE
  5
1F2
330
39
100
AcDbEntity
  8
1
  6
Continuous
 62
     3
100
AcDbLine
 10
-241.6673510652099
 20
-1635.1852238711
 30
0.0
 11
-242.5423510652099
 21
-1635.1852238711
 31
0.0
  0
LINE
  5
1F3
330
39
100
AcDbEntity
  8
1
  6
Continuous
 62
     3
100
AcDbLine
 10
-242.5423510652099
 20
-1635.1852238711
 30
0.0
 11
-242.62985106521
 21
-1634.7477238711
 31
0.0
  0
LINE
  5
1F4
330
39
100
AcDbEntity
  8
1
  6
Continuous
 62
     3
100
AcDbLine
 10
-242.62985106521
 20
-1634.7477238711
 30
0.0
 11
-242.8048510652099
 21
-1634.4852238711
 31
0.0
  0
LINE
  5
1F5
330
39
100
AcDbEntity
  8
1
  6
Continuous
 62
     3
100
AcDbLine
 10
-242.8048510652099
 20
-1634.4852238711
 30
0.0
 11
-243.1548510652099
 21
-1634.2227238711
 31
0.0
  0
LINE
  5
1F6
330
39
100
AcDbEntity
  8
1
  6
Continuous
 62
     3
100
AcDbLine
 10
-243.1548510652099
 20
-1634.2227238711
 30
0.0
 11
-243.50485106521
 21
-1634.0477238711
 31
0.0
  0
LINE
  5
1F7
330
39
100
AcDbEntity
  8
1
  6
Continuous
 62
     3
100
AcDbLine
 10
-243.50485106521
 20
-1634.0477238711
 30
0.0
 11
-244.1173510652099
 21
-1634.0477238711
 31
0.0
  0
LINE
  5
1F8
330
39
100
AcDbEntity
  8
1
  6
Continuous
 62
     3
100
AcDbLine
 10
-244.1173510652099
 20
-1634.0477238711
 30
0.0
 11
-244.4673510652099
 21
-1634.2227238711
 31
0.0
  0
LINE
  5
1F9
330
39
100
AcDbEntity
  8
1
  6
Continuous
 62
     3
100
AcDbLine
 10
-244.4673510652099
 20
-1634.2227238711
 30
0.0
 11
-244.8173510652099
 21
-1634.4852238711
 31
0.0
  0
LINE
  5
1FA
330
39
100
AcDbEntity
  8
1
  6
Continuous
 62
     3
100
AcDbLine
 10
-244.8173510652099
 20
-1634.4852238711
 30
0.0
 11
-244.9923510652099
 21
-1634.7477238711
 31
0.0
  0
LINE
  5
1FB
330
39
100
AcDbEntity
  8
1
  6
Continuous
 62
     3
100
AcDbLine
 10
-244.9923510652099
 20
-1634.7477238711
 30
0.0
 11
-245.1673510652099
 21
-1635.1852238711
 31
0.0
  0
LINE
  5
1FC
330
39
100
AcDbEntity
  8
1
  6
Continuous
 62
     3
100
AcDbLine
 10
-245.1673510652099
 20
-1635.1852238711
 30
0.0
 11
-245.3423510652099
 21
-1636.4102238711
 31
0.0
  0
LINE
  5
1FD
330
39
100
AcDbEntity
  8
1
  6
Continuous
 62
     3
100
AcDbLine
 10
-245.3423510652099
 20
-1636.4102238711
 30
0.0
 11
-244.9048510652099
 21
-1635.9727238711
 31
0.0
  0
LINE
  5
1FE
330
39
100
AcDbEntity
  8
1
  6
Continuous
 62
     3
100
AcDbLine
 10
-244.9048510652099
 20
-1635.9727238711
 30
0.0
 11
-244.4673510652099
 21
-1635.7102238711
 31
0.0
  0
LINE
  5
1FF
330
39
100
AcDbEntity
  8
1
  6
Continuous
 62
     3
100
AcDbLine
 10
-244.4673510652099
 20
-1635.7102238711
 30
0.0
 11
-244.0298510652099
 21
-1635.6227238711
 31
0.0
  0
LINE
  5
200
330
39
100
AcDbEntity
  8
1
  6
Continuous
 62
     3
100
AcDbLine
 10
-244.0298510652099
 20
-1635.6227238711
 30
0.0
 11
-243.5923510652099
 21
-1635.6227238711
 31
0.0
  0
LINE
  5
201
330
39
100
AcDbEntity
  8
1
  6
Continuous
 62
     3
100
AcDbLine
 10
-243.5923510652099
 20
-1635.6227238711
 30
0.0
 11
-243.1548510652099
 21
-1635.7102238711
 31
0.0
  0
LINE
  5
202
330
39
100
AcDbEntity
  8
1
  6
Continuous
 62
     3
100
AcDbLine
 10
-243.1548510652099
 20
-1635.7102238711
 30
0.0
 11
-242.7173510652099
 21
-1635.8852238711
 31
0.0
  0
LINE
  5
203
330
39
100
AcDbEntity
  8
1
  6
Continuous
 62
     3
100
AcDbLine
 10
-242.7173510652099
 20
-1635.8852238711
 30
0.0
 11
-242.4548510652099
 21
-1636.0602238711
 31
0.0
  0
LINE
  5
204
330
39
100
AcDbEntity
  8
1
  6
Continuous
 62
     3
100
AcDbLine
 10
-242.4548510652099
 20
-1636.0602238711
 30
0.0
 11
-242.19235106521
 21
-1636.3227238711
 31
0.0
  0
LINE
  5
205
330
39
100
AcDbEntity
  8
1
  6
Continuous
 62
     3
100
AcDbLine
 10
-242.19235106521
 20
-1636.3227238711
 30
0.0
 11
-241.9298510652099
 21
-1636.6727238711
 31
0.0
  0
LINE
  5
206
330
39
100
AcDbEntity
  8
1
  6
Continuous
 62
     3
100
AcDbLine
 10
-241.9298510652099
 20
-1636.6727238711
 30
0.0
 11
-241.75485106521
 21
-1637.0227238711
 31
0.0
  0
LINE
  5
207
330
39
100
AcDbEntity
  8
1
  6
Continuous
 62
     3
100
AcDbLine
 10
-241.75485106521
 20
-1637.0227238711
 30
0.0
 11
-241.5798510652099
 21
-1637.5477238711
 31
0.0
  0
LINE
  5
208
330
39
100
AcDbEntity
  8
1
  6
Continuous
 62
     3
100
AcDbLine
 10
-241.5798510652099
 20
-1637.5477238711
 30
0.0
 11
-241.5798510652099
 21
-1638.2477238711
 31
0.0
  0
LINE
  5
209
330
39
100
AcDbEntity
  8
1
  6
Continuous
 62
     3
100
AcDbLine
 10
-263.4548510652099
 20
-1640.1727238711
 30
0.0
 11
-263.4548510652099
 21
-1633.1727238711
 31
0.0
  0
LINE
  5
20A
330
39
100
AcDbEntity
  8
1
  6
Continuous
 62
     3
100
AcDbLine
 10
-299.1317208006892
 20
-1642.183354135632
 30
0.0
 11
-286.9029813297418
 21
-1642.183354135632
 31
0.0
  0
LINE
  5
20B
330
39
100
AcDbEntity
  8
1
  6
Continuous
 62
     3
100
AcDbLine
 10
-299.1317208006892
 20
-1606.162093606568
 30
0.0
 11
-286.9029813297307
 21
-1606.162093606568
 31
0.0
  0
LINE
  5
20C
330
39
100
AcDbEntity
  8
1
  6
Continuous
 62
     3
100
AcDbLine
 10
-281.0173510652099
 20
-1651.1727238711
 30
0.0
 11
-281.0173510652099
 21
-1624.1727238711
 31
0.0
  0
LINE
  5
20D
330
39
100
AcDbEntity
  8
1
  6
Continuous
 62
     3
100
AcDbLine
 10
-281.0173510652099
 20
-1624.1727238711
 30
0.0
 11
-281.0173510652099
 21
-1597.1727238711
 31
0.0
  0
LINE
  5
20E
330
39
100
AcDbEntity
  8
1
  6
Continuous
 62
     3
100
AcDbLine
 10
-220.5173510652099
 20
-1595.9227238711
 30
0.0
 11
-220.51735106521
 21
-1654.904774678669
 31
0.0
  0
LINE
  5
20F
330
39
100
AcDbEntity
  8
1
  6
Continuous
 62
     3
100
AcDbLine
 10
-220.51735106521
 20
-1593.440673063531
 30
0.0
 11
-220.5173510652099
 21
-1595.9227238711
 31
0.0
  0
LINE
  5
210
330
39
100
AcDbEntity
  8
1
  6
Continuous
 62
     3
100
AcDbLine
 10
-238.5173510652099
 20
-1564.1727238711
 30
0.0
 11
-238.5173510652099
 21
-1559.6727238711
 31
0.0
  0
LINE
  5
211
330
39
100
AcDbEntity
  8
1
  6
Continuous
 62
     3
100
AcDbLine
 10
-266.5173510652099
 20
-1559.6727238711
 30
0.0
 11
-266.5173510652099
 21
-1564.1727238711
 31
0.0
  0
LINE
  5
212
330
39
100
AcDbEntity
  8
1
  6
Continuous
 62
     3
100
AcDbLine
 10
-272.5173510652099
 20
-1552.1727238711
 30
0.0
 11
-272.5173510652099
 21
-1555.6727238711
 31
0.0
  0
LINE
  5
213
330
39
100
AcDbEntity
  8
1
  6
Continuous
 62
     3
100
AcDbLine
 10
-233.5173510652099
 20
-1556.6727238711
 30
0.0
 11
-232.51735106521
 21
-1556.6727238711
 31
0.0
  0
LINE
  5
214
330
39
100
AcDbEntity
  8
1
  6
Continuous
 62
     3
100
AcDbLine
 10
-230.51735106521
 20
-1552.1727238711
 30
0.0
 11
-232.5173510652099
 21
-1552.1727238711
 31
0.0
  0
LINE
  5
215
330
39
100
AcDbEntity
  8
1
  6
Continuous
 62
     3
100
AcDbLine
 10
-230.51735106521
 20
-1554.6727238711
 30
0.0
 11
-230.51735106521
 21
-1552.1727238711
 31
0.0
  0
LINE
  5
216
330
39
100
AcDbEntity
  8
1
  6
Continuous
 62
     3
100
AcDbLine
 10
-232.5173510652099
 20
-1555.6727238711
 30
0.0
 11
-232.5173510652099
 21
-1552.1727238711
 31
0.0
  0
LINE
  5
217
330
39
100
AcDbEntity
  8
1
  6
Continuous
 62
     3
100
AcDbLine
 10
-271.5173510652099
 20
-1556.6727238711
 30
0.0
 11
-269.5173510652099
 21
-1556.6727238711
 31
0.0
  0
LINE
  5
218
330
39
100
AcDbEntity
  8
1
  6
Continuous
 62
     3
100
AcDbLine
 10
-235.5173510652099
 20
-1556.6727238711
 30
0.0
 11
-233.5173510652099
 21
-1556.6727238711
 31
0.0
  0
LINE
  5
219
330
39
100
AcDbEntity
  8
1
  6
Continuous
 62
     3
100
AcDbLine
 10
-272.5173510652099
 20
-1552.1727238711
 30
0.0
 11
-265.5173510652099
 21
-1552.1727238711
 31
0.0
  0
LINE
  5
21A
330
39
100
AcDbEntity
  8
1
  6
Continuous
 62
     3
100
AcDbLine
 10
-232.5173510652099
 20
-1552.1727238711
 30
0.0
 11
-239.5173510652099
 21
-1552.1727238711
 31
0.0
  0
LINE
  5
21B
330
39
100
AcDbEntity
  8
1
  6
Continuous
 62
     3
100
AcDbLine
 10
-265.5173510652099
 20
-1552.1727238711
 30
0.0
 11
-239.5173510652099
 21
-1552.1727238711
 31
0.0
  0
LINE
  5
21C
330
39
100
AcDbEntity
  8
1
  6
Continuous
 62
     3
100
AcDbLine
 10
-305.0173510652099
 20
-1596.1727238711
 30
0.0
 11
-305.0173510652099
 21
-1652.1727238711
 31
0.0
  0
LINE
  5
21D
330
39
100
AcDbEntity
  8
1
  6
Continuous
 62
     3
100
AcDbLine
 10
-305.0173510652099
 20
-1596.1727238711
 30
0.0
 11
-303.5739753922358
 21
-1593.6727238711
 31
0.0
  0
LINE
  5
21E
330
39
100
AcDbEntity
  8
1
  6
DOT_CENTER
 62
     1
100
AcDbLine
 10
-309.0173510652099
 20
-1624.1727238711
 30
0.0
 11
-190.471167655841
 21
-1624.1727238711
 31
0.0
  0
LINE
  5
21F
330
39
100
AcDbEntity
  8
1
  6
Continuous
 62
     3
100
AcDbLine
 10
-279.9455542954854
 20
-1597.1727238711
 30
0.0
 11
-272.0365723611532
 21
-1597.1727238711
 31
0.0
  0
LINE
  5
220
330
39
100
AcDbEntity
  8
1
  6
Continuous
 62
     3
100
AcDbLine
 10
-303.5739753922358
 20
-1654.6727238711
 30
0.0
 11
-305.0173510652099
 21
-1652.1727238711
 31
0.0
  0
LINE
  5
221
330
39
100
AcDbEntity
  8
1
  6
Continuous
 62
     3
100
AcDbLine
 10
-286.5173510652099
 20
-1654.6727238711
 30
0.0
 11
-303.5739753922358
 21
-1654.6727238711
 31
0.0
  0
LINE
  5
222
330
39
100
AcDbEntity
  8
1
  6
Continuous
 62
     3
100
AcDbLine
 10
-287.347478084132
 20
-1593.6727238711
 30
0.0
 11
-282.4455542954854
 21
-1596.502850890022
 31
0.0
  0
LINE
  5
223
330
39
100
AcDbEntity
  8
1
  6
Continuous
 62
     3
100
AcDbLine
 10
-303.5739753922358
 20
-1593.6727238711
 30
0.0
 11
-287.347478084132
 21
-1593.6727238711
 31
0.0
  0
LINE
  5
224
330
39
100
AcDbEntity
  8
1
  6
Continuous
 62
     3
100
AcDbLine
 10
-240.5173510652099
 20
-1567.636825486238
 30
0.0
 11
-240.51735106521
 21
-1589.1727238711
 31
0.0
  0
LINE
  5
225
330
39
100
AcDbEntity
  8
1
  6
Continuous
 62
     3
100
AcDbLine
 10
-264.5173510652099
 20
-1567.636825486238
 30
0.0
 11
-264.5173510652098
 21
-1591.435175305667
 31
0.0
  0
LINE
  5
226
330
39
100
AcDbEntity
  8
1
  6
DOT_CENTER
 62
     1
100
AcDbLine
 10
-378.7385756981179
 20
-1548.1727238711
 30
0.0
 11
-378.7385756981179
 21
-1657.6727238711
 31
0.0
  0
LINE
  5
227
330
39
100
AcDbEntity
  8
1
  6
Continuous
 62
     3
100
AcDbLine
 10
-406.7385756981179
 20
-1636.266110493548
 30
0.0
 11
-406.7385756981179
 21
-1612.079337248652
 31
0.0
  0
LINE
  5
228
330
39
100
AcDbEntity
  8
1
  6
Continuous
 62
     3
100
AcDbLine
 10
-382.2653956652912
 20
-1654.468128488288
 30
0.0
 11
-403.2117557309446
 21
-1642.37474186584
 31
0.0
  0
LINE
  5
229
330
39
100
AcDbEntity
  8
1
  6
Continuous
 62
     3
100
AcDbLine
 10
-354.2653956652912
 20
-1642.37474186584
 30
0.0
 11
-375.2117557309446
 21
-1654.468128488288
 31
0.0
  0
LINE
  5
22A
330
39
100
AcDbEntity
  8
1
  6
Continuous
 62
     3
100
AcDbLine
 10
-350.7385756981179
 20
-1612.079337248652
 30
0.0
 11
-350.7385756981178
 21
-1624.1727238711
 31
0.0
  0
LINE
  5
22B
330
39
100
AcDbEntity
  8
1
  6
Continuous
 62
     3
100
AcDbLine
 10
-375.2117557309446
 20
-1593.877319253912
 30
0.0
 11
-354.2653956652911
 21
-1605.97070587636
 31
0.0
  0
LINE
  5
22C
330
39
100
AcDbEntity
  8
1
  6
Continuous
 62
     3
100
AcDbLine
 10
-403.2117557309446
 20
-1605.97070587636
 30
0.0
 11
-382.2653956652912
 21
-1593.877319253912
 31
0.0
  0
LINE
  5
22D
330
39
100
AcDbEntity
  8
1
  6
Continuous
 62
     3
100
AcDbLine
 10
-350.7385756981178
 20
-1624.1727238711
 30
0.0
 11
-350.7385756981179
 21
-1636.266110493548
 31
0.0
  0
LINE
  5
22E
330
39
100
AcDbEntity
  8
1
  6
Continuous
 62
     3
100
AcDbLine
 10
-281.4455542954854
 20
-1651.842596852178
 30
0.0
 11
-286.347478084132
 21
-1654.6727238711
 31
0.0
  0
LINE
  5
22F
330
39
100
AcDbEntity
  8
1
  6
Continuous
 62
     3
100
AcDbLine
 10
-272.0365723611531
 20
-1651.1727238711
 30
0.0
 11
-278.9455542954854
 21
-1651.1727238711
 31
0.0
  0
LINE
  5
230
330
39
100
AcDbEntity
  8
1
  6
Continuous
 62
     3
100
AcDbLine
 10
-221.51735106521
 20
-1655.1727238711
 30
0.0
 11
-225.51735106521
 21
-1655.1727238711
 31
0.0
  0
LINE
  5
231
330
39
100
AcDbEntity
  8
1
  6
Continuous
 62
     3
100
AcDbLine
 10
-225.51735106521
 20
-1655.1727238711
 30
0.0
 11
-226.51735106521
 21
-1654.1727238711
 31
0.0
  0
LINE
  5
232
330
39
100
AcDbEntity
  8
1
  6
Continuous
 62
     3
100
AcDbLine
 10
-225.5173510652099
 20
-1593.1727238711
 30
0.0
 11
-221.51735106521
 21
-1593.1727238711
 31
0.0
  0
LINE
  5
233
330
39
100
AcDbEntity
  8
1
  6
Continuous
 62
     3
100
AcDbLine
 10
-226.5173510652099
 20
-1594.1727238711
 30
0.0
 11
-225.5173510652099
 21
-1593.1727238711
 31
0.0
  0
LINE
  5
234
330
39
100
AcDbEntity
  8
1
  6
DOT_CENTER
 62
     1
100
AcDbLine
 10
-252.5173510652099
 20
-1658.1727238711
 30
0.0
 11
-252.5173510652099
 21
-1548.1727238711
 31
0.0
  0
LINE
  5
235
330
39
100
AcDbEntity
  8
1
  6
Continuous
 62
     3
100
AcDbLine
 10
-264.8188879612803
 20
-1580.001189684186
 30
0.0
 11
-269.8713898691206
 21
-1593.882824587728
 31
0.0
  0
LINE
  5
236
330
39
100
AcDbEntity
  8
1
  6
Continuous
 62
     3
100
AcDbLine
 10
-231.5567598601683
 20
-1594.1727238711
 30
0.0
 11
-235.5567598601683
 21
-1594.1727238711
 31
0.0
  0
LINE
  5
237
330
39
100
AcDbEntity
  8
1
  6
Continuous
 62
     3
100
AcDbLine
 10
-240.2158141691395
 20
-1580.001189684186
 30
0.0
 11
-236.255222964098
 21
-1590.882824587728
 31
0.0
  0
LINE
  5
238
330
39
100
AcDbEntity
  8
1
  6
Continuous
 62
     3
100
AcDbLine
 10
-226.51735106521
 20
-1654.1727238711
 30
0.0
 11
-252.5173510652099
 21
-1654.1727238711
 31
0.0
  0
LINE
  5
239
330
39
100
AcDbEntity
  8
1
  6
Continuous
 62
     3
100
AcDbLine
 10
-231.5567598601683
 20
-1594.1727238711
 30
0.0
 11
-226.5173510652099
 21
-1594.1727238711
 31
0.0
  0
ARC
  5
23A
330
39
100
AcDbEntity
  8
1
  6
Continuous
 62
     3
100
AcDbCircle
 10
-14.37821466813688
 20
-1654.1727238711
 30
0.0
 40
59.99999999999988
100
AcDbArc
 50
72.52463485349837
 51
74.83863139338961
  0
ARC
  5
23B
330
39
100
AcDbEntity
  8
1
  6
Continuous
 62
     3
100
AcDbCircle
 10
-14.37821466813688
 20
-1594.1727238711
 30
0.0
 40
60.0
100
AcDbArc
 50
-90.0
 51
-72.52463485349841
  0
ARC
  5
23C
330
39
100
AcDbEntity
  8
1
  6
Continuous
 62
     3
100
AcDbCircle
 10
22.10375087021683
 20
-1598.441641649611
 30
0.0
 40
7.999999999997147
100
AcDbArc
 50
176.1520816518517
 51
-105.1912563765455
  0
ARC
  5
23D
330
39
100
AcDbEntity
  8
1
  6
Continuous
 62
     3
100
AcDbCircle
 10
44.62178533186315
 20
-1624.1727238711
 30
0.0
 40
30.50000000000008
100
AcDbArc
 50
143.8066170998974
 51
180.0
  0
ARC
  5
23E
330
39
100
AcDbEntity
  8
1
  6
Continuous
 62
     3
100
AcDbCircle
 10
44.62178533186315
 20
-1624.1727238711
 30
0.0
 40
30.5
100
AcDbArc
 50
180.0
 51
-143.8066170998974
  0
ARC
  5
23F
330
39
100
AcDbEntity
  8
1
  6
Continuous
 62
     3
100
AcDbCircle
 10
22.10375087021683
 20
-1649.903806092589
 30
0.0
 40
7.999999999996969
100
AcDbArc
 50
105.1912563764689
 51
-176.1520816518533
  0
ARC
  5
240
330
39
100
AcDbEntity
  8
1
  6
Continuous
 62
     3
100
AcDbCircle
 10
7.62178533186315
 20
-1624.1727238711
 30
0.0
 40
30.5
100
AcDbArc
 50
0.0
 51
36.19338290010265
  0
ARC
  5
241
330
39
100
AcDbEntity
  8
1
  6
Continuous
 62
     3
100
AcDbCircle
 10
30.13981979350947
 20
-1598.441641649611
 30
0.0
 40
7.999999999999873
100
AcDbArc
 50
-74.80874362345453
 51
3.84791834814835
  0
ARC
  5
242
330
39
100
AcDbEntity
  8
1
  6
Continuous
 62
     3
100
AcDbCircle
 10
30.13981979350947
 20
-1649.903806092589
 30
0.0
 40
7.99999999999713
100
AcDbArc
 50
-3.84791834814673
 51
74.80874362353114
  0
ARC
  5
243
330
39
100
AcDbEntity
  8
1
  6
Continuous
 62
     3
100
AcDbCircle
 10
7.62178533186315
 20
-1624.1727238711
 30
0.0
 40
30.50000000000008
100
AcDbArc
 50
-36.19338290010265
 51
0.0
  0
ARC
  5
244
330
39
100
AcDbEntity
  8
1
  6
Continuous
 62
     3
100
AcDbCircle
 10
-118.5173510652099
 20
-1593.578606789543
 30
0.0
 40
5.0
100
AcDbArc
 50
180.0
 51
-156.8232045781837
  0
ARC
  5
245
330
39
100
AcDbEntity
  8
1
  6
Continuous
 62
     3
100
AcDbCircle
 10
-118.5173510652099
 20
-1593.578606789543
 30
0.0
 40
5.000000000000232
100
AcDbArc
 50
-156.8232045781837
 51
-153.398305183538
  0
ARC
  5
246
330
39
100
AcDbEntity
  8
1
  6
Continuous
 62
     3
100
AcDbCircle
 10
-152.5173510652098
 20
-1593.578606789543
 30
0.0
 40
4.999999999999956
100
AcDbArc
 50
-26.60169481646204
 51
0.0
  0
ARC
  5
247
330
39
100
AcDbEntity
  8
1
  6
Continuous
 62
     3
100
AcDbCircle
 10
-378.7385756981179
 20
-1624.1727238711
 30
0.0
 40
30.00000000000021
100
AcDbArc
 50
98.96053021868327
 51
119.05928106804
  0
ARC
  5
248
330
39
100
AcDbEntity
  8
1
  6
Continuous
 62
     3
100
AcDbCircle
 10
-395.7385756981178
 20
-1593.578606789543
 30
0.0
 40
4.999999999999816
100
AcDbArc
 50
-60.94071893195885
 51
0.0
  0
ARC
  5
249
330
39
100
AcDbEntity
  8
1
  6
Continuous
 62
     3
100
AcDbCircle
 10
-378.7385756981179
 20
-1624.1727238711
 30
0.0
 40
29.99999999999992
100
AcDbArc
 50
38.9605302186838
 51
60.94071893195985
  0
ARC
  5
24A
330
39
100
AcDbEntity
  8
1
  6
Continuous
 62
     3
100
AcDbCircle
 10
-361.7385756981179
 20
-1593.578606789543
 30
0.0
 40
5.0
100
AcDbArc
 50
180.0
 51
-119.0592810680412
  0
ARC
  5
24B
330
39
100
AcDbEntity
  8
1
  6
Continuous
 62
     3
100
AcDbCircle
 10
-378.7385756981179
 20
-1624.1727238711
 30
0.0
 40
29.99999999999973
100
AcDbArc
 50
-141.0394697813187
 51
-98.9605302186821
  0
ARC
  5
24C
330
39
100
AcDbEntity
  8
1
  6
Continuous
 62
     3
100
AcDbCircle
 10
-378.7385756981179
 20
-1624.1727238711
 30
0.0
 40
30.00000000000014
100
AcDbArc
 50
-81.03946978131759
 51
-38.96053021868298
  0
ARC
  5
24D
330
39
100
AcDbEntity
  8
1
  6
Continuous
 62
     3
100
AcDbCircle
 10
-378.7385756981179
 20
-1624.1727238711
 30
0.0
 40
30.00000000000001
100
AcDbArc
 50
-21.03946978131728
 51
21.03946978131728
  0
ARC
  5
24E
330
39
100
AcDbEntity
  8
1
  6
Continuous
 62
     3
100
AcDbCircle
 10
-378.7385756981179
 20
-1624.1727238711
 30
0.0
 40
30.0
100
AcDbArc
 50
180.0
 51
-158.9605302186827
  0
ARC
  5
24F
330
39
100
AcDbEntity
  8
1
  6
Continuous
 62
     3
100
AcDbCircle
 10
-378.7385756981179
 20
-1624.1727238711
 30
0.0
 40
30.00000000000037
100
AcDbArc
 50
119.05928106804
 51
142.0606120803404
  0
ARC
  5
250
330
39
100
AcDbEntity
  8
1
  6
Continuous
 62
     3
100
AcDbCircle
 10
-378.7385756981179
 20
-1624.1727238711
 30
0.0
 40
30.00000000000001
100
AcDbArc
 50
158.9605302186827
 51
180.0
  0
ARC
  5
251
330
39
100
AcDbEntity
  8
1
  6
Continuous
 62
     3
100
AcDbCircle
 10
-378.7385756981179
 20
-1624.1727238711
 30
0.0
 40
30.00000000000043
100
AcDbArc
 50
60.94071893195985
 51
81.03946978131663
  0
ARC
  5
252
330
39
100
AcDbEntity
  8
1
  6
Continuous
 62
     3
100
AcDbCircle
 10
-274.5173510652099
 20
-1624.1727238711
 30
0.0
 40
30.5
100
AcDbArc
 50
180.0
 51
-143.8066170998975
  0
ARC
  5
253
330
39
100
AcDbEntity
  8
1
  6
Continuous
 62
     3
100
AcDbCircle
 10
-297.0353855268563
 20
-1649.903806092589
 30
0.0
 40
7.999999999996968
100
AcDbArc
 50
105.1912563764688
 51
-176.1520816518532
  0
ARC
  5
254
330
39
100
AcDbEntity
  8
1
  6
Continuous
 62
     3
100
AcDbCircle
 10
-297.0353855268563
 20
-1598.441641649611
 30
0.0
 40
7.999999999997029
100
AcDbArc
 50
176.1520816518516
 51
-105.1912563765455
  0
ARC
  5
255
330
39
100
AcDbEntity
  8
1
  6
Continuous
 62
     3
100
AcDbCircle
 10
-274.5173510652099
 20
-1624.1727238711
 30
0.0
 40
30.50000000000017
100
AcDbArc
 50
143.8066170998975
 51
180.0
  0
ARC
  5
256
330
39
100
AcDbEntity
  8
1
  6
Continuous
 62
     3
100
AcDbCircle
 10
-288.9993166035636
 20
-1649.903806092589
 30
0.0
 40
7.999999999997184
100
AcDbArc
 50
-3.8479183481467
 51
74.80874362353117
  0
ARC
  5
257
330
39
100
AcDbEntity
  8
1
  6
Continuous
 62
     3
100
AcDbCircle
 10
-311.5173510652099
 20
-1624.1727238711
 30
0.0
 40
30.50000000000003
100
AcDbArc
 50
-36.19338290010271
 51
0.0
  0
ARC
  5
258
330
39
100
AcDbEntity
  8
1
  6
Continuous
 62
     3
100
AcDbCircle
 10
-311.5173510652099
 20
-1624.1727238711
 30
0.0
 40
30.5
100
AcDbArc
 50
0.0
 51
36.19338290010271
  0
ARC
  5
259
330
39
100
AcDbEntity
  8
1
  6
Continuous
 62
     3
100
AcDbCircle
 10
-288.9993166035636
 20
-1598.441641649611
 30
0.0
 40
7.999999999999872
100
AcDbArc
 50
-74.80874362345456
 51
3.84791834814833
  0
ARC
  5
25A
330
39
100
AcDbEntity
  8
1
  6
Continuous
 62
     3
100
AcDbCircle
 10
-378.7385756981179
 20
-1624.1727238711
 30
0.0
 40
30.49999999999984
100
AcDbArc
 50
143.3598376750192
 51
156.6401623249809
  0
ARC
  5
25B
330
39
100
AcDbEntity
  8
1
  6
Continuous
 62
     3
100
AcDbCircle
 10
-378.7385756981179
 20
-1624.1727238711
 30
0.0
 40
30.50000000000005
100
AcDbArc
 50
-156.6401623249809
 51
-143.3598376750196
  0
ARC
  5
25C
330
39
100
AcDbEntity
  8
1
  6
Continuous
 62
     3
100
AcDbCircle
 10
-378.7385756981179
 20
-1624.1727238711
 30
0.0
 40
30.49999999999965
100
AcDbArc
 50
-96.64016232498113
 51
-83.35983767501877
  0
ARC
  5
25D
330
39
100
AcDbEntity
  8
1
  6
Continuous
 62
     3
100
AcDbCircle
 10
-378.7385756981179
 20
-1624.1727238711
 30
0.0
 40
30.49999999999975
100
AcDbArc
 50
-36.64016232498037
 51
-23.35983767501908
  0
ARC
  5
25E
330
39
100
AcDbEntity
  8
1
  6
Continuous
 62
     3
100
AcDbCircle
 10
-378.7385756981179
 20
-1624.1727238711
 30
0.0
 40
30.50000000000005
100
AcDbArc
 50
23.35983767501908
 51
36.64016232498064
  0
ARC
  5
25F
330
39
100
AcDbEntity
  8
1
  6
Continuous
 62
     3
100
AcDbCircle
 10
-378.7385756981179
 20
-1624.1727238711
 30
0.0
 40
30.49999999999988
100
AcDbArc
 50
83.35983767501881
 51
96.64016232498109
  0
ARC
  5
260
330
39
100
AcDbEntity
  8
1
  6
Continuous
 62
     3
100
AcDbCircle
 10
-252.5173510652099
 20
-1594.1727238711
 30
0.0
 40
59.99999999999963
100
AcDbArc
 50
-107.4753651465016
 51
-90.0
  0
ARC
  5
261
330
39
100
AcDbEntity
  8
1
  6
Continuous
 62
     3
100
AcDbCircle
 10
-252.5173510652099
 20
-1654.1727238711
 30
0.0
 40
59.99999999999955
100
AcDbArc
 50
105.1613686066105
 51
107.4753651465016
  0
CIRCLE
  5
262
330
39
100
AcDbEntity
  8
1
  6
Continuous
 62
     3
100
AcDbCircle
 10
-378.7385756981179
 20
-1624.1727238711
 30
0.0
 40
22.40000000000003
  0
CIRCLE
  5
263
330
39
100
AcDbEntity
  8
1
  6
Continuous
 62
     1
100
AcDbCircle
 10
-378.7385756981179
 20
-1624.1727238711
 30
0.0
 40
23.80000000000001
  0
CIRCLE
  5
264
330
39
100
AcDbEntity
  8
1
  6
Continuous
 62
     3
100
AcDbCircle
 10
-378.7385756981179
 20
-1624.1727238711
 30
0.0
 40
28.00000000000011
  0
ARC
  5
265
330
39
100
AcDbEntity
  8
1
  6
Continuous
 62
     3
100
AcDbCircle
 10
5.14100662780638
 20
-1592.1727238711
 30
0.0
 40
5.000000000000154
100
AcDbArc
 50
-107.4753651465003
 51
-90.0
  0
ARC
  5
266
330
39
100
AcDbEntity
  8
1
  6
Continuous
 62
     3
100
AcDbCircle
 10
-31.37821466813682
 20
-1589.1727238711
 30
0.0
 40
5.0
100
AcDbArc
 50
-90.0
 51
0.0
  0
ARC
  5
267
330
39
100
AcDbEntity
  8
1
  6
Continuous
 62
     3
100
AcDbCircle
 10
2.62178533186304
 20
-1591.435175305667
 30
0.0
 40
5.000000000000001
100
AcDbArc
 50
180.0
 51
-105.1613686066064
  0
ARC
  5
268
330
39
100
AcDbEntity
  8
1
  6
Continuous
 62
     3
100
AcDbCircle
 10
5.14100662780626
 20
-1656.1727238711
 30
0.0
 40
5.0
100
AcDbArc
 50
90.0
 51
107.4753651464995
  0
ARC
  5
269
330
39
100
AcDbEntity
  8
1
  6
Continuous
 62
     3
100
AcDbCircle
 10
-31.37821466813679
 20
-1578.291088967558
 30
0.0
 40
4.999999999999901
100
AcDbArc
 50
-19.99999999999837
 51
0.0
  0
ARC
  5
26A
330
39
100
AcDbEntity
  8
1
  6
Continuous
 62
     3
100
AcDbCircle
 10
-35.33880587317844
 20
-1589.1727238711
 30
0.0
 40
5.0
100
AcDbArc
 50
-90.0
 51
-19.99999999999549
  0
ARC
  5
26B
330
39
100
AcDbEntity
  8
1
  6
Continuous
 62
     3
100
AcDbCircle
 10
7.67428723970326
 20
-1592.1727238711
 30
0.0
 40
4.999999999999824
100
AcDbArc
 50
-160.0000000000041
 51
-90.0
  0
ARC
  5
26C
330
39
100
AcDbEntity
  8
1
  6
Continuous
 62
     3
100
AcDbCircle
 10
2.62178533186304
 20
-1578.291088967558
 30
0.0
 40
5.000000000000001
100
AcDbArc
 50
180.0
 51
-160.0000000000015
  0
ARC
  5
26D
330
39
100
AcDbEntity
  8
1
  6
Continuous
 62
     3
100
AcDbCircle
 10
-45.37821466813682
 20
-1595.1727238711
 30
0.0
 40
2.0
100
AcDbArc
 50
90.0
 51
119.9999999999973
  0
ARC
  5
26E
330
39
100
AcDbEntity
  8
1
  6
Continuous
 62
     3
100
AcDbCircle
 10
-45.37821466813682
 20
-1653.1727238711
 30
0.0
 40
1.999999999999967
100
AcDbArc
 50
-120.0000000000006
 51
-90.0
  0
ARC
  5
26F
330
39
100
AcDbEntity
  8
1
  6
Continuous
 62
     3
100
AcDbCircle
 10
12.04998856213862
 20
-1656.1727238711
 30
0.0
 40
4.99999999999982
100
AcDbArc
 50
59.99999999999881
 51
90.0
  0
ARC
  5
270
330
39
100
AcDbEntity
  8
1
  6
Continuous
 62
     3
100
AcDbCircle
 10
13.04998856213862
 20
-1592.1727238711
 30
0.0
 40
5.0
100
AcDbArc
 50
-90.0
 51
-59.99999999999881
  0
ARC
  5
271
330
39
100
AcDbEntity
  8
1
  6
Continuous
 62
     3
100
AcDbCircle
 10
-33.37821466813691
 20
-1555.6727238711
 30
0.0
 40
1.0
100
AcDbArc
 50
180.0
 51
-90.0
  0
ARC
  5
272
330
39
100
AcDbEntity
  8
1
  6
Continuous
 62
     3
100
AcDbCircle
 10
-34.37821466813682
 20
-1554.6727238711
 30
0.0
 40
2.0
100
AcDbArc
 50
180.0
 51
-90.0
  0
ARC
  5
273
330
39
100
AcDbEntity
  8
1
  6
Continuous
 62
     3
100
AcDbCircle
 10
4.62178533186315
 20
-1555.6727238711
 30
0.0
 40
1.0
100
AcDbArc
 50
-90.00000000000163
 51
0.0
  0
ARC
  5
274
330
39
100
AcDbEntity
  8
1
  6
Continuous
 62
     3
100
AcDbCircle
 10
-0.37821466813682
 20
-1567.636825486238
 30
0.0
 40
2.000000000000164
100
AcDbArc
 50
119.9999999999973
 51
180.0
  0
ARC
  5
275
330
39
100
AcDbEntity
  8
1
  6
Continuous
 62
     3
100
AcDbCircle
 10
-2.37821466813688
 20
-1564.1727238711
 30
0.0
 40
1.999999999999996
100
AcDbArc
 50
-59.99999999999804
 51
0.0
  0
ARC
  5
276
330
39
100
AcDbEntity
  8
1
  6
Continuous
 62
     3
100
AcDbCircle
 10
2.62178533186312
 20
-1559.6727238711
 30
0.0
 40
3.0
100
AcDbArc
 50
90.0
 51
180.0
  0
ARC
  5
277
330
39
100
AcDbEntity
  8
1
  6
Continuous
 62
     3
100
AcDbCircle
 10
-28.37821466813693
 20
-1567.636825486238
 30
0.0
 40
2.000000000000021
100
AcDbArc
 50
0.0
 51
60.00000000000218
  0
ARC
  5
278
330
39
100
AcDbEntity
  8
1
  6
Continuous
 62
     3
100
AcDbCircle
 10
-26.37821466813688
 20
-1564.1727238711
 30
0.0
 40
2.000000000000028
100
AcDbArc
 50
180.0
 51
-120.0000000000013
  0
ARC
  5
279
330
39
100
AcDbEntity
  8
1
  6
Continuous
 62
     3
100
AcDbCircle
 10
-31.37821466813688
 20
-1559.6727238711
 30
0.0
 40
2.999999999999972
100
AcDbArc
 50
0.0
 51
90.00000000000054
  0
ARC
  5
27A
330
39
100
AcDbEntity
  8
1
  6
Continuous
 62
     3
100
AcDbCircle
 10
-16.87821466813688
 20
-1580.1727238711
 30
0.0
 40
1.0
100
AcDbArc
 50
0.0
 51
90.0
  0
ARC
  5
27B
330
39
100
AcDbEntity
  8
1
  6
Continuous
 62
     3
100
AcDbCircle
 10
-16.87821466813688
 20
-1593.1727238711
 30
0.0
 40
1.0
100
AcDbArc
 50
-90.0
 51
0.0
  0
ARC
  5
27C
330
39
100
AcDbEntity
  8
1
  6
Continuous
 62
     3
100
AcDbCircle
 10
-11.87821466813688
 20
-1593.1727238711
 30
0.0
 40
1.0
100
AcDbArc
 50
180.0
 51
-90.0
  0
ARC
  5
27D
330
39
100
AcDbEntity
  8
1
  6
Continuous
 62
     3
100
AcDbCircle
 10
-11.87821466813688
 20
-1580.1727238711
 30
0.0
 40
1.0
100
AcDbArc
 50
90.0
 51
180.0
  0
ARC
  5
27E
330
39
100
AcDbEntity
  8
1
  6
Continuous
 62
     3
100
AcDbCircle
 10
-118.5173510652099
 20
-1578.291088967558
 30
0.0
 40
5.0
100
AcDbArc
 50
180.0
 51
-160.0000000000025
  0
ARC
  5
27F
330
39
100
AcDbEntity
  8
1
  6
Continuous
 62
     3
100
AcDbCircle
 10
-152.5173510652099
 20
-1578.291088967558
 30
0.0
 40
5.000000000000008
100
AcDbArc
 50
-19.99999999999792
 51
0.0
  0
ARC
  5
280
330
39
100
AcDbEntity
  8
1
  6
Continuous
 62
     3
100
AcDbCircle
 10
-118.5173510652099
 20
-1559.6727238711
 30
0.0
 40
3.0
100
AcDbArc
 50
90.0
 51
180.0
  0
ARC
  5
281
330
39
100
AcDbEntity
  8
1
  6
Continuous
 62
     3
100
AcDbCircle
 10
-123.5173510652099
 20
-1564.1727238711
 30
0.0
 40
1.999999999999967
100
AcDbArc
 50
-59.99999999999946
 51
0.0
  0
ARC
  5
282
330
39
100
AcDbEntity
  8
1
  6
Continuous
 62
     3
100
AcDbCircle
 10
-121.5173510652099
 20
-1567.636825486238
 30
0.0
 40
2.000000000000164
100
AcDbArc
 50
119.9999999999973
 51
180.0
  0
ARC
  5
283
330
39
100
AcDbEntity
  8
1
  6
Continuous
 62
     3
100
AcDbCircle
 10
-152.5173510652099
 20
-1559.6727238711
 30
0.0
 40
3.0
100
AcDbArc
 50
0.0
 51
90.0
  0
ARC
  5
284
330
39
100
AcDbEntity
  8
1
  6
Continuous
 62
     3
100
AcDbCircle
 10
-147.5173510652099
 20
-1564.1727238711
 30
0.0
 40
2.0
100
AcDbArc
 50
180.0
 51
-120.0000000000006
  0
ARC
  5
285
330
39
100
AcDbEntity
  8
1
  6
Continuous
 62
     3
100
AcDbCircle
 10
-149.5173510652099
 20
-1567.636825486238
 30
0.0
 40
2.0
100
AcDbArc
 50
0.0
 51
60.00000000000272
  0
ARC
  5
286
330
39
100
AcDbEntity
  8
1
  6
Continuous
 62
     3
100
AcDbCircle
 10
-154.5173510652099
 20
-1555.6727238711
 30
0.0
 40
1.0
100
AcDbArc
 50
180.0
 51
-90.0
  0
ARC
  5
287
330
39
100
AcDbEntity
  8
1
  6
Continuous
 62
     3
100
AcDbCircle
 10
-116.5173510652099
 20
-1555.6727238711
 30
0.0
 40
1.0
100
AcDbArc
 50
-90.0
 51
0.0
  0
ARC
  5
288
330
39
100
AcDbEntity
  8
1
  6
Continuous
 62
     3
100
AcDbCircle
 10
-138.0173510652099
 20
-1580.1727238711
 30
0.0
 40
1.0
100
AcDbArc
 50
0.0
 51
90.0
  0
ARC
  5
289
330
39
100
AcDbEntity
  8
1
  6
Continuous
 62
     3
100
AcDbCircle
 10
-133.0173510652099
 20
-1580.1727238711
 30
0.0
 40
1.0
100
AcDbArc
 50
90.0
 51
180.0
  0
ARC
  5
28A
330
39
100
AcDbEntity
  8
1
  6
Continuous
 62
     3
100
AcDbCircle
 10
-403.3978919233608
 20
-1599.334887344875
 30
0.0
 40
5.000000000000502
100
AcDbArc
 50
-45.20664654196694
 51
-20.00000000000816
  0
ARC
  5
28B
330
39
100
AcDbEntity
  8
1
  6
Continuous
 62
     3
100
AcDbCircle
 10
-395.7385756981179
 20
-1578.291088967558
 30
0.0
 40
5.000000000000008
100
AcDbArc
 50
-19.99999999999792
 51
0.0
  0
ARC
  5
28C
330
39
100
AcDbEntity
  8
1
  6
Continuous
 62
     3
100
AcDbCircle
 10
-354.0792594728748
 20
-1599.334887344875
 30
0.0
 40
5.000000000000373
100
AcDbArc
 50
-159.9999999999925
 51
-134.7933534580345
  0
ARC
  5
28D
330
39
100
AcDbEntity
  8
1
  6
Continuous
 62
     3
100
AcDbCircle
 10
-361.7385756981179
 20
-1578.291088967558
 30
0.0
 40
5.0
100
AcDbArc
 50
180.0
 51
-160.0000000000023
  0
ARC
  5
28E
330
39
100
AcDbEntity
  8
1
  6
Continuous
 62
     3
100
AcDbCircle
 10
-376.2385756981179
 20
-1580.1727238711
 30
0.0
 40
1.0
100
AcDbArc
 50
90.0
 51
180.0
  0
ARC
  5
28F
330
39
100
AcDbEntity
  8
1
  6
Continuous
 62
     3
100
AcDbCircle
 10
-381.2385756981179
 20
-1580.1727238711
 30
0.0
 40
1.0
100
AcDbArc
 50
0.0
 51
90.0
  0
ARC
  5
290
330
39
100
AcDbEntity
  8
1
  6
Continuous
 62
     3
100
AcDbCircle
 10
-359.7385756981179
 20
-1555.6727238711
 30
0.0
 40
1.0
100
AcDbArc
 50
-90.0
 51
0.0
  0
ARC
  5
291
330
39
100
AcDbEntity
  8
1
  6
Continuous
 62
     3
100
AcDbCircle
 10
-397.7385756981179
 20
-1555.6727238711
 30
0.0
 40
1.0
100
AcDbArc
 50
180.0
 51
-90.0
  0
ARC
  5
292
330
39
100
AcDbEntity
  8
1
  6
Continuous
 62
     3
100
AcDbCircle
 10
-392.7385756981179
 20
-1567.636825486238
 30
0.0
 40
2.0
100
AcDbArc
 50
0.0
 51
60.00000000000272
  0
ARC
  5
293
330
39
100
AcDbEntity
  8
1
  6
Continuous
 62
     3
100
AcDbCircle
 10
-390.7385756981179
 20
-1564.1727238711
 30
0.0
 40
2.0
100
AcDbArc
 50
180.0
 51
-120.0000000000006
  0
ARC
  5
294
330
39
100
AcDbEntity
  8
1
  6
Continuous
 62
     3
100
AcDbCircle
 10
-395.7385756981179
 20
-1559.6727238711
 30
0.0
 40
3.0
100
AcDbArc
 50
0.0
 51
90.0
  0
ARC
  5
295
330
39
100
AcDbEntity
  8
1
  6
Continuous
 62
     3
100
AcDbCircle
 10
-364.7385756981178
 20
-1567.636825486238
 30
0.0
 40
2.000000000000164
100
AcDbArc
 50
119.9999999999973
 51
180.0
  0
ARC
  5
296
330
39
100
AcDbEntity
  8
1
  6
Continuous
 62
     3
100
AcDbCircle
 10
-366.7385756981179
 20
-1564.1727238711
 30
0.0
 40
2.000000000000024
100
AcDbArc
 50
-59.99999999999664
 51
0.0
  0
ARC
  5
297
330
39
100
AcDbEntity
  8
1
  6
Continuous
 62
     3
100
AcDbCircle
 10
-361.7385756981179
 20
-1559.6727238711
 30
0.0
 40
3.0
100
AcDbArc
 50
90.0
 51
180.0
  0
ARC
  5
298
330
39
100
AcDbEntity
  8
1
  6
Continuous
 62
     3
100
AcDbCircle
 10
-255.0173510652099
 20
-1580.1727238711
 30
0.0
 40
1.0
100
AcDbArc
 50
0.0
 51
90.0
  0
ARC
  5
299
330
39
100
AcDbEntity
  8
1
  6
Continuous
 62
     3
100
AcDbCircle
 10
-255.0173510652099
 20
-1593.1727238711
 30
0.0
 40
1.0
100
AcDbArc
 50
-90.0
 51
0.0
  0
ARC
  5
29A
330
39
100
AcDbEntity
  8
1
  6
Continuous
 62
     3
100
AcDbCircle
 10
-250.0173510652099
 20
-1593.1727238711
 30
0.0
 40
1.0
100
AcDbArc
 50
180.0
 51
-90.0
  0
ARC
  5
29B
330
39
100
AcDbEntity
  8
1
  6
Continuous
 62
     3
100
AcDbCircle
 10
-250.0173510652099
 20
-1580.1727238711
 30
0.0
 40
1.0
100
AcDbArc
 50
90.0
 51
180.0
  0
ARC
  5
29C
330
39
100
AcDbEntity
  8
1
  6
Continuous
 62
     3
100
AcDbCircle
 10
-254.0018254160454
 20
-1621.171105580691
 30
0.0
 40
3.001618290409169
100
AcDbArc
 50
-90.0
 51
0.0
  0
ARC
  5
29D
330
39
100
AcDbEntity
  8
1
  6
Continuous
 62
     3
100
AcDbCircle
 10
-235.5173510652099
 20
-1559.6727238711
 30
0.0
 40
3.0
100
AcDbArc
 50
90.0
 51
180.0
  0
ARC
  5
29E
330
39
100
AcDbEntity
  8
1
  6
Continuous
 62
     3
100
AcDbCircle
 10
-240.5173510652099
 20
-1564.1727238711
 30
0.0
 40
1.999999999999967
100
AcDbArc
 50
-59.99999999999946
 51
0.0
  0
ARC
  5
29F
330
39
100
AcDbEntity
  8
1
  6
Continuous
 62
     3
100
AcDbCircle
 10
-238.5173510652099
 20
-1567.636825486238
 30
0.0
 40
2.000000000000164
100
AcDbArc
 50
119.9999999999973
 51
180.0
  0
ARC
  5
2A0
330
39
100
AcDbEntity
  8
1
  6
Continuous
 62
     3
100
AcDbCircle
 10
-269.5173510652099
 20
-1559.6727238711
 30
0.0
 40
3.0
100
AcDbArc
 50
0.0
 51
90.0
  0
ARC
  5
2A1
330
39
100
AcDbEntity
  8
1
  6
Continuous
 62
     3
100
AcDbCircle
 10
-264.5173510652099
 20
-1564.1727238711
 30
0.0
 40
2.0
100
AcDbArc
 50
180.0
 51
-120.0000000000006
  0
ARC
  5
2A2
330
39
100
AcDbEntity
  8
1
  6
Continuous
 62
     3
100
AcDbCircle
 10
-266.5173510652099
 20
-1567.636825486238
 30
0.0
 40
2.0
100
AcDbArc
 50
0.0
 51
60.00000000000272
  0
ARC
  5
2A3
330
39
100
AcDbEntity
  8
1
  6
Continuous
 62
     3
100
AcDbCircle
 10
-271.5173510652099
 20
-1555.6727238711
 30
0.0
 40
1.0
100
AcDbArc
 50
180.0
 51
-90.0
  0
ARC
  5
2A4
330
39
100
AcDbEntity
  8
1
  6
Continuous
 62
     3
100
AcDbCircle
 10
-232.51735106521
 20
-1554.6727238711
 30
0.0
 40
2.0
100
AcDbArc
 50
-90.0
 51
0.0
  0
ARC
  5
2A5
330
39
100
AcDbEntity
  8
1
  6
Continuous
 62
     3
100
AcDbCircle
 10
-233.5173510652099
 20
-1555.6727238711
 30
0.0
 40
1.0
100
AcDbArc
 50
-90.0
 51
0.0
  0
ARC
  5
2A6
330
39
100
AcDbEntity
  8
1
  6
Continuous
 62
     3
100
AcDbCircle
 10
-279.9455542954854
 20
-1592.1727238711
 30
0.0
 40
4.99999999999982
100
AcDbArc
 50
-120.0000000000012
 51
-90.0
  0
ARC
  5
2A7
330
39
100
AcDbEntity
  8
1
  6
Continuous
 62
     3
100
AcDbCircle
 10
-278.9455542954854
 20
-1656.1727238711
 30
0.0
 40
5.0
100
AcDbArc
 50
90.0
 51
120.0000000000012
  0
ARC
  5
2A8
330
39
100
AcDbEntity
  8
1
  6
Continuous
 62
     3
100
AcDbCircle
 10
-221.51735106521
 20
-1653.1727238711
 30
0.0
 40
2.0
100
AcDbArc
 50
-90.0
 51
-59.99999999999946
  0
ARC
  5
2A9
330
39
100
AcDbEntity
  8
1
  6
Continuous
 62
     3
100
AcDbCircle
 10
-221.51735106521
 20
-1595.1727238711
 30
0.0
 40
2.000000000000164
100
AcDbArc
 50
60.00000000000272
 51
90.0
  0
ARC
  5
2AA
330
39
100
AcDbEntity
  8
1
  6
Continuous
 62
     3
100
AcDbCircle
 10
-269.5173510652098
 20
-1578.291088967558
 30
0.0
 40
4.999999999999901
100
AcDbArc
 50
-19.99999999999837
 51
0.0
  0
ARC
  5
2AB
330
39
100
AcDbEntity
  8
1
  6
Continuous
 62
     3
100
AcDbCircle
 10
-274.5698529730501
 20
-1592.1727238711
 30
0.0
 40
5.0
100
AcDbArc
 50
-90.0
 51
-19.99999999999592
  0
ARC
  5
2AC
330
39
100
AcDbEntity
  8
1
  6
Continuous
 62
     3
100
AcDbCircle
 10
-231.5567598601683
 20
-1589.1727238711
 30
0.0
 40
5.000000000000011
100
AcDbArc
 50
-160.0000000000049
 51
-90.0
  0
ARC
  5
2AD
330
39
100
AcDbEntity
  8
1
  6
Continuous
 62
     3
100
AcDbCircle
 10
-235.51735106521
 20
-1578.291088967558
 30
0.0
 40
5.0
100
AcDbArc
 50
180.0
 51
-160.0000000000017
  0
ARC
  5
2AE
330
39
100
AcDbEntity
  8
1
  6
Continuous
 62
     3
100
AcDbCircle
 10
-272.0365723611531
 20
-1656.1727238711
 30
0.0
 40
5.000000000000387
100
AcDbArc
 50
72.52463485349983
 51
90.0
  0
ARC
  5
2AF
330
39
100
AcDbEntity
  8
1
  6
Continuous
 62
     3
100
AcDbCircle
 10
-269.5173510652098
 20
-1591.435175305667
 30
0.0
 40
5.000000000001069
100
AcDbArc
 50
-74.8386313933942
 51
0.0
  0
ARC
  5
2B0
330
39
100
AcDbEntity
  8
1
  6
Continuous
 62
     3
100
AcDbCircle
 10
-235.51735106521
 20
-1589.1727238711
 30
0.0
 40
5.0
100
AcDbArc
 50
180.0
 51
-90.0
  0
ARC
  5
2B1
330
39
100
AcDbEntity
  8
1
  6
Continuous
 62
     3
100
AcDbCircle
 10
-272.0365723611532
 20
-1592.1727238711
 30
0.0
 40
5.0
100
AcDbArc
 50
-90.0
 51
-72.52463485349905
  0
TEXT
  5
2B3
330
39
100
AcDbEntity
  8
1
 62
     1
100
AcDbText
 10
-36.92254648627284
 20
-1626.699314962011
 30
0.0
 40
4.8
  1
VY5302A004X
 41
0.855
  7
CONVERTER_1
100
AcDbText
  0
ENDBLK
  5
3B
330
39
100
AcDbEntity
  8
0
100
AcDbBlockEnd
  0
BLOCK
  5
3D
330
3C
100
AcDbEntity
  8
0
100
AcDbBlockBegin
  2
_3
 70
     0
 71
     0
 10
-338.0173510652099
 20
-589.479631922478
 30
0.0
  3
_3
  1

  0
LINE
  5
2B4
330
3C
100
AcDbEntity
  8
1
  6
Continuous
 62
     3
100
AcDbLine
 10
-247.7673510652099
 20
-1464.55100762926
 30
0.0
 11
-247.7673510652099
 21
-1469.216727203914
 31
0.0
  0
LINE
  5
2B5
330
3C
100
AcDbEntity
  8
1
  6
DOT_CENTER
 62
     1
100
AcDbLine
 10
-242.91735106521
 20
-1465.55100762926
 30
0.0
 11
-262.11735106521
 21
-1465.55100762926
 31
0.0
  0
LINE
  5
2B6
330
3C
100
AcDbEntity
  8
1
  6
Continuous
 62
     3
100
AcDbLine
 10
-257.2673510652099
 20
-1469.216727203914
 30
0.0
 11
-257.2673510652099
 21
-1461.885288054606
 31
0.0
  0
LINE
  5
2B7
330
3C
100
AcDbEntity
  8
1
  6
Continuous
 62
     3
100
AcDbLine
 10
-247.7673510652099
 20
-1461.885288054606
 30
0.0
 11
-247.7673510652099
 21
-1464.55100762926
 31
0.0
  0
LINE
  5
2B8
330
3C
100
AcDbEntity
  8
1
  6
Continuous
 62
     3
100
AcDbLine
 10
-248.8516314905561
 20
-1470.30100762926
 30
0.0
 11
-256.1830706398637
 21
-1470.30100762926
 31
0.0
  0
LINE
  5
2B9
330
3C
100
AcDbEntity
  8
1
  6
Continuous
 62
     3
100
AcDbLine
 10
-256.1830706398637
 20
-1460.80100762926
 30
0.0
 11
-248.8516314905561
 21
-1460.80100762926
 31
0.0
  0
LINE
  5
2BA
330
3C
100
AcDbEntity
  8
1
  6
DOT_CENTER
 62
     1
100
AcDbLine
 10
-252.5173510652099
 20
-1456.55100762926
 30
0.0
 11
-252.5173510652099
 21
-1474.55100762926
 31
0.0
  0
LINE
  5
2BB
330
3C
100
AcDbEntity
  8
1
  6
Continuous
 62
     3
100
AcDbLine
 10
-140.2673510652099
 20
-1537.1727238711
 30
0.0
 11
-140.2673510652097
 21
-1528.6727238711
 31
0.0
  0
LINE
  5
2BC
330
3C
100
AcDbEntity
  8
1
  6
Continuous
 62
     3
100
AcDbLine
 10
-129.5173510652099
 20
-1537.1727238711
 30
0.0
 11
-130.7673510652099
 21
-1537.1727238711
 31
0.0
  0
LINE
  5
2BD
330
3C
100
AcDbEntity
  8
1
  6
Continuous
 62
     3
100
AcDbLine
 10
-139.1830706398637
 20
-1537.1727238711
 30
0.0
 11
-140.2673510652099
 21
-1537.1727238711
 31
0.0
  0
LINE
  5
2BE
330
3C
100
AcDbEntity
  8
1
  6
Continuous
 62
     3
100
AcDbLine
 10
-140.2673510652099
 20
-1537.1727238711
 30
0.0
 11
-141.5173510652097
 21
-1537.1727238711
 31
0.0
  0
LINE
  5
2BF
330
3C
100
AcDbEntity
  8
1
  6
Continuous
 62
     3
100
AcDbLine
 10
-140.2673510652099
 20
-1528.1827238711
 30
0.0
 11
-140.2673510652099
 21
-1527.461399005695
 31
0.0
  0
LINE
  5
2C0
330
3C
100
AcDbEntity
  8
1
  6
Continuous
 62
     3
100
AcDbLine
 10
-131.2673510652099
 20
-1527.1727238711
 30
0.0
 11
-139.7673510652099
 21
-1527.1727238711
 31
0.0
  0
LINE
  5
2C1
330
3C
100
AcDbEntity
  8
1
  6
Continuous
 62
     3
100
AcDbLine
 10
-139.1830706398637
 20
-1528.1827238711
 30
0.0
 11
-139.1830706398637
 21
-1537.1727238711
 31
0.0
  0
LINE
  5
2C2
330
3C
100
AcDbEntity
  8
1
  6
Continuous
 62
     3
100
AcDbLine
 10
-130.7673510652099
 20
-1528.1827238711
 30
0.0
 11
-130.7673510652099
 21
-1537.1727238711
 31
0.0
  0
LINE
  5
2C3
330
3C
100
AcDbEntity
  8
1
  6
Continuous
 62
     3
100
AcDbLine
 10
-139.7673510652099
 20
-1527.1727238711
 30
0.0
 11
-140.2673510652099
 21
-1527.461399005695
 31
0.0
  0
LINE
  5
2C4
330
3C
100
AcDbEntity
  8
1
  6
Continuous
 62
     3
100
AcDbLine
 10
-130.7673510652097
 20
-1527.461399005695
 30
0.0
 11
-131.2673510652099
 21
-1527.1727238711
 31
0.0
  0
LINE
  5
2C5
330
3C
100
AcDbEntity
  8
1
  6
Continuous
 62
     3
100
AcDbLine
 10
-130.7673510652099
 20
-1528.1827238711
 30
0.0
 11
-131.8516314905561
 21
-1528.1827238711
 31
0.0
  0
LINE
  5
2C6
330
3C
100
AcDbEntity
  8
1
  6
Continuous
 62
     3
100
AcDbLine
 10
-131.8516314905561
 20
-1537.1727238711
 30
0.0
 11
-131.8516314905561
 21
-1528.1827238711
 31
0.0
  0
LINE
  5
2C7
330
3C
100
AcDbEntity
  8
1
  6
Continuous
 62
     3
100
AcDbLine
 10
-130.7673510652097
 20
-1527.461399005695
 30
0.0
 11
-130.7673510652099
 21
-1528.1827238711
 31
0.0
  0
LINE
  5
2C8
330
3C
100
AcDbEntity
  8
1
  6
Continuous
 62
     3
100
AcDbLine
 10
-139.1830706398637
 20
-1528.1827238711
 30
0.0
 11
-140.2673510652099
 21
-1528.1827238711
 31
0.0
  0
LINE
  5
2C9
330
3C
100
AcDbEntity
  8
1
  6
Continuous
 62
     3
100
AcDbLine
 10
-140.2673510652097
 20
-1528.6727238711
 30
0.0
 11
-140.2673510652099
 21
-1528.1827238711
 31
0.0
  0
LINE
  5
2CA
330
3C
100
AcDbEntity
  8
1
  6
Continuous
 62
     2
100
AcDbLine
 10
-131.8516314905561
 20
-1537.1727238711
 30
0.0
 11
-139.1830706398637
 21
-1528.1827238711
 31
0.0
  0
LINE
  5
2CB
330
3C
100
AcDbEntity
  8
1
  6
Continuous
 62
     3
100
AcDbLine
 10
-130.7673510652099
 20
-1537.1727238711
 30
0.0
 11
-131.8516314905561
 21
-1537.1727238711
 31
0.0
  0
LINE
  5
2CC
330
3C
100
AcDbEntity
  8
1
  6
Continuous
 62
     2
100
AcDbLine
 10
-131.8516314905561
 20
-1528.1827238711
 30
0.0
 11
-139.1830706398637
 21
-1537.1727238711
 31
0.0
  0
LINE
  5
2CD
330
3C
100
AcDbEntity
  8
1
  6
Continuous
 62
     3
100
AcDbLine
 10
-131.8516314905561
 20
-1537.1727238711
 30
0.0
 11
-139.1830706398637
 21
-1537.1727238711
 31
0.0
  0
LINE
  5
2CE
330
3C
100
AcDbEntity
  8
1
  6
Continuous
 62
     3
100
AcDbLine
 10
-129.5173510652099
 20
-1540.6727238711
 30
0.0
 11
-129.5173510652099
 21
-1537.1727238711
 31
0.0
  0
LINE
  5
2CF
330
3C
100
AcDbEntity
  8
1
  6
Continuous
 62
     3
100
AcDbLine
 10
-141.5173510652099
 20
-1540.6727238711
 30
0.0
 11
-141.5173510652097
 21
-1537.1727238711
 31
0.0
  0
LINE
  5
2D0
330
3C
100
AcDbEntity
  8
1
  6
DASH_CENTER
 62
     1
100
AcDbLine
 10
-135.5173510652099
 20
-1524.1727238711
 30
0.0
 11
-135.5173510652099
 21
-1545.03300289193
 31
0.0
  0
LINE
  5
2D1
330
3C
100
AcDbEntity
  8
1
  6
DASH_CENTER
 62
     1
100
AcDbLine
 10
-14.37821466813688
 20
-1524.1727238711
 30
0.0
 11
-14.37821466813688
 21
-1545.03300289193
 31
0.0
  0
LINE
  5
2D2
330
3C
100
AcDbEntity
  8
1
  6
Continuous
 62
     3
100
AcDbLine
 10
-20.37821466813688
 20
-1540.6727238711
 30
0.0
 11
-20.37821466813676
 21
-1537.1727238711
 31
0.0
  0
LINE
  5
2D3
330
3C
100
AcDbEntity
  8
1
  6
Continuous
 62
     3
100
AcDbLine
 10
-8.37821466813688
 20
-1540.6727238711
 30
0.0
 11
-8.37821466813688
 21
-1537.1727238711
 31
0.0
  0
LINE
  5
2D4
330
3C
100
AcDbEntity
  8
1
  6
Continuous
 62
     3
100
AcDbLine
 10
-10.71249509348314
 20
-1537.1727238711
 30
0.0
 11
-18.04393424279073
 21
-1537.1727238711
 31
0.0
  0
LINE
  5
2D5
330
3C
100
AcDbEntity
  8
1
  6
Continuous
 62
     2
100
AcDbLine
 10
-10.71249509348314
 20
-1528.1827238711
 30
0.0
 11
-18.04393424279073
 21
-1537.1727238711
 31
0.0
  0
LINE
  5
2D6
330
3C
100
AcDbEntity
  8
1
  6
Continuous
 62
     3
100
AcDbLine
 10
-9.62821466813688
 20
-1537.1727238711
 30
0.0
 11
-10.71249509348314
 21
-1537.1727238711
 31
0.0
  0
LINE
  5
2D7
330
3C
100
AcDbEntity
  8
1
  6
Continuous
 62
     2
100
AcDbLine
 10
-10.71249509348314
 20
-1537.1727238711
 30
0.0
 11
-18.04393424279073
 21
-1528.1827238711
 31
0.0
  0
LINE
  5
2D8
330
3C
100
AcDbEntity
  8
1
  6
Continuous
 62
     3
100
AcDbLine
 10
-19.12821466813676
 20
-1528.6727238711
 30
0.0
 11
-19.12821466813688
 21
-1528.1827238711
 31
0.0
  0
LINE
  5
2D9
330
3C
100
AcDbEntity
  8
1
  6
Continuous
 62
     3
100
AcDbLine
 10
-18.04393424279073
 20
-1528.1827238711
 30
0.0
 11
-19.12821466813688
 21
-1528.1827238711
 31
0.0
  0
LINE
  5
2DA
330
3C
100
AcDbEntity
  8
1
  6
Continuous
 62
     3
100
AcDbLine
 10
-9.62821466813676
 20
-1527.461399005695
 30
0.0
 11
-9.62821466813688
 21
-1528.1827238711
 31
0.0
  0
LINE
  5
2DB
330
3C
100
AcDbEntity
  8
1
  6
Continuous
 62
     3
100
AcDbLine
 10
-10.71249509348314
 20
-1537.1727238711
 30
0.0
 11
-10.71249509348314
 21
-1528.1827238711
 31
0.0
  0
LINE
  5
2DC
330
3C
100
AcDbEntity
  8
1
  6
Continuous
 62
     3
100
AcDbLine
 10
-9.62821466813688
 20
-1528.1827238711
 30
0.0
 11
-10.71249509348314
 21
-1528.1827238711
 31
0.0
  0
LINE
  5
2DD
330
3C
100
AcDbEntity
  8
1
  6
Continuous
 62
     3
100
AcDbLine
 10
-9.62821466813676
 20
-1527.461399005695
 30
0.0
 11
-10.12821466813688
 21
-1527.1727238711
 31
0.0
  0
LINE
  5
2DE
330
3C
100
AcDbEntity
  8
1
  6
Continuous
 62
     3
100
AcDbLine
 10
-18.62821466813688
 20
-1527.1727238711
 30
0.0
 11
-19.12821466813688
 21
-1527.461399005695
 31
0.0
  0
LINE
  5
2DF
330
3C
100
AcDbEntity
  8
1
  6
Continuous
 62
     3
100
AcDbLine
 10
-9.62821466813688
 20
-1528.1827238711
 30
0.0
 11
-9.62821466813688
 21
-1537.1727238711
 31
0.0
  0
LINE
  5
2E0
330
3C
100
AcDbEntity
  8
1
  6
Continuous
 62
     3
100
AcDbLine
 10
-18.04393424279073
 20
-1528.1827238711
 30
0.0
 11
-18.04393424279073
 21
-1537.1727238711
 31
0.0
  0
LINE
  5
2E1
330
3C
100
AcDbEntity
  8
1
  6
Continuous
 62
     3
100
AcDbLine
 10
-10.12821466813688
 20
-1527.1727238711
 30
0.0
 11
-18.62821466813688
 21
-1527.1727238711
 31
0.0
  0
LINE
  5
2E2
330
3C
100
AcDbEntity
  8
1
  6
Continuous
 62
     3
100
AcDbLine
 10
-19.12821466813688
 20
-1528.1827238711
 30
0.0
 11
-19.12821466813688
 21
-1527.461399005695
 31
0.0
  0
LINE
  5
2E3
330
3C
100
AcDbEntity
  8
1
  6
Continuous
 62
     3
100
AcDbLine
 10
-19.12821466813688
 20
-1537.1727238711
 30
0.0
 11
-20.37821466813676
 21
-1537.1727238711
 31
0.0
  0
LINE
  5
2E4
330
3C
100
AcDbEntity
  8
1
  6
Continuous
 62
     3
100
AcDbLine
 10
-18.04393424279073
 20
-1537.1727238711
 30
0.0
 11
-19.12821466813688
 21
-1537.1727238711
 31
0.0
  0
LINE
  5
2E5
330
3C
100
AcDbEntity
  8
1
  6
Continuous
 62
     3
100
AcDbLine
 10
-8.37821466813688
 20
-1537.1727238711
 30
0.0
 11
-9.62821466813688
 21
-1537.1727238711
 31
0.0
  0
LINE
  5
2E6
330
3C
100
AcDbEntity
  8
1
  6
Continuous
 62
     3
100
AcDbLine
 10
-19.12821466813688
 20
-1537.1727238711
 30
0.0
 11
-19.12821466813676
 21
-1528.6727238711
 31
0.0
  0
LINE
  5
2E7
330
3C
100
AcDbEntity
  8
1
  6
Continuous
 62
     3
100
AcDbLine
 10
-383.4885756981179
 20
-1537.1727238711
 30
0.0
 11
-383.4885756981178
 21
-1528.6727238711
 31
0.0
  0
LINE
  5
2E8
330
3C
100
AcDbEntity
  8
1
  6
Continuous
 62
     3
100
AcDbLine
 10
-372.7385756981179
 20
-1537.1727238711
 30
0.0
 11
-373.9885756981179
 21
-1537.1727238711
 31
0.0
  0
LINE
  5
2E9
330
3C
100
AcDbEntity
  8
1
  6
Continuous
 62
     3
100
AcDbLine
 10
-382.4042952727717
 20
-1537.1727238711
 30
0.0
 11
-383.4885756981179
 21
-1537.1727238711
 31
0.0
  0
LINE
  5
2EA
330
3C
100
AcDbEntity
  8
1
  6
Continuous
 62
     3
100
AcDbLine
 10
-383.4885756981179
 20
-1537.1727238711
 30
0.0
 11
-384.7385756981178
 21
-1537.1727238711
 31
0.0
  0
LINE
  5
2EB
330
3C
100
AcDbEntity
  8
1
  6
Continuous
 62
     3
100
AcDbLine
 10
-383.4885756981179
 20
-1528.1827238711
 30
0.0
 11
-383.4885756981179
 21
-1527.461399005695
 31
0.0
  0
LINE
  5
2EC
330
3C
100
AcDbEntity
  8
1
  6
Continuous
 62
     3
100
AcDbLine
 10
-374.4885756981179
 20
-1527.1727238711
 30
0.0
 11
-382.9885756981179
 21
-1527.1727238711
 31
0.0
  0
LINE
  5
2ED
330
3C
100
AcDbEntity
  8
1
  6
Continuous
 62
     3
100
AcDbLine
 10
-382.4042952727717
 20
-1528.1827238711
 30
0.0
 11
-382.4042952727717
 21
-1537.1727238711
 31
0.0
  0
LINE
  5
2EE
330
3C
100
AcDbEntity
  8
1
  6
Continuous
 62
     3
100
AcDbLine
 10
-373.9885756981179
 20
-1528.1827238711
 30
0.0
 11
-373.9885756981179
 21
-1537.1727238711
 31
0.0
  0
LINE
  5
2EF
330
3C
100
AcDbEntity
  8
1
  6
Continuous
 62
     3
100
AcDbLine
 10
-382.9885756981179
 20
-1527.1727238711
 30
0.0
 11
-383.4885756981179
 21
-1527.461399005695
 31
0.0
  0
LINE
  5
2F0
330
3C
100
AcDbEntity
  8
1
  6
Continuous
 62
     3
100
AcDbLine
 10
-373.9885756981178
 20
-1527.461399005695
 30
0.0
 11
-374.4885756981179
 21
-1527.1727238711
 31
0.0
  0
LINE
  5
2F1
330
3C
100
AcDbEntity
  8
1
  6
Continuous
 62
     3
100
AcDbLine
 10
-373.9885756981179
 20
-1528.1827238711
 30
0.0
 11
-375.0728561234641
 21
-1528.1827238711
 31
0.0
  0
LINE
  5
2F2
330
3C
100
AcDbEntity
  8
1
  6
Continuous
 62
     3
100
AcDbLine
 10
-375.0728561234641
 20
-1537.1727238711
 30
0.0
 11
-375.0728561234641
 21
-1528.1827238711
 31
0.0
  0
LINE
  5
2F3
330
3C
100
AcDbEntity
  8
1
  6
Continuous
 62
     3
100
AcDbLine
 10
-373.9885756981178
 20
-1527.461399005695
 30
0.0
 11
-373.9885756981179
 21
-1528.1827238711
 31
0.0
  0
LINE
  5
2F4
330
3C
100
AcDbEntity
  8
1
  6
Continuous
 62
     3
100
AcDbLine
 10
-382.4042952727717
 20
-1528.1827238711
 30
0.0
 11
-383.4885756981179
 21
-1528.1827238711
 31
0.0
  0
LINE
  5
2F5
330
3C
100
AcDbEntity
  8
1
  6
Continuous
 62
     3
100
AcDbLine
 10
-383.4885756981178
 20
-1528.6727238711
 30
0.0
 11
-383.4885756981179
 21
-1528.1827238711
 31
0.0
  0
LINE
  5
2F6
330
3C
100
AcDbEntity
  8
1
  6
Continuous
 62
     2
100
AcDbLine
 10
-375.0728561234641
 20
-1537.1727238711
 30
0.0
 11
-382.4042952727717
 21
-1528.1827238711
 31
0.0
  0
LINE
  5
2F7
330
3C
100
AcDbEntity
  8
1
  6
Continuous
 62
     3
100
AcDbLine
 10
-373.9885756981179
 20
-1537.1727238711
 30
0.0
 11
-375.0728561234641
 21
-1537.1727238711
 31
0.0
  0
LINE
  5
2F8
330
3C
100
AcDbEntity
  8
1
  6
Continuous
 62
     2
100
AcDbLine
 10
-375.0728561234641
 20
-1528.1827238711
 30
0.0
 11
-382.4042952727717
 21
-1537.1727238711
 31
0.0
  0
LINE
  5
2F9
330
3C
100
AcDbEntity
  8
1
  6
Continuous
 62
     3
100
AcDbLine
 10
-375.0728561234641
 20
-1537.1727238711
 30
0.0
 11
-382.4042952727717
 21
-1537.1727238711
 31
0.0
  0
LINE
  5
2FA
330
3C
100
AcDbEntity
  8
1
  6
Continuous
 62
     3
100
AcDbLine
 10
-372.7385756981179
 20
-1540.6727238711
 30
0.0
 11
-372.7385756981179
 21
-1537.1727238711
 31
0.0
  0
LINE
  5
2FB
330
3C
100
AcDbEntity
  8
1
  6
Continuous
 62
     3
100
AcDbLine
 10
-384.7385756981179
 20
-1540.6727238711
 30
0.0
 11
-384.7385756981178
 21
-1537.1727238711
 31
0.0
  0
LINE
  5
2FC
330
3C
100
AcDbEntity
  8
1
  6
DASH_CENTER
 62
     1
100
AcDbLine
 10
-378.7385756981179
 20
-1524.1727238711
 30
0.0
 11
-378.7385756981179
 21
-1545.03300289193
 31
0.0
  0
LINE
  5
2FD
330
3C
100
AcDbEntity
  8
1
  6
DASH_CENTER
 62
     1
100
AcDbLine
 10
-252.5173510652099
 20
-1524.1727238711
 30
0.0
 11
-252.5173510652099
 21
-1545.03300289193
 31
0.0
  0
LINE
  5
2FE
330
3C
100
AcDbEntity
  8
1
  6
Continuous
 62
     3
100
AcDbLine
 10
-258.5173510652099
 20
-1540.6727238711
 30
0.0
 11
-258.5173510652098
 21
-1537.1727238711
 31
0.0
  0
LINE
  5
2FF
330
3C
100
AcDbEntity
  8
1
  6
Continuous
 62
     3
100
AcDbLine
 10
-246.5173510652099
 20
-1540.6727238711
 30
0.0
 11
-246.5173510652099
 21
-1537.1727238711
 31
0.0
  0
LINE
  5
300
330
3C
100
AcDbEntity
  8
1
  6
Continuous
 62
     3
100
AcDbLine
 10
-248.8516314905562
 20
-1537.1727238711
 30
0.0
 11
-256.1830706398638
 21
-1537.1727238711
 31
0.0
  0
LINE
  5
301
330
3C
100
AcDbEntity
  8
1
  6
Continuous
 62
     2
100
AcDbLine
 10
-248.8516314905562
 20
-1528.1827238711
 30
0.0
 11
-256.1830706398638
 21
-1537.1727238711
 31
0.0
  0
LINE
  5
302
330
3C
100
AcDbEntity
  8
1
  6
Continuous
 62
     3
100
AcDbLine
 10
-247.7673510652099
 20
-1537.1727238711
 30
0.0
 11
-248.8516314905562
 21
-1537.1727238711
 31
0.0
  0
LINE
  5
303
330
3C
100
AcDbEntity
  8
1
  6
Continuous
 62
     2
100
AcDbLine
 10
-248.8516314905562
 20
-1537.1727238711
 30
0.0
 11
-256.1830706398638
 21
-1528.1827238711
 31
0.0
  0
LINE
  5
304
330
3C
100
AcDbEntity
  8
1
  6
Continuous
 62
     3
100
AcDbLine
 10
-257.2673510652098
 20
-1528.6727238711
 30
0.0
 11
-257.2673510652099
 21
-1528.1827238711
 31
0.0
  0
LINE
  5
305
330
3C
100
AcDbEntity
  8
1
  6
Continuous
 62
     3
100
AcDbLine
 10
-256.1830706398638
 20
-1528.1827238711
 30
0.0
 11
-257.2673510652099
 21
-1528.1827238711
 31
0.0
  0
LINE
  5
306
330
3C
100
AcDbEntity
  8
1
  6
Continuous
 62
     3
100
AcDbLine
 10
-247.7673510652098
 20
-1527.461399005695
 30
0.0
 11
-247.7673510652099
 21
-1528.1827238711
 31
0.0
  0
LINE
  5
307
330
3C
100
AcDbEntity
  8
1
  6
Continuous
 62
     3
100
AcDbLine
 10
-248.8516314905562
 20
-1537.1727238711
 30
0.0
 11
-248.8516314905562
 21
-1528.1827238711
 31
0.0
  0
LINE
  5
308
330
3C
100
AcDbEntity
  8
1
  6
Continuous
 62
     3
100
AcDbLine
 10
-247.7673510652099
 20
-1528.1827238711
 30
0.0
 11
-248.8516314905562
 21
-1528.1827238711
 31
0.0
  0
LINE
  5
309
330
3C
100
AcDbEntity
  8
1
  6
Continuous
 62
     3
100
AcDbLine
 10
-247.7673510652098
 20
-1527.461399005695
 30
0.0
 11
-248.2673510652099
 21
-1527.1727238711
 31
0.0
  0
LINE
  5
30A
330
3C
100
AcDbEntity
  8
1
  6
Continuous
 62
     3
100
AcDbLine
 10
-256.7673510652099
 20
-1527.1727238711
 30
0.0
 11
-257.2673510652099
 21
-1527.461399005695
 31
0.0
  0
LINE
  5
30B
330
3C
100
AcDbEntity
  8
1
  6
Continuous
 62
     3
100
AcDbLine
 10
-247.7673510652099
 20
-1528.1827238711
 30
0.0
 11
-247.7673510652099
 21
-1537.1727238711
 31
0.0
  0
LINE
  5
30C
330
3C
100
AcDbEntity
  8
1
  6
Continuous
 62
     3
100
AcDbLine
 10
-256.1830706398638
 20
-1528.1827238711
 30
0.0
 11
-256.1830706398638
 21
-1537.1727238711
 31
0.0
  0
LINE
  5
30D
330
3C
100
AcDbEntity
  8
1
  6
Continuous
 62
     3
100
AcDbLine
 10
-248.2673510652099
 20
-1527.1727238711
 30
0.0
 11
-256.7673510652099
 21
-1527.1727238711
 31
0.0
  0
LINE
  5
30E
330
3C
100
AcDbEntity
  8
1
  6
Continuous
 62
     3
100
AcDbLine
 10
-257.2673510652099
 20
-1528.1827238711
 30
0.0
 11
-257.2673510652099
 21
-1527.461399005695
 31
0.0
  0
LINE
  5
30F
330
3C
100
AcDbEntity
  8
1
  6
Continuous
 62
     3
100
AcDbLine
 10
-257.2673510652099
 20
-1537.1727238711
 30
0.0
 11
-258.5173510652098
 21
-1537.1727238711
 31
0.0
  0
LINE
  5
310
330
3C
100
AcDbEntity
  8
1
  6
Continuous
 62
     3
100
AcDbLine
 10
-256.1830706398638
 20
-1537.1727238711
 30
0.0
 11
-257.2673510652099
 21
-1537.1727238711
 31
0.0
  0
LINE
  5
311
330
3C
100
AcDbEntity
  8
1
  6
Continuous
 62
     3
100
AcDbLine
 10
-246.5173510652099
 20
-1537.1727238711
 30
0.0
 11
-247.7673510652099
 21
-1537.1727238711
 31
0.0
  0
LINE
  5
312
330
3C
100
AcDbEntity
  8
1
  6
Continuous
 62
     3
100
AcDbLine
 10
-257.2673510652099
 20
-1537.1727238711
 30
0.0
 11
-257.2673510652098
 21
-1528.6727238711
 31
0.0
  0
ARC
  5
313
330
3C
100
AcDbEntity
  8
1
  6
Continuous
 62
     3
100
AcDbCircle
 10
-135.5173510652099
 20
-1537.136519212186
 30
0.0
 40
9.675120206491048
100
AcDbArc
 50
67.73561128814214
 51
112.2643887118577
  0
ARC
  5
314
330
3C
100
AcDbEntity
  8
1
  6
Continuous
 62
     3
100
AcDbCircle
 10
-14.37821466813688
 20
-1537.136519212186
 30
0.0
 40
9.675120206491018
100
AcDbArc
 50
67.73561128814258
 51
112.264388711858
  0
ARC
  5
315
330
3C
100
AcDbEntity
  8
1
  6
Continuous
 62
     3
100
AcDbCircle
 10
-378.7385756981179
 20
-1537.136519212186
 30
0.0
 40
9.675120206491059
100
AcDbArc
 50
67.73561128814198
 51
112.2643887118577
  0
ARC
  5
316
330
3C
100
AcDbEntity
  8
1
  6
Continuous
 62
     3
100
AcDbCircle
 10
-252.5173510652099
 20
-1537.136519212186
 30
0.0
 40
9.675120206491005
100
AcDbArc
 50
67.73561128814275
 51
112.2643887118582
  0
CIRCLE
  5
317
330
3C
100
AcDbEntity
  8
1
  6
Continuous
 62
     3
100
AcDbCircle
 10
-252.5173510652099
 20
-1465.55100762926
 30
0.0
 40
4.250000000000085
  0
CIRCLE
  5
318
330
3C
100
AcDbEntity
  8
1
  6
Continuous
 62
     3
100
AcDbCircle
 10
-252.5173510652099
 20
-1465.55100762926
 30
0.0
 40
6.000000000000011
  0
ENDBLK
  5
3E
330
3C
100
AcDbEntity
  8
0
100
AcDbBlockEnd
  0
BLOCK
  5
40
330
3F
100
AcDbEntity
  8
0
100
AcDbBlockBegin
  2
_2
 70
     0
 71
     0
 10
-422.5699444074461
 20
-596.6193529016481
 30
0.0
  3
_2
  1

  0
LINE
  5
319
330
3F
100
AcDbEntity
  8
6_ALL_DRFT_GEOM
  6
Continuous
 62
     3
100
AcDbLine
 10
-240.1173510652099
 20
-1465.55100762926
 30
0.0
 11
-245.0173510652099
 21
-1465.55100762926
 31
0.0
  0
LINE
  5
31A
330
3F
100
AcDbEntity
  8
1
  6
Continuous
 62
     3
100
AcDbLine
 10
-238.4487510175139
 20
-1471.814751932628
 30
0.0
 11
-240.1388101141527
 21
-1471.062289142937
 31
0.0
  0
LINE
  5
31B
330
3F
100
AcDbEntity
  8
1
  6
Continuous
 62
     3
100
AcDbLine
 10
-247.4414317244244
 20
-1478.11434885864
 30
0.0
 11
-246.7484095266049
 21
-1479.829638989589
 31
0.0
  0
LINE
  5
31C
330
3F
100
AcDbEntity
  8
1
  6
Continuous
 62
     3
100
AcDbLine
 10
-258.7810953685773
 20
-1479.619607676956
 30
0.0
 11
-258.0286325788871
 21
-1477.929548580317
 31
0.0
  0
LINE
  5
31D
330
3F
100
AcDbEntity
  8
1
  6
Continuous
 62
     3
100
AcDbLine
 10
-265.0806922945899
 20
-1470.626926970046
 30
0.0
 11
-266.7959824255385
 21
-1471.319949167865
 31
0.0
  0
LINE
  5
31E
330
3F
100
AcDbEntity
  8
1
  6
Continuous
 62
     3
100
AcDbLine
 10
-266.5859511129061
 20
-1459.287263325893
 30
0.0
 11
-264.8958920162672
 21
-1460.039726115583
 31
0.0
  0
LINE
  5
31F
330
3F
100
AcDbEntity
  8
1
  6
Continuous
 62
     3
100
AcDbLine
 10
-257.5932704059956
 20
-1452.98766639988
 30
0.0
 11
-258.286292603815
 21
-1451.272376268932
 31
0.0
  0
LINE
  5
320
330
3F
100
AcDbEntity
  8
1
  6
Continuous
 62
     3
100
AcDbLine
 10
-246.2536067618426
 20
-1451.482407581564
 30
0.0
 11
-247.0060695515329
 21
-1453.172466678203
 31
0.0
  0
LINE
  5
321
330
3F
100
AcDbEntity
  8
1
  6
Continuous
 62
     3
100
AcDbLine
 10
-239.95400983583
 20
-1460.475088288475
 30
0.0
 11
-238.2387197048814
 21
-1459.782066090655
 31
0.0
  0
LINE
  5
322
330
3F
100
AcDbEntity
  8
1
  6
DASH_CENTER
 62
     1
100
AcDbLine
 10
-252.5173510652099
 20
-1537.136519212186
 30
0.0
 11
-252.5173510652099
 21
-1554.896855570208
 31
0.0
  0
LINE
  5
323
330
3F
100
AcDbEntity
  8
1
  6
Continuous
 62
     3
100
AcDbLine
 10
-239.0173510652099
 20
-1547.1727238711
 30
0.0
 11
-239.0173510652099
 21
-1552.1727238711
 31
0.0
  0
LINE
  5
324
330
3F
100
AcDbEntity
  8
1
  6
Continuous
 62
     3
100
AcDbLine
 10
-238.607570198654
 20
-1547.1727238711
 30
0.0
 11
-247.1858110456585
 21
-1547.1727238711
 31
0.0
  0
LINE
  5
325
330
3F
100
AcDbEntity
  8
1
  6
Continuous
 62
     3
100
AcDbLine
 10
-245.6786380105195
 20
-1547.1727238711
 30
0.0
 11
-245.6786380105195
 21
-1540.6727238711
 31
0.0
  0
LINE
  5
326
330
3F
100
AcDbEntity
  8
1
  6
Continuous
 62
     3
100
AcDbLine
 10
-247.1858110456585
 20
-1547.1727238711
 30
0.0
 11
-247.1858110456585
 21
-1540.6727238711
 31
0.0
  0
LINE
  5
327
330
3F
100
AcDbEntity
  8
1
  6
Continuous
 62
     3
100
AcDbLine
 10
-257.8488910847614
 20
-1540.6727238711
 30
0.0
 11
-257.8488910847614
 21
-1547.1727238711
 31
0.0
  0
LINE
  5
328
330
3F
100
AcDbEntity
  8
1
  6
Continuous
 62
     3
100
AcDbLine
 10
-259.3560641199005
 20
-1540.6727238711
 30
0.0
 11
-259.3560641199005
 21
-1547.1727238711
 31
0.0
  0
LINE
  5
329
330
3F
100
AcDbEntity
  8
1
  6
Continuous
 62
     3
100
AcDbLine
 10
-266.0173510652099
 20
-1552.1727238711
 30
0.0
 11
-266.0173510652099
 21
-1547.1727238711
 31
0.0
  0
LINE
  5
32A
330
3F
100
AcDbEntity
  8
1
  6
Continuous
 62
     3
100
AcDbLine
 10
-257.8488910847614
 20
-1547.1727238711
 30
0.0
 11
-266.427131931766
 21
-1547.1727238711
 31
0.0
  0
LINE
  5
32B
330
3F
100
AcDbEntity
  8
1
  6
Continuous
 62
     3
100
AcDbLine
 10
-238.607570198654
 20
-1540.6727238711
 30
0.0
 11
-238.607570198654
 21
-1547.1727238711
 31
0.0
  0
LINE
  5
32C
330
3F
100
AcDbEntity
  8
1
  6
Continuous
 62
     3
100
AcDbLine
 10
-238.607570198654
 20
-1540.6727238711
 30
0.0
 11
-252.5173510652099
 21
-1540.6727238711
 31
0.0
  0
LINE
  5
32D
330
3F
100
AcDbEntity
  8
1
  6
Continuous
 62
     3
100
AcDbLine
 10
-252.5173510652099
 20
-1540.6727238711
 30
0.0
 11
-266.427131931766
 21
-1540.6727238711
 31
0.0
  0
LINE
  5
32E
330
3F
100
AcDbEntity
  8
1
  6
Continuous
 62
     3
100
AcDbLine
 10
-266.427131931766
 20
-1547.1727238711
 30
0.0
 11
-266.427131931766
 21
-1540.6727238711
 31
0.0
  0
LINE
  5
32F
330
3F
100
AcDbEntity
  8
1
  6
Continuous
 62
     3
100
AcDbLine
 10
-392.6483565646739
 20
-1547.1727238711
 30
0.0
 11
-392.6483565646739
 21
-1540.6727238711
 31
0.0
  0
LINE
  5
330
330
3F
100
AcDbEntity
  8
1
  6
Continuous
 62
     3
100
AcDbLine
 10
-378.7385756981179
 20
-1540.6727238711
 30
0.0
 11
-392.6483565646739
 21
-1540.6727238711
 31
0.0
  0
LINE
  5
331
330
3F
100
AcDbEntity
  8
1
  6
Continuous
 62
     3
100
AcDbLine
 10
-364.8287948315619
 20
-1540.6727238711
 30
0.0
 11
-378.7385756981179
 21
-1540.6727238711
 31
0.0
  0
LINE
  5
332
330
3F
100
AcDbEntity
  8
1
  6
Continuous
 62
     3
100
AcDbLine
 10
-364.8287948315619
 20
-1540.6727238711
 30
0.0
 11
-364.8287948315619
 21
-1547.1727238711
 31
0.0
  0
LINE
  5
333
330
3F
100
AcDbEntity
  8
1
  6
Continuous
 62
     3
100
AcDbLine
 10
-384.0701157176693
 20
-1547.1727238711
 30
0.0
 11
-392.6483565646739
 21
-1547.1727238711
 31
0.0
  0
LINE
  5
334
330
3F
100
AcDbEntity
  8
1
  6
Continuous
 62
     3
100
AcDbLine
 10
-392.2385756981179
 20
-1552.1727238711
 30
0.0
 11
-392.2385756981179
 21
-1547.1727238711
 31
0.0
  0
LINE
  5
335
330
3F
100
AcDbEntity
  8
1
  6
Continuous
 62
     3
100
AcDbLine
 10
-385.5772887528084
 20
-1540.6727238711
 30
0.0
 11
-385.5772887528084
 21
-1547.1727238711
 31
0.0
  0
LINE
  5
336
330
3F
100
AcDbEntity
  8
1
  6
Continuous
 62
     3
100
AcDbLine
 10
-384.0701157176693
 20
-1540.6727238711
 30
0.0
 11
-384.0701157176693
 21
-1547.1727238711
 31
0.0
  0
LINE
  5
337
330
3F
100
AcDbEntity
  8
1
  6
Continuous
 62
     3
100
AcDbLine
 10
-373.4070356785665
 20
-1547.1727238711
 30
0.0
 11
-373.4070356785665
 21
-1540.6727238711
 31
0.0
  0
LINE
  5
338
330
3F
100
AcDbEntity
  8
1
  6
Continuous
 62
     3
100
AcDbLine
 10
-371.8998626434275
 20
-1547.1727238711
 30
0.0
 11
-371.8998626434275
 21
-1540.6727238711
 31
0.0
  0
LINE
  5
339
330
3F
100
AcDbEntity
  8
1
  6
Continuous
 62
     3
100
AcDbLine
 10
-364.8287948315619
 20
-1547.1727238711
 30
0.0
 11
-373.4070356785665
 21
-1547.1727238711
 31
0.0
  0
LINE
  5
33A
330
3F
100
AcDbEntity
  8
1
  6
Continuous
 62
     3
100
AcDbLine
 10
-365.2385756981179
 20
-1547.1727238711
 30
0.0
 11
-365.2385756981179
 21
-1552.1727238711
 31
0.0
  0
LINE
  5
33B
330
3F
100
AcDbEntity
  8
1
  6
DASH_CENTER
 62
     1
100
AcDbLine
 10
-378.7385756981179
 20
-1537.136519212186
 30
0.0
 11
-378.7385756981179
 21
-1554.896855570208
 31
0.0
  0
LINE
  5
33C
330
3F
100
AcDbEntity
  8
1
  6
DASH_CENTER
 62
     1
100
AcDbLine
 10
-14.37821466813688
 20
-1537.136519212186
 30
0.0
 11
-14.37821466813688
 21
-1554.896855570208
 31
0.0
  0
LINE
  5
33D
330
3F
100
AcDbEntity
  8
1
  6
Continuous
 62
     3
100
AcDbLine
 10
-0.87821466813688
 20
-1547.1727238711
 30
0.0
 11
-0.87821466813688
 21
-1552.1727238711
 31
0.0
  0
LINE
  5
33E
330
3F
100
AcDbEntity
  8
1
  6
Continuous
 62
     3
100
AcDbLine
 10
-0.46843380158094
 20
-1547.1727238711
 30
0.0
 11
-9.04667464858545
 21
-1547.1727238711
 31
0.0
  0
LINE
  5
33F
330
3F
100
AcDbEntity
  8
1
  6
Continuous
 62
     3
100
AcDbLine
 10
-7.53950161344648
 20
-1547.1727238711
 30
0.0
 11
-7.53950161344648
 21
-1540.6727238711
 31
0.0
  0
LINE
  5
340
330
3F
100
AcDbEntity
  8
1
  6
Continuous
 62
     3
100
AcDbLine
 10
-9.04667464858545
 20
-1547.1727238711
 30
0.0
 11
-9.04667464858545
 21
-1540.6727238711
 31
0.0
  0
LINE
  5
341
330
3F
100
AcDbEntity
  8
1
  6
Continuous
 62
     3
100
AcDbLine
 10
-19.7097546876883
 20
-1540.6727238711
 30
0.0
 11
-19.7097546876883
 21
-1547.1727238711
 31
0.0
  0
LINE
  5
342
330
3F
100
AcDbEntity
  8
1
  6
Continuous
 62
     3
100
AcDbLine
 10
-21.21692772282739
 20
-1540.6727238711
 30
0.0
 11
-21.21692772282739
 21
-1547.1727238711
 31
0.0
  0
LINE
  5
343
330
3F
100
AcDbEntity
  8
1
  6
Continuous
 62
     3
100
AcDbLine
 10
-27.87821466813688
 20
-1552.1727238711
 30
0.0
 11
-27.87821466813688
 21
-1547.1727238711
 31
0.0
  0
LINE
  5
344
330
3F
100
AcDbEntity
  8
1
  6
Continuous
 62
     3
100
AcDbLine
 10
-19.7097546876883
 20
-1547.1727238711
 30
0.0
 11
-28.28799553469293
 21
-1547.1727238711
 31
0.0
  0
LINE
  5
345
330
3F
100
AcDbEntity
  8
1
  6
Continuous
 62
     3
100
AcDbLine
 10
-0.46843380158094
 20
-1540.6727238711
 30
0.0
 11
-0.46843380158094
 21
-1547.1727238711
 31
0.0
  0
LINE
  5
346
330
3F
100
AcDbEntity
  8
1
  6
Continuous
 62
     3
100
AcDbLine
 10
-0.46843380158094
 20
-1540.6727238711
 30
0.0
 11
-14.37821466813688
 21
-1540.6727238711
 31
0.0
  0
LINE
  5
347
330
3F
100
AcDbEntity
  8
1
  6
Continuous
 62
     3
100
AcDbLine
 10
-14.37821466813688
 20
-1540.6727238711
 30
0.0
 11
-28.28799553469293
 21
-1540.6727238711
 31
0.0
  0
LINE
  5
348
330
3F
100
AcDbEntity
  8
1
  6
Continuous
 62
     3
100
AcDbLine
 10
-28.28799553469293
 20
-1547.1727238711
 30
0.0
 11
-28.28799553469293
 21
-1540.6727238711
 31
0.0
  0
LINE
  5
349
330
3F
100
AcDbEntity
  8
1
  6
Continuous
 62
     3
100
AcDbLine
 10
-149.427131931766
 20
-1547.1727238711
 30
0.0
 11
-149.427131931766
 21
-1540.6727238711
 31
0.0
  0
LINE
  5
34A
330
3F
100
AcDbEntity
  8
1
  6
Continuous
 62
     3
100
AcDbLine
 10
-135.5173510652099
 20
-1540.6727238711
 30
0.0
 11
-149.427131931766
 21
-1540.6727238711
 31
0.0
  0
LINE
  5
34B
330
3F
100
AcDbEntity
  8
1
  6
Continuous
 62
     3
100
AcDbLine
 10
-121.6075701986539
 20
-1540.6727238711
 30
0.0
 11
-135.5173510652099
 21
-1540.6727238711
 31
0.0
  0
LINE
  5
34C
330
3F
100
AcDbEntity
  8
1
  6
Continuous
 62
     3
100
AcDbLine
 10
-121.6075701986539
 20
-1540.6727238711
 30
0.0
 11
-121.6075701986539
 21
-1547.1727238711
 31
0.0
  0
LINE
  5
34D
330
3F
100
AcDbEntity
  8
1
  6
Continuous
 62
     3
100
AcDbLine
 10
-140.8488910847613
 20
-1547.1727238711
 30
0.0
 11
-149.427131931766
 21
-1547.1727238711
 31
0.0
  0
LINE
  5
34E
330
3F
100
AcDbEntity
  8
1
  6
Continuous
 62
     3
100
AcDbLine
 10
-149.0173510652099
 20
-1552.1727238711
 30
0.0
 11
-149.0173510652099
 21
-1547.1727238711
 31
0.0
  0
LINE
  5
34F
330
3F
100
AcDbEntity
  8
1
  6
Continuous
 62
     3
100
AcDbLine
 10
-142.3560641199005
 20
-1540.6727238711
 30
0.0
 11
-142.3560641199005
 21
-1547.1727238711
 31
0.0
  0
LINE
  5
350
330
3F
100
AcDbEntity
  8
1
  6
Continuous
 62
     3
100
AcDbLine
 10
-140.8488910847613
 20
-1540.6727238711
 30
0.0
 11
-140.8488910847613
 21
-1547.1727238711
 31
0.0
  0
LINE
  5
351
330
3F
100
AcDbEntity
  8
1
  6
Continuous
 62
     3
100
AcDbLine
 10
-130.1858110456585
 20
-1547.1727238711
 30
0.0
 11
-130.1858110456585
 21
-1540.6727238711
 31
0.0
  0
LINE
  5
352
330
3F
100
AcDbEntity
  8
1
  6
Continuous
 62
     3
100
AcDbLine
 10
-128.6786380105194
 20
-1547.1727238711
 30
0.0
 11
-128.6786380105194
 21
-1540.6727238711
 31
0.0
  0
LINE
  5
353
330
3F
100
AcDbEntity
  8
1
  6
Continuous
 62
     3
100
AcDbLine
 10
-121.6075701986539
 20
-1547.1727238711
 30
0.0
 11
-130.1858110456585
 21
-1547.1727238711
 31
0.0
  0
LINE
  5
354
330
3F
100
AcDbEntity
  8
1
  6
Continuous
 62
     3
100
AcDbLine
 10
-122.0173510652099
 20
-1547.1727238711
 30
0.0
 11
-122.0173510652099
 21
-1552.1727238711
 31
0.0
  0
LINE
  5
355
330
3F
100
AcDbEntity
  8
1
  6
DASH_CENTER
 62
     1
100
AcDbLine
 10
-135.5173510652099
 20
-1537.136519212186
 30
0.0
 11
-135.5173510652099
 21
-1554.896855570208
 31
0.0
  0
ARC
  5
356
330
3F
100
AcDbEntity
  8
1
  6
Continuous
 62
     3
100
AcDbCircle
 10
-249.884133766223
 20
-1463.403926896918
 30
0.0
 40
10.00000000000058
100
AcDbArc
 50
-105.2672535353395
 51
-12.39840117245857
  0
ARC
  5
357
330
3F
100
AcDbEntity
  8
6_ALL_DRFT_GEOM
  6
Continuous
 62
     3
100
AcDbCircle
 10
-252.5173510652099
 20
-1465.55100762926
 30
0.0
 40
7.5
100
AcDbArc
 50
-90.00000000000065
 51
0.0
  0
ARC
  5
358
330
3F
100
AcDbEntity
  8
1
  6
Continuous
 62
     3
100
AcDbCircle
 10
-252.5173510652099
 20
-1465.55100762926
 30
0.0
 40
13.54999999999992
100
AcDbArc
 50
-23.99999999999962
 51
0.0
  0
ARC
  5
359
330
3F
100
AcDbEntity
  8
1
  6
Continuous
 62
     3
100
AcDbCircle
 10
-252.5173510652099
 20
-1465.55100762926
 30
0.0
 40
15.40000000000041
100
AcDbArc
 50
-68.00000000000071
 51
-24.00000000000222
  0
ARC
  5
35A
330
3F
100
AcDbEntity
  8
1
  6
Continuous
 62
     3
100
AcDbCircle
 10
-252.5173510652099
 20
-1465.55100762926
 30
0.0
 40
13.54999999999983
100
AcDbArc
 50
-68.0000000000002
 51
-23.99999999999962
  0
ARC
  5
35B
330
3F
100
AcDbEntity
  8
1
  6
Continuous
 62
     3
100
AcDbCircle
 10
-252.5173510652099
 20
-1465.55100762926
 30
0.0
 40
13.54999999999976
100
AcDbArc
 50
-114.0000000000008
 51
-68.0000000000002
  0
ARC
  5
35C
330
3F
100
AcDbEntity
  8
1
  6
Continuous
 62
     3
100
AcDbCircle
 10
-252.5173510652099
 20
-1465.55100762926
 30
0.0
 40
15.4
100
AcDbArc
 50
-158.0000000000008
 51
-114.0000000000004
  0
ARC
  5
35D
330
3F
100
AcDbEntity
  8
1
  6
Continuous
 62
     3
100
AcDbCircle
 10
-252.5173510652099
 20
-1465.55100762926
 30
0.0
 40
13.55000000000013
100
AcDbArc
 50
-157.9999999999986
 51
-114.0000000000008
  0
ARC
  5
35E
330
3F
100
AcDbEntity
  8
1
  6
Continuous
 62
     3
100
AcDbCircle
 10
-252.5173510652099
 20
-1465.55100762926
 30
0.0
 40
13.55000000000002
100
AcDbArc
 50
156.0000000000006
 51
-157.9999999999986
  0
ARC
  5
35F
330
3F
100
AcDbEntity
  8
1
  6
Continuous
 62
     3
100
AcDbCircle
 10
-252.5173510652099
 20
-1465.55100762926
 30
0.0
 40
15.39999999999959
100
AcDbArc
 50
112.0000000000009
 51
156.0000000000012
  0
ARC
  5
360
330
3F
100
AcDbEntity
  8
1
  6
Continuous
 62
     3
100
AcDbCircle
 10
-252.5173510652099
 20
-1465.55100762926
 30
0.0
 40
13.55000000000012
100
AcDbArc
 50
112.0000000000002
 51
156.0000000000006
  0
ARC
  5
361
330
3F
100
AcDbEntity
  8
1
  6
Continuous
 62
     3
100
AcDbCircle
 10
-252.5173510652099
 20
-1465.55100762926
 30
0.0
 40
13.54999999999991
100
AcDbArc
 50
66.00000000000021
 51
112.0000000000002
  0
ARC
  5
362
330
3F
100
AcDbEntity
  8
1
  6
Continuous
 62
     3
100
AcDbCircle
 10
-252.5173510652099
 20
-1465.55100762926
 30
0.0
 40
13.5499999999999
100
AcDbArc
 50
0.0
 51
66.00000000000021
  0
ARC
  5
363
330
3F
100
AcDbEntity
  8
1
  6
Continuous
 62
     3
100
AcDbCircle
 10
-252.5173510652099
 20
-1465.55100762926
 30
0.0
 40
15.4
100
AcDbArc
 50
22.00000000000012
 51
66.0
  0
MTEXT
  5
365
330
3F
100
AcDbEntity
  8
0
 62
     3
100
AcDbMText
 10
-253.3887449655099
 20
-1474.41944394516
 30
0.0
 40
3.0
 41
0.0
 71
     7
 72
     1
  1
0
  7
CONVERTER_2
 11
-1.0
 21
3.673819061467132E-16
 31
0.0
 73
     1
 44
0.60024009603842
  0
MTEXT
  5
366
330
3F
100
AcDbEntity
  8
0
 62
     3
100
AcDbMText
 10
-245.1511726564099
 20
-1458.66204792986
 30
0.0
 40
3.0
 41
0.0
 71
     7
 72
     1
  1
100
  7
CONVERTER_2
 11
-1.836909530733566E-16
 21
-1.0
 31
0.0
 73
     1
 44
0.60024009603842
  0
ENDBLK
  5
41
330
3F
100
AcDbEntity
  8
0
100
AcDbBlockEnd
  0
BLOCK
  5
43
330
42
100
AcDbEntity
  8
0
100
AcDbBlockBegin
  2
Top__4
 70
     0
 71
     0
 10
156.531157721009
 20
-790.037384601348
 30
0.0
  3
Top__4
  1

  0
POINT
  5
367
330
42
100
AcDbEntity
  8
1
 62
     3
 60
     1
100
AcDbPoint
 10
285.5843385951921
 20
-842.1359157022259
 30
0.0
  0
POINT
  5
368
330
42
100
AcDbEntity
  8
1
 62
     3
 60
     1
100
AcDbPoint
 10
285.5843385951921
 20
-795.4038648946571
 30
0.0
  0
POINT
  5
369
330
42
100
AcDbEntity
  8
1
 62
     3
 60
     1
100
AcDbPoint
 10
351.0843385951921
 20
-826.5884797305997
 30
0.0
  0
POINT
  5
36A
330
42
100
AcDbEntity
  8
1
 62
     3
 60
     1
100
AcDbPoint
 10
351.0843385951921
 20
-811.2192500587146
 30
0.0
  0
POINT
  5
36B
330
42
100
AcDbEntity
  8
1
 62
     3
 60
     1
100
AcDbPoint
 10
351.0843385951921
 20
-798.421814087088
 30
0.0
  0
POINT
  5
36C
330
42
100
AcDbEntity
  8
1
 62
     3
 60
     1
100
AcDbPoint
 10
283.579817669876
 20
-749.7606709154261
 30
0.0
  0
POINT
  5
36D
330
42
100
AcDbEntity
  8
1
 62
     3
 60
     1
100
AcDbPoint
 10
286.5205475662431
 20
-744.6671773235814
 30
0.0
  0
POINT
  5
36E
330
42
100
AcDbEntity
  8
1
 62
     3
 60
     1
100
AcDbPoint
 10
281.6168267546312
 20
-749.7606709154261
 30
0.0
  0
POINT
  5
36F
330
42
100
AcDbEntity
  8
1
 62
     3
 60
     1
100
AcDbPoint
 10
284.5575566509983
 20
-744.6671773235814
 30
0.0
  0
POINT
  5
370
330
42
100
AcDbEntity
  8
1
 62
     3
 60
     1
100
AcDbPoint
 10
159.0631648349262
 20
-876.0418473120424
 30
0.0
  0
POINT
  5
371
330
42
100
AcDbEntity
  8
1
 62
     3
 60
     1
100
AcDbPoint
 10
157.1001739196814
 20
-876.0418473120424
 30
0.0
  0
POINT
  5
372
330
42
100
AcDbEntity
  8
1
 62
     3
 60
     1
100
AcDbPoint
 10
160.0409038160485
 20
-870.9483537201977
 30
0.0
  0
POINT
  5
373
330
42
100
AcDbEntity
  8
1
 62
     3
 60
     1
100
AcDbPoint
 10
162.0038947312933
 20
-870.9483537201977
 30
0.0
  0
LINE
  5
374
330
42
100
AcDbEntity
  8
1
  6
Continuous
 62
     3
100
AcDbLine
 10
-272.5173510652099
 20
-1465.55100762926
 30
0.0
 11
-272.5173510652099
 21
-1451.55100762926
 31
0.0
  0
LINE
  5
375
330
42
100
AcDbEntity
  8
1
  6
Continuous
 62
     3
100
AcDbLine
 10
-232.51735106521
 20
-1451.55100762926
 30
0.0
 11
-232.51735106521
 21
-1462.722580504514
 31
0.0
  0
LINE
  5
376
330
42
100
AcDbEntity
  8
1
  6
Continuous
 62
     3
100
AcDbLine
 10
-272.5173510652099
 20
-1479.55100762926
 30
0.0
 11
-272.5173510652099
 21
-1465.55100762926
 31
0.0
  0
LINE
  5
377
330
42
100
AcDbEntity
  8
1
  6
Continuous
 62
     3
100
AcDbLine
 10
-232.51735106521
 20
-1468.379434754006
 30
0.0
 11
-232.51735106521
 21
-1479.55100762926
 31
0.0
  0
ARC
  5
378
330
42
100
AcDbEntity
  8
1
  6
Continuous
 62
     3
100
AcDbCircle
 10
-252.5173510652099
 20
-1437.55100762926
 30
0.0
 40
14.00000000000012
100
AcDbArc
 50
-129.6981988405449
 51
-50.30180115945529
  0
ARC
  5
379
330
42
100
AcDbEntity
  8
1
  6
Continuous
 62
     3
100
AcDbCircle
 10
-252.5173510652099
 20
-1493.55100762926
 30
0.0
 40
14.00000000000008
100
AcDbArc
 50
50.30180115945529
 51
129.6981988405453
  0
ARC
  5
37A
330
42
100
AcDbEntity
  8
1
  6
Continuous
 62
     3
100
AcDbCircle
 10
-232.51735106521
 20
-1465.55100762926
 30
0.0
 40
1.999999999999878
100
AcDbArc
 50
-70.52877936550749
 51
70.52877936550749
  0
CIRCLE
  5
37B
330
42
100
AcDbEntity
  8
1
  6
Continuous
 62
     3
100
AcDbCircle
 10
-238.375215441479
 20
-1451.408872005529
 30
0.0
 40
2.5
  0
CIRCLE
  5
37C
330
42
100
AcDbEntity
  8
1
  6
Continuous
 62
     3
100
AcDbCircle
 10
-238.375215441479
 20
-1479.693143252991
 30
0.0
 40
2.5
  0
CIRCLE
  5
37D
330
42
100
AcDbEntity
  8
1
  6
Continuous
 62
     3
100
AcDbCircle
 10
-266.659486688941
 20
-1451.408872005529
 30
0.0
 40
2.5
  0
CIRCLE
  5
37E
330
42
100
AcDbEntity
  8
1
  6
Continuous
 62
     3
100
AcDbCircle
 10
-266.659486688941
 20
-1479.693143252991
 30
0.0
 40
2.5
  0
ARC
  5
37F
330
42
100
AcDbEntity
  8
1
  6
Continuous
 62
     3
100
AcDbCircle
 10
-266.5173510652099
 20
-1479.55100762926
 30
0.0
 40
6.0
100
AcDbArc
 50
180.0
 51
-90.0
  0
ARC
  5
380
330
42
100
AcDbEntity
  8
1
  6
Continuous
 62
     3
100
AcDbCircle
 10
-266.5173510652099
 20
-1451.55100762926
 30
0.0
 40
5.999999999999899
100
AcDbArc
 50
32.54901099750673
 51
90.0
  0
ARC
  5
381
330
42
100
AcDbEntity
  8
1
  6
Continuous
 62
     3
100
AcDbCircle
 10
-238.51735106521
 20
-1479.55100762926
 30
0.0
 40
5.999999999999899
100
AcDbArc
 50
-147.4509890024933
 51
0.0
  0
ARC
  5
382
330
42
100
AcDbEntity
  8
1
  6
Continuous
 62
     3
100
AcDbCircle
 10
-266.5173510652099
 20
-1479.55100762926
 30
0.0
 40
6.0
100
AcDbArc
 50
-90.0
 51
-32.54901099750732
  0
ARC
  5
383
330
42
100
AcDbEntity
  8
1
  6
Continuous
 62
     3
100
AcDbCircle
 10
-266.5173510652099
 20
-1451.55100762926
 30
0.0
 40
6.0
100
AcDbArc
 50
90.0
 51
180.0
  0
ARC
  5
384
330
42
100
AcDbEntity
  8
1
  6
Continuous
 62
     3
100
AcDbCircle
 10
-238.51735106521
 20
-1451.55100762926
 30
0.0
 40
6.0
100
AcDbArc
 50
0.0
 51
147.4509890024933
  0
ARC
  5
385
330
42
100
AcDbEntity
  8
1
  6
Continuous
 62
     3
100
AcDbCircle
 10
-231.51735106521
 20
-1462.722580504514
 30
0.0
 40
1.0
100
AcDbArc
 50
180.0
 51
-109.471220634491
  0
ARC
  5
386
330
42
100
AcDbEntity
  8
1
  6
Continuous
 62
     3
100
AcDbCircle
 10
-231.51735106521
 20
-1468.379434754006
 30
0.0
 40
0.9999999999999294
100
AcDbArc
 50
109.471220634491
 51
180.0
  0
ENDBLK
  5
44
330
42
100
AcDbEntity
  8
0
100
AcDbBlockEnd
  0
BLOCK
  5
392
330
389
100
AcDbEntity
  8
0
100
AcDbBlockBegin
  2
*D07
 70
     1
 71
     0
 10
0.0
 20
0.0
 30
0.0
  3
*D07
  1

  0
LINE
  5
38A
330
389
100
AcDbEntity
  8
1
  6
Continuous
 62
     2
100
AcDbLine
 10
-305.0173510652099
 20
-1680.5025284566
 30
0.0
 11
-196.5173510652099
 21
-1680.5025284566
 31
0.0
  0
LINE
  5
38B
330
389
100
AcDbEntity
  8
1
  6
Continuous
 62
     2
100
AcDbLine
 10
-305.0173510652099
 20
-1653.1727238711
 30
0.0
 11
-305.0173510652099
 21
-1681.5025284566
 31
0.0
  0
LINE
  5
38C
330
389
100
AcDbEntity
  8
1
  6
Continuous
 62
     2
100
AcDbLine
 10
-196.5173510652099
 20
-1653.1727238711
 30
0.0
 11
-196.5173510652099
 21
-1681.5025284566
 31
0.0
  0
LINE
  5
38D
330
389
100
AcDbEntity
  8
1
 62
     2
100
AcDbLine
 10
-305.0173510652099
 20
-1680.5025284566
 30
0.0
 11
-301.5173510652099
 21
-1679.564706283091
 31
0.0
  0
LINE
  5
38E
330
389
100
AcDbEntity
  8
1
 62
     2
100
AcDbLine
 10
-305.0173510652099
 20
-1680.5025284566
 30
0.0
 11
-301.5173510652099
 21
-1681.440350630109
 31
0.0
  0
LINE
  5
38F
330
389
100
AcDbEntity
  8
1
 62
     2
100
AcDbLine
 10
-196.5173510652099
 20
-1680.5025284566
 30
0.0
 11
-200.0173510652099
 21
-1681.440350630109
 31
0.0
  0
LINE
  5
390
330
389
100
AcDbEntity
  8
1
 62
     2
100
AcDbLine
 10
-196.5173510652099
 20
-1680.5025284566
 30
0.0
 11
-200.0173510652099
 21
-1679.564706283091
 31
0.0
  0
MTEXT
  5
391
330
389
100
AcDbEntity
  8
1
 62
     2
100
AcDbMText
 10
-254.388947320396
 20
-1678.9025284566
 30
0.0
 40
3.5
 41
0.0
 71
     7
 72
     1
  1
108.5
  7
CONVERTER_2
 11
0.9999999999970621
 21
2.424068405545307E-6
 31
0.0
 73
     1
 44
0.60024009603842
  0
ENDBLK
  5
393
330
389
100
AcDbEntity
  8
0
100
AcDbBlockEnd
  0
BLOCK
  5
395
330
394
100
AcDbEntity
  8
0
100
AcDbBlockBegin
  2
_Open30
 70
     0
 71
     0
 10
0.0
 20
0.0
 30
0.0
  3
_Open30
  1

  0
LINE
  5
397
330
394
100
AcDbEntity
  8
0
  6
ByBlock
 62
     0
370
    -2
100
AcDbLine
 10
-1.0
 20
0.267949
 30
0.0
 11
0.0
 21
0.0
 31
0.0
  0
LINE
  5
398
330
394
100
AcDbEntity
  8
0
  6
ByBlock
 62
     0
370
    -2
100
AcDbLine
 10
0.0
 20
0.0
 30
0.0
 11
-1.0
 21
-0.267949
 31
0.0
  0
LINE
  5
399
330
394
100
AcDbEntity
  8
0
  6
ByBlock
 62
     0
370
    -2
100
AcDbLine
 10
0.0
 20
0.0
 30
0.0
 11
-1.0
 21
0.0
 31
0.0
  0
ENDBLK
  5
396
330
394
100
AcDbEntity
  8
0
100
AcDbBlockEnd
  0
BLOCK
  5
3A5
330
39C
100
AcDbEntity
  8
0
100
AcDbBlockBegin
  2
*D19
 70
     1
 71
     0
 10
0.0
 20
0.0
 30
0.0
  3
*D19
  1

  0
LINE
  5
39D
330
39C
100
AcDbEntity
  8
1
  6
Continuous
 62
     2
100
AcDbLine
 10
-252.5173510652099
 20
-1668.95025732699
 30
0.0
 11
-305.0173510652099
 21
-1668.95025732699
 31
0.0
  0
LINE
  5
39E
330
39C
100
AcDbEntity
  8
1
  6
Continuous
 62
     2
100
AcDbLine
 10
-252.5173510652099
 20
-1659.1727238711
 30
0.0
 11
-252.5173510652099
 21
-1669.95025732699
 31
0.0
  0
LINE
  5
39F
330
39C
100
AcDbEntity
  8
1
  6
Continuous
 62
     2
100
AcDbLine
 10
-305.0173510652099
 20
-1653.1727238711
 30
0.0
 11
-305.0173510652099
 21
-1669.95025732699
 31
0.0
  0
LINE
  5
3A0
330
39C
100
AcDbEntity
  8
1
 62
     2
100
AcDbLine
 10
-252.5173510652099
 20
-1668.95025732699
 30
0.0
 11
-256.0173510652099
 21
-1669.888079500499
 31
0.0
  0
LINE
  5
3A1
330
39C
100
AcDbEntity
  8
1
 62
     2
100
AcDbLine
 10
-252.5173510652099
 20
-1668.95025732699
 30
0.0
 11
-256.0173510652099
 21
-1668.012435153481
 31
0.0
  0
LINE
  5
3A2
330
39C
100
AcDbEntity
  8
1
 62
     2
100
AcDbLine
 10
-305.0173510652099
 20
-1668.95025732699
 30
0.0
 11
-301.5173510652099
 21
-1668.012435153481
 31
0.0
  0
LINE
  5
3A3
330
39C
100
AcDbEntity
  8
1
 62
     2
100
AcDbLine
 10
-305.0173510652099
 20
-1668.95025732699
 30
0.0
 11
-301.5173510652099
 21
-1669.888079500499
 31
0.0
  0
MTEXT
  5
3A4
330
39C
100
AcDbEntity
  8
1
 62
     2
100
AcDbMText
 10
-283.523913820342
 20
-1667.35025732699
 30
0.0
 40
3.5
 41
0.0
 71
     7
 72
     1
  1
52.5
  7
CONVERTER_2
 11
0.9999999999970621
 21
2.424068405545307E-6
 31
0.0
 73
     1
 44
0.60024009603842
  0
ENDBLK
  5
3A6
330
39C
100
AcDbEntity
  8
0
100
AcDbBlockEnd
  0
BLOCK
  5
3B2
330
3A9
100
AcDbEntity
  8
0
100
AcDbBlockBegin
  2
*D210
 70
     1
 71
     0
 10
0.0
 20
0.0
 30
0.0
  3
*D210
  1

  0
LINE
  5
3AA
330
3A9
100
AcDbEntity
  8
1
  6
Continuous
 62
     2
100
AcDbLine
 10
-317.142401449896
 20
-1552.1727238711
 30
0.0
 11
-317.142401449896
 21
-1527.1727238711
 31
0.0
  0
LINE
  5
3AB
330
3A9
100
AcDbEntity
  8
1
  6
Continuous
 62
     2
100
AcDbLine
 10
-273.5173510652099
 20
-1552.1727238711
 30
0.0
 11
-318.142401449896
 21
-1552.1727238711
 31
0.0
  0
LINE
  5
3AC
330
3A9
100
AcDbEntity
  8
1
  6
Continuous
 62
     2
100
AcDbLine
 10
-257.7673510652099
 20
-1527.1727238711
 30
0.0
 11
-318.142401449896
 21
-1527.1727238711
 31
0.0
  0
LINE
  5
3AD
330
3A9
100
AcDbEntity
  8
1
 62
     2
100
AcDbLine
 10
-317.142401449896
 20
-1552.1727238711
 30
0.0
 11
-318.080223623405
 21
-1548.6727238711
 31
0.0
  0
LINE
  5
3AE
330
3A9
100
AcDbEntity
  8
1
 62
     2
100
AcDbLine
 10
-317.142401449896
 20
-1552.1727238711
 30
0.0
 11
-316.2045792763871
 21
-1548.6727238711
 31
0.0
  0
LINE
  5
3AF
330
3A9
100
AcDbEntity
  8
1
 62
     2
100
AcDbLine
 10
-317.142401449896
 20
-1527.1727238711
 30
0.0
 11
-316.2045792763871
 21
-1530.6727238711
 31
0.0
  0
LINE
  5
3B0
330
3A9
100
AcDbEntity
  8
1
 62
     2
100
AcDbLine
 10
-317.142401449896
 20
-1527.1727238711
 30
0.0
 11
-318.080223623405
 21
-1530.6727238711
 31
0.0
  0
MTEXT
  5
3B1
330
3A9
100
AcDbEntity
  8
1
 62
     2
100
AcDbMText
 10
-318.742401449896
 20
-1543.01354443833
 30
0.0
 40
3.5
 41
0.0
 71
     7
 72
     1
  1
25
  7
CONVERTER_2
 11
0.0
 21
1.0
 31
0.0
 73
     1
 44
0.60024009603842
  0
ENDBLK
  5
3B3
330
3A9
100
AcDbEntity
  8
0
100
AcDbBlockEnd
  0
BLOCK
  5
3BF
330
3B6
100
AcDbEntity
  8
0
100
AcDbBlockBegin
  2
*D311
 70
     1
 71
     0
 10
0.0
 20
0.0
 30
0.0
  3
*D311
  1

  0
LINE
  5
3B7
330
3B6
100
AcDbEntity
  8
1
  6
Continuous
 62
     2
100
AcDbLine
 10
-317.01735106521
 20
-1624.1727238711
 30
0.0
 11
-317.01735106521
 21
-1552.1727238711
 31
0.0
  0
LINE
  5
3B8
330
3B6
100
AcDbEntity
  8
1
  6
Continuous
 62
     2
100
AcDbLine
 10
-310.01735106521
 20
-1624.1727238711
 30
0.0
 11
-318.01735106521
 21
-1624.1727238711
 31
0.0
  0
LINE
  5
3B9
330
3B6
100
AcDbEntity
  8
1
  6
Continuous
 62
     2
100
AcDbLine
 10
-273.51735106521
 20
-1552.1727238711
 30
0.0
 11
-318.01735106521
 21
-1552.1727238711
 31
0.0
  0
LINE
  5
3BA
330
3B6
100
AcDbEntity
  8
1
 62
     2
100
AcDbLine
 10
-317.01735106521
 20
-1624.1727238711
 30
0.0
 11
-317.9551732387189
 21
-1620.6727238711
 31
0.0
  0
LINE
  5
3BB
330
3B6
100
AcDbEntity
  8
1
 62
     2
100
AcDbLine
 10
-317.01735106521
 20
-1624.1727238711
 30
0.0
 11
-316.0795288917011
 21
-1620.6727238711
 31
0.0
  0
LINE
  5
3BC
330
3B6
100
AcDbEntity
  8
1
 62
     2
100
AcDbLine
 10
-317.01735106521
 20
-1552.1727238711
 30
0.0
 11
-316.0795288917011
 21
-1555.6727238711
 31
0.0
  0
LINE
  5
3BD
330
3B6
100
AcDbEntity
  8
1
 62
     2
100
AcDbLine
 10
-317.01735106521
 20
-1552.1727238711
 30
0.0
 11
-317.9551732387189
 21
-1555.6727238711
 31
0.0
  0
MTEXT
  5
3BE
330
3B6
100
AcDbEntity
  8
1
 62
     2
100
AcDbMText
 10
-318.61735106521
 20
-1589.22262895677
 30
0.0
 40
3.5
 41
0.0
 71
     7
 72
     1
  1
72
  7
CONVERTER_2
 11
0.0
 21
1.0
 31
0.0
 73
     1
 44
0.60024009603842
  0
ENDBLK
  5
3C0
330
3B6
100
AcDbEntity
  8
0
100
AcDbBlockEnd
  0
ENDSEC
  0
SECTION
  2
ENTITIES
  0
INSERT
  5
45
330
1F
100
AcDbEntity
  8
0
100
AcDbBlockReference
  2
Top__1
 10
235.18102900239
 20
-2018.69039856386
 30
0.0
  0
INSERT
  5
46
330
1F
100
AcDbEntity
  8
0
100
AcDbBlockReference
  2
Top__2
 10
292.602948726531
 20
-2136.372716576097
 30
0.0
  0
INSERT
  5
47
330
1F
100
AcDbEntity
  8
0
100
AcDbBlockReference
  2
Top__3
 10
355.854915550706
 20
-1268.23821657842
 30
0.0
  0
INSERT
  5
48
330
1F
100
AcDbEntity
  8
1
100
AcDbBlockReference
  2
_3
 10
-338.0173510652099
 20
-589.479631922478
 30
0.0
  0
INSERT
  5
49
330
1F
100
AcDbEntity
  8
1
100
AcDbBlockReference
  2
_2
 10
-422.5699444074461
 20
-596.6193529016481
 30
0.0
  0
INSERT
  5
4A
330
1F
100
AcDbEntity
  8
0
100
AcDbBlockReference
  2
Top__4
 10
156.531157721009
 20
-790.037384601348
 30
0.0
  0
TEXT
  5
388
330
1F
100
AcDbEntity
  8
1
 62
     3
100
AcDbText
 10
-411.2733671211051
 20
-1679.013764947297
 30
0.0
 40
5.0
  1
VY5302A004X
 41
1.08
  7
CONVERTER_3
100
AcDbText
  0
DIMENSION
  5
39B
330
1F
100
AcDbEntity
  8
1
100
AcDbDimension
  2
*D07
 10
-305.0173510652099
 20
-1680.5025284566
 30
0.0
 11
-248.570197320396
 21
-1677.1525284566
 31
0.0
 70
    32
  1
<>
 71
     5
 42
-1.0
 53
0.00013888888889
  3
ME10_DIM_0
100
AcDbAlignedDimension
 13
-196.5173510652099
 23
-1652.1727238711
 33
0.0
 14
-305.0173510652099
 24
-1652.1727238711
 34
0.0
100
AcDbRotatedDimension
  0
DIMENSION
  5
3A8
330
1F
100
AcDbEntity
  8
1
100
AcDbDimension
  2
*D19
 10
-252.5173510652099
 20
-1668.95025732699
 30
0.0
 11
-278.755163820342
 21
-1665.60025732699
 31
0.0
 70
    32
  1
<>
 71
     5
 42
-1.0
 53
0.00013888888889
  3
ME10_DIM_1
100
AcDbAlignedDimension
 13
-305.0173510652099
 23
-1652.1727238711
 33
0.0
 14
-252.5173510652099
 24
-1658.1727238711
 34
0.0
100
AcDbRotatedDimension
  0
DIMENSION
  5
3B5
330
1F
100
AcDbEntity
  8
1
100
AcDbDimension
  2
*D210
 10
-317.142401449896
 20
-1552.1727238711
 30
0.0
 11
-320.492401449896
 21
-1540.38854443833
 31
0.0
 70
    32
  1
<>
 71
     5
 42
-1.0
 53
90.0
  3
ME10_DIM_2
100
AcDbAlignedDimension
 13
-256.7673510652099
 23
-1527.1727238711
 33
0.0
 14
-272.5173510652099
 24
-1552.1727238711
 34
0.0
 50
90.0
100
AcDbRotatedDimension
  0
DIMENSION
  5
3C2
330
1F
100
AcDbEntity
  8
1
100
AcDbDimension
  2
*D311
 10
-317.01735106521
 20
-1624.1727238711
 30
0.0
 11
-320.36735106521
 21
-1586.59762895677
 31
0.0
 70
    32
  1
<>
 71
     5
 42
-1.0
 53
90.0
  3
ME10_DIM_3
100
AcDbAlignedDimension
 13
-272.5173510652099
 23
-1552.1727238711
 33
0.0
 14
-309.0173510652099
 24
-1624.1727238711
 34
0.0
 50
90.0
100
AcDbRotatedDimension
  0
ENDSEC
  0
SECTION
  2
OBJECTS
  0
DICTIONARY
  5
C
330
0
100
AcDbDictionary
281
     1
  3
ACAD_GROUP
350
D
  3
ACAD_LAYOUT
350
1A
  3
ACAD_MLINESTYLE
350
17
  3
ACAD_PLOTSETTINGS
350
19
  3
ACAD_PLOTSTYLENAME
350
E
  0
DICTIONARY
  5
D
102
{ACAD_REACTORS
330
C
102
}
330
C
100
AcDbDictionary
281
     1
  0
DICTIONARY
  5
1A
102
{ACAD_REACTORS
330
C
102
}
330
C
100
AcDbDictionary
281
     1
  3
Layout1
350
1E
  3
Layout2
350
26
  3
Model
350
22
  0
DICTIONARY
  5
17
102
{ACAD_REACTORS
330
C
102
}
330
C
100
AcDbDictionary
281
     1
  3
Standard
350
18
  0
DICTIONARY
  5
19
102
{ACAD_REACTORS
330
C
102
}
330
C
100
AcDbDictionary
281
     1
  0
ACDBDICTIONARYWDFLT
  5
E
102
{ACAD_REACTORS
330
C
102
}
330
C
100
AcDbDictionary
281
     1
  3
Normal
350
F
100
AcDbDictionaryWithDefault
340
F
  0
LAYOUT
  5
1E
102
{ACAD_REACTORS
330
1A
102
}
330
1A
100
AcDbPlotSettings
  1

  2

  4

  6

 40
0.0
 41
0.0
 42
0.0
 43
0.0
 44
0.0
 45
0.0
 46
0.0
 47
0.0
 48
0.0
 49
0.0
140
0.0
141
0.0
142
1.0
143
1.0
 70
   688
 72
     0
 73
     0
 74
     5
  7

 75
    16
147
1.0
148
0.0
149
0.0
100
AcDbLayout
  1
Layout1
 70
     1
 71
     1
 10
0.0
 20
0.0
 11
0.0
 21
0.0
 12
0.0
 22
0.0
 32
0.0
 14
0.0
 24
0.0
 34
0.0
 15
0.0
 25
0.0
 35
0.0
146
0.0
 13
0.0
 23
0.0
 33
0.0
 16
1.0
 26
0.0
 36
0.0
 17
0.0
 27
1.0
 37
0.0
 76
     0
330
1B
  0
LAYOUT
  5
26
102
{ACAD_REACTORS
330
1A
102
}
330
1A
100
AcDbPlotSettings
  1

  2

  4

  6

 40
0.0
 41
0.0
 42
0.0
 43
0.0
 44
0.0
 45
0.0
 46
0.0
 47
0.0
 48
0.0
 49
0.0
140
0.0
141
0.0
142
1.0
143
1.0
 70
   688
 72
     0
 73
     0
 74
     5
  7

 75
    16
147
1.0
148
0.0
149
0.0
100
AcDbLayout
  1
Layout2
 70
     1
 71
     2
 10
0.0
 20
0.0
 11
0.0
 21
0.0
 12
0.0
 22
0.0
 32
0.0
 14
0.0
 24
0.0
 34
0.0
 15
0.0
 25
0.0
 35
0.0
146
0.0
 13
0.0
 23
0.0
 33
0.0
 16
1.0
 26
0.0
 36
0.0
 17
0.0
 27
1.0
 37
0.0
 76
     0
330
23
  0
LAYOUT
  5
22
102
{ACAD_REACTORS
330
1A
102
}
330
1A
100
AcDbPlotSettings
  1

  2

  4

  6

 40
0.0
 41
0.0
 42
0.0
 43
0.0
 44
0.0
 45
0.0
 46
0.0
 47
0.0
 48
0.0
 49
0.0
140
0.0
141
0.0
142
1.0
143
1.0
 70
  1712
 72
     0
 73
     0
 74
     0
  7

 75
     0
147
1.0
148
0.0
149
0.0
100
AcDbLayout
  1
Model
 70
     1
 71
     0
 10
0.0
 20
0.0
 11
0.0
 21
0.0
 12
0.0
 22
0.0
 32
0.0
 14
-411.2733671211051
 24
-1681.5025284566
 34
0.0
 15
42.12178533186315
 25
-1432.55100762926
 35
0.0
146
0.0
 13
0.0
 23
0.0
 33
0.0
 16
1.0
 26
0.0
 36
0.0
 17
0.0
 27
1.0
 37
0.0
 76
     0
330
1F
  0
MLINESTYLE
  5
18
102
{ACAD_REACTORS
330
17
102
}
330
17
100
AcDbMlineStyle
  2
Standard
 70
     0
  3

 62
   256
 51
90.0
 52
90.0
 71
     2
 49
0.5
 62
   256
  6
BYLAYER
 49
-0.5
 62
   256
  6
BYLAYER
  0
ACDBPLACEHOLDER
  5
F
102
{ACAD_REACTORS
330
E
102
}
330
E
  0
ENDSEC
  0
EOF
