  0
SECTION
  2
HEADER
  9
$ACADVER
  1
AC1015
  9
$ACADMAINTVER
 70
     6
  9
$DWGCODEPAGE
  3
ANSI_1252
  9
$INSBASE
 10
0.0
 20
0.0
 30
0.0
  9
$EXTMIN
 10
333.8258170790466
 20
-687.919353600074
 30
0.0
  9
$EXTMAX
 10
708.6905092591177
 20
-462.2442816248986
 30
0.0
  9
$LIMMIN
 10
0.0
 20
0.0
  9
$LIMMAX
 10
12.0
 20
9.0
  9
$ORTHOMODE
 70
     0
  9
$REGENMODE
 70
     1
  9
$FILLMODE
 70
     1
  9
$QTEXTMODE
 70
     0
  9
$MIRRTEXT
 70
     1
  9
$LTSCALE
 40
1.0
  9
$ATTMODE
 70
     1
  9
$TEXTSIZE
 40
0.2
  9
$TRACEWID
 40
0.05
  9
$TEXTSTYLE
  7
Standard
  9
$CLAYER
  8
0
  9
$CELTYPE
  6
ByLayer
  9
$CECOLOR
 62
   256
  9
$CELTSCALE
 40
1.0
  9
$DISPSILH
 70
     0
  9
$DIMSCALE
 40
1.0
  9
$DIMASZ
 40
0.18
  9
$DIMEXO
 40
0.0625
  9
$DIMDLI
 40
0.38
  9
$DIMRND
 40
0.0
  9
$DIMDLE
 40
0.0
  9
$DIMEXE
 40
0.18
  9
$DIMTP
 40
0.0
  9
$DIMTM
 40
0.0
  9
$DIMTXT
 40
0.18
  9
$DIMCEN
 40
0.09
  9
$DIMTSZ
 40
0.0
  9
$DIMTOL
 70
     0
  9
$DIMLIM
 70
     0
  9
$DIMTIH
 70
     1
  9
$DIMTOH
 70
     1
  9
$DIMSE1
 70
     0
  9
$DIMSE2
 70
     0
  9
$DIMTAD
 70
     0
  9
$DIMZIN
 70
     0
  9
$DIMBLK
  1

  9
$DIMASO
 70
     1
  9
$DIMSHO
 70
     1
  9
$DIMPOST
  1

  9
$DIMAPOST
  1

  9
$DIMALT
 70
     0
  9
$DIMALTD
 70
     2
  9
$DIMALTF
 40
25.4
  9
$DIMLFAC
 40
1.0
  9
$DIMTOFL
 70
     0
  9
$DIMTVP
 40
0.0
  9
$DIMTIX
 70
     0
  9
$DIMSOXD
 70
     0
  9
$DIMSAH
 70
     0
  9
$DIMBLK1
  1

  9
$DIMBLK2
  1

  9
$DIMSTYLE
  2
Standard
  9
$DIMCLRD
 70
     0
  9
$DIMCLRE
 70
     0
  9
$DIMCLRT
 70
     0
  9
$DIMTFAC
 40
1.0
  9
$DIMGAP
 40
0.09
  9
$DIMJUST
 70
     0
  9
$DIMSD1
 70
     0
  9
$DIMSD2
 70
     0
  9
$DIMTOLJ
 70
     1
  9
$DIMTZIN
 70
     0
  9
$DIMALTZ
 70
     0
  9
$DIMALTTZ
 70
     0
  9
$DIMUPT
 70
     0
  9
$DIMDEC
 70
     4
  9
$DIMTDEC
 70
     4
  9
$DIMALTU
 70
     2
  9
$DIMALTTD
 70
     2
  9
$DIMTXSTY
  7
Standard
  9
$DIMAUNIT
 70
     0
  9
$DIMADEC
 70
     0
  9
$DIMALTRND
 40
0.0
  9
$DIMAZIN
 70
     0
  9
$DIMDSEP
 70
    46
  9
$DIMATFIT
 70
     3
  9
$DIMFRAC
 70
     0
  9
$DIMLDRBLK
  1

  9
$DIMLUNIT
 70
     2
  9
$DIMLWD
 70
    -2
  9
$DIMLWE
 70
    -2
  9
$DIMTMOVE
 70
     0
  9
$LUNITS
 70
     2
  9
$LUPREC
 70
     4
  9
$SKETCHINC
 40
0.1
  9
$FILLETRAD
 40
0.5
  9
$AUNITS
 70
     0
  9
$AUPREC
 70
     0
  9
$MENU
  1
.
  9
$ELEVATION
 40
0.0
  9
$PELEVATION
 40
0.0
  9
$THICKNESS
 40
0.0
  9
$LIMCHECK
 70
     0
  9
$CHAMFERA
 40
0.5
  9
$CHAMFERB
 40
0.5
  9
$CHAMFERC
 40
1.0
  9
$CHAMFERD
 40
0.0
  9
$SKPOLY
 70
     0
  9
$TDCREATE
 40
2455075.5979125
  9
$TDUCREATE
 40
2455075.2229125
  9
$TDUPDATE
 40
2455075.597912512
  9
$TDUUPDATE
 40
2455075.222912512
  9
$TDINDWG
 40
0.0000000116
  9
$TDUSRTIMER
 40
0.0000000116
  9
$USRTIMER
 70
     1
  9
$ANGBASE
 50
0.0
  9
$ANGDIR
 70
     0
  9
$PDMODE
 70
     0
  9
$PDSIZE
 40
0.0
  9
$PLINEWID
 40
0.0
  9
$SPLFRAME
 70
     0
  9
$SPLINETYPE
 70
     6
  9
$SPLINESEGS
 70
     8
  9
$HANDSEED
  5
306
  9
$SURFTAB1
 70
     6
  9
$SURFTAB2
 70
     6
  9
$SURFTYPE
 70
     6
  9
$SURFU
 70
     6
  9
$SURFV
 70
     6
  9
$UCSBASE
  2

  9
$UCSNAME
  2

  9
$UCSORG
 10
0.0
 20
0.0
 30
0.0
  9
$UCSXDIR
 10
1.0
 20
0.0
 30
0.0
  9
$UCSYDIR
 10
0.0
 20
1.0
 30
0.0
  9
$UCSORTHOREF
  2

  9
$UCSORTHOVIEW
 70
     0
  9
$UCSORGTOP
 10
0.0
 20
0.0
 30
0.0
  9
$UCSORGBOTTOM
 10
0.0
 20
0.0
 30
0.0
  9
$UCSORGLEFT
 10
0.0
 20
0.0
 30
0.0
  9
$UCSORGRIGHT
 10
0.0
 20
0.0
 30
0.0
  9
$UCSORGFRONT
 10
0.0
 20
0.0
 30
0.0
  9
$UCSORGBACK
 10
0.0
 20
0.0
 30
0.0
  9
$PUCSBASE
  2

  9
$PUCSNAME
  2

  9
$PUCSORG
 10
0.0
 20
0.0
 30
0.0
  9
$PUCSXDIR
 10
1.0
 20
0.0
 30
0.0
  9
$PUCSYDIR
 10
0.0
 20
1.0
 30
0.0
  9
$PUCSORTHOREF
  2

  9
$PUCSORTHOVIEW
 70
     0
  9
$PUCSORGTOP
 10
0.0
 20
0.0
 30
0.0
  9
$PUCSORGBOTTOM
 10
0.0
 20
0.0
 30
0.0
  9
$PUCSORGLEFT
 10
0.0
 20
0.0
 30
0.0
  9
$PUCSORGRIGHT
 10
0.0
 20
0.0
 30
0.0
  9
$PUCSORGFRONT
 10
0.0
 20
0.0
 30
0.0
  9
$PUCSORGBACK
 10
0.0
 20
0.0
 30
0.0
  9
$USERI1
 70
     0
  9
$USERI2
 70
     0
  9
$USERI3
 70
     0
  9
$USERI4
 70
     0
  9
$USERI5
 70
     0
  9
$USERR1
 40
14.0
  9
$USERR2
 40
0.0
  9
$USERR3
 40
0.0
  9
$USERR4
 40
0.0
  9
$USERR5
 40
0.0
  9
$WORLDVIEW
 70
     1
  9
$SHADEDGE
 70
     3
  9
$SHADEDIF
 70
    70
  9
$TILEMODE
 70
     1
  9
$MAXACTVP
 70
    64
  9
$PINSBASE
 10
0.0
 20
0.0
 30
0.0
  9
$PLIMCHECK
 70
     0
  9
$PEXTMIN
 10
1.00000000000000E+20
 20
1.00000000000000E+20
 30
1.00000000000000E+20
  9
$PEXTMAX
 10
-1.00000000000000E+20
 20
-1.00000000000000E+20
 30
-1.00000000000000E+20
  9
$PLIMMIN
 10
0.0
 20
0.0
  9
$PLIMMAX
 10
12.0
 20
9.0
  9
$UNITMODE
 70
     0
  9
$VISRETAIN
 70
     1
  9
$PLINEGEN
 70
     0
  9
$PSLTSCALE
 70
     1
  9
$TREEDEPTH
 70
  3020
  9
$CMLSTYLE
  2
Standard
  9
$CMLJUST
 70
     0
  9
$CMLSCALE
 40
1.0
  9
$PROXYGRAPHICS
 70
     1
  9
$MEASUREMENT
 70
     1
  9
$CELWEIGHT
370
    -1
  9
$ENDCAPS
280
     0
  9
$JOINSTYLE
280
     0
  9
$LWDISPLAY
290
     0
  9
$INSUNITS
 70
     1
  9
$HYPERLINKBASE
  1

  9
$STYLESHEET
  1

  9
$XEDIT
290
     1
  9
$CEPSNTYPE
380
     0
  9
$PSTYLEMODE
290
     1
  9
$FINGERPRINTGUID
  2
{0D37F63C-B171-4F81-A0FA-47B07B1E4CBB}
  9
$VERSIONGUID
  2
{FAEB1C32-E019-11D5-929B-00C0DF256EC4}
  9
$EXTNAMES
290
     1
  9
$PSVPSCALE
 40
0.0
  9
$OLESTARTUP
290
     0
  0
ENDSEC
  0
SECTION
  2
CLASSES
  0
CLASS
  1
ACDBDICTIONARYWDFLT
  2
AcDbDictionaryWithDefault
  3
ObjectDBX Classes
 90
        0
280
     0
281
     0
  0
CLASS
  1

  2
exOdDbCircle
  3

 90
        0
280
     0
281
     1
  0
CLASS
  1

  2
exOdDbPolyline
  3

 90
        0
280
     0
281
     1
  0
CLASS
  1
ACDBPLACEHOLDER
  2
AcDbPlaceHolder
  3
ObjectDBX Classes
 90
        0
280
     0
281
     0
  0
CLASS
  1
LAYOUT
  2
AcDbLayout
  3
ObjectDBX Classes
 90
        0
280
     0
281
     0
  0
ENDSEC
  0
SECTION
  2
TABLES
  0
TABLE
  2
VPORT
  5
8
330
0
100
AcDbSymbolTable
 70
     1
  0
VPORT
  5
29
330
8
100
AcDbSymbolTableRecord
100
AcDbViewportTableRecord
  2
*Active
 70
     0
 10
0.0
 20
0.0
 11
1.0
 21
1.0
 12
521.2581631690821
 22
-575.0818176124863
 13
0.0
 23
0.0
 14
0.5
 24
0.5
 15
0.5
 25
0.5
 16
0.0
 26
0.0
 36
1.0
 17
0.0
 27
0.0
 37
0.0
 40
257.288746944762
 41
1.60267857142857
 42
50.0
 43
0.0
 44
0.0
 50
0.0
 51
0.0
 71
     0
 72
   100
 73
     1
 74
     3
 75
     0
 76
     0
 77
     0
 78
     0
281
     0
 65
     1
110
0.0
120
0.0
130
0.0
111
1.0
121
0.0
131
0.0
112
0.0
122
1.0
132
0.0
 79
     0
146
0.0
  0
ENDTAB
  0
TABLE
  2
LTYPE
  5
5
330
0
100
AcDbSymbolTable
 70
     8
  0
LTYPE
  5
14
330
5
100
AcDbSymbolTableRecord
100
AcDbLinetypeTableRecord
  2
ByBlock
 70
     0
  3

 72
    65
 73
     0
 40
0.0
  0
LTYPE
  5
15
330
5
100
AcDbSymbolTableRecord
100
AcDbLinetypeTableRecord
  2
ByLayer
 70
     0
  3

 72
    65
 73
     0
 40
0.0
  0
LTYPE
  5
16
330
5
100
AcDbSymbolTableRecord
100
AcDbLinetypeTableRecord
  2
Continuous
 70
     0
  3
Solid line
 72
    65
 73
     0
 40
0.0
  0
LTYPE
  5
2A
330
5
100
AcDbSymbolTableRecord
100
AcDbLinetypeTableRecord
  2
DASHED
 70
     0
  3
Dashed
 72
    65
 73
     2
 40
15.0
 49
7.0
 74
     0
 49
-8.0
 74
     0
  0
LTYPE
  5
2B
330
5
100
AcDbSymbolTableRecord
100
AcDbLinetypeTableRecord
  2
DOTTED
 70
     0
  3
Dotted
 72
    65
 73
     2
 40
1.0
 49
0.0
 74
     0
 49
-1.0
 74
     0
  0
LTYPE
  5
2C
330
5
100
AcDbSymbolTableRecord
100
AcDbLinetypeTableRecord
  2
DOT_CENTER
 70
     0
  3
Dot_Center
 72
    65
 73
     4
 40
14.0
 49
12.0
 74
     0
 49
-1.0
 74
     0
 49
0.0
 74
     0
 49
-1.0
 74
     0
  0
LTYPE
  5
2D
330
5
100
AcDbSymbolTableRecord
100
AcDbLinetypeTableRecord
  2
LONG_DASHED
 70
     0
  3
Long_Dashed
 72
    65
 73
     2
 40
15.0
 49
10.0
 74
     0
 49
-5.0
 74
     0
  0
LTYPE
  5
2E
330
5
100
AcDbSymbolTableRecord
100
AcDbLinetypeTableRecord
  2
DASH_CENTER
 70
     0
  3
Dash_Center
 72
    65
 73
     4
 40
14.0
 49
11.0
 74
     0
 49
-1.0
 74
     0
 49
1.0
 74
     0
 49
-1.0
 74
     0
  0
LTYPE
  5
2F
330
5
100
AcDbSymbolTableRecord
100
AcDbLinetypeTableRecord
  2
PHANTOM
 70
     0
  3
Phantom
 72
    65
 73
     6
 40
13.0
 49
10.0
 74
     0
 49
-1.0
 74
     0
 49
0.0
 74
     0
 49
-1.0
 74
     0
 49
0.0
 74
     0
 49
-1.0
 74
     0
  0
LTYPE
  5
30
330
5
100
AcDbSymbolTableRecord
100
AcDbLinetypeTableRecord
  2
CENTER_DASH_DASH
 70
     0
  3
Center_Dash_Dash
 72
    65
 73
     6
 40
14.0
 49
9.0
 74
     0
 49
-1.0
 74
     0
 49
1.0
 74
     0
 49
-1.0
 74
     0
 49
1.0
 74
     0
 49
-1.0
 74
     0
  0
ENDTAB
  0
TABLE
  2
LAYER
  5
2
330
0
100
AcDbSymbolTable
 70
     3
  0
LAYER
  5
10
330
2
100
AcDbSymbolTableRecord
100
AcDbLayerTableRecord
  2
0
 70
     0
 62
     7
  6
Continuous
370
    -3
390
F
  0
LAYER
  5
31
330
2
100
AcDbSymbolTableRecord
100
AcDbLayerTableRecord
  2
1
 70
     0
 62
     7
  6
Continuous
370
    -3
390
F
  0
LAYER
  5
32
330
2
100
AcDbSymbolTableRecord
100
AcDbLayerTableRecord
  2
6_ALL_DRFT_GEOM
 70
     0
 62
     7
  6
Continuous
370
    -3
390
F
  0
ENDTAB
  0
TABLE
  2
STYLE
  5
3
330
0
100
AcDbSymbolTable
 70
     6
  0
STYLE
  5
11
330
3
100
AcDbSymbolTableRecord
100
AcDbTextStyleTableRecord
  2
Standard
 70
     0
 40
0.0
 41
1.0
 50
0.0
 71
     0
 42
0.2
  3
txt
  4

  0
STYLE
  5
52
330
3
100
AcDbSymbolTableRecord
100
AcDbTextStyleTableRecord
  2
CONVERTER_1
 70
     0
 40
0.0
 41
0.9
 50
0.0
 71
     0
 42
0.2
  3
txt.shx
  4

  0
STYLE
  5
2B6
330
3
100
AcDbSymbolTableRecord
100
AcDbTextStyleTableRecord
  2
CONVERTER_2
 70
     0
 40
0.0
 41
1.08
 50
0.0
 71
     0
 42
0.2
  3
txt.shx
  4

  0
STYLE
  5
2B8
330
3
100
AcDbSymbolTableRecord
100
AcDbTextStyleTableRecord
  2
CONVERTER_3
 70
     0
 40
0.0
 41
0.855
 50
0.0
 71
     0
 42
0.2
  3
complex.shx
  4

  0
STYLE
  5
2BA
330
3
100
AcDbSymbolTableRecord
100
AcDbTextStyleTableRecord
  2
CONVERTER_4
 70
     0
 40
0.0
 41
0.9975
 50
0.0
 71
     0
 42
0.2
  3
complex.shx
  4

  0
STYLE
  5
2BC
330
3
100
AcDbSymbolTableRecord
100
AcDbTextStyleTableRecord
  2
CONVERTER_5
 70
     0
 40
0.0
 41
0.95
 50
0.0
 71
     0
 42
0.2
  3
complex.shx
  4

  0
ENDTAB
  0
TABLE
  2
VIEW
  5
6
330
0
100
AcDbSymbolTable
 70
     0
  0
ENDTAB
  0
TABLE
  2
UCS
  5
7
330
0
100
AcDbSymbolTable
 70
     0
  0
ENDTAB
  0
TABLE
  2
APPID
  5
9
330
0
100
AcDbSymbolTable
 70
     1
  0
APPID
  5
12
330
9
100
AcDbSymbolTableRecord
100
AcDbRegAppTableRecord
  2
ACAD
 70
     0
  0
ENDTAB
  0
TABLE
  2
DIMSTYLE
  5
A
330
0
100
AcDbSymbolTable
 70
     6
100
AcDbDimStyleTable
  0
DIMSTYLE
105
27
330
A
100
AcDbSymbolTableRecord
100
AcDbDimStyleTableRecord
  2
Standard
 70
     0
340
11
  0
DIMSTYLE
105
2D0
102
{ACAD_REACTORS
330
2D1
102
}
330
A
100
AcDbSymbolTableRecord
100
AcDbDimStyleTableRecord
  2
ME10_DIM_0
 70
     0
 41
3.5
 42
1.0
 44
1.0
 73
     0
 74
     0
 77
     1
 78
     8
140
3.5
147
1.6
172
     1
173
     1
176
     2
177
     2
178
     2
271
     3
340
52
343
2CA
344
2CA
  0
DIMSTYLE
105
2DD
102
{ACAD_REACTORS
330
2DE
102
}
330
A
100
AcDbSymbolTableRecord
100
AcDbDimStyleTableRecord
  2
ME10_DIM_1
 70
     0
 41
3.5
 42
1.0
 44
1.0
 73
     0
 74
     0
 77
     1
 78
     8
140
3.5
147
1.6
172
     1
173
     1
176
     2
177
     2
178
     2
271
     3
340
52
343
2CA
344
2CA
  0
DIMSTYLE
105
2EA
102
{ACAD_REACTORS
330
2EB
102
}
330
A
100
AcDbSymbolTableRecord
100
AcDbDimStyleTableRecord
  2
ME10_DIM_2
 70
     0
 41
3.5
 42
1.0
 44
1.0
 73
     0
 74
     0
 77
     1
 78
     8
140
3.5
147
1.6
172
     1
173
     1
176
     2
177
     2
178
     2
271
     3
340
52
343
2CA
344
2CA
  0
DIMSTYLE
105
2F7
102
{ACAD_REACTORS
330
2F8
102
}
330
A
100
AcDbSymbolTableRecord
100
AcDbDimStyleTableRecord
  2
ME10_DIM_3
 70
     0
 41
3.5
 42
1.0
 44
1.0
 73
     0
 74
     0
 77
     1
 78
     8
140
3.5
147
1.6
172
     1
173
     1
176
     2
177
     2
178
     2
271
     3
340
52
343
2CA
344
2CA
  0
DIMSTYLE
105
304
102
{ACAD_REACTORS
330
305
102
}
330
A
100
AcDbSymbolTableRecord
100
AcDbDimStyleTableRecord
  2
ME10_DIM_4
 70
     0
 41
3.5
 42
1.0
 44
1.0
 73
     0
 74
     0
 77
     1
 78
     8
140
3.5
147
1.6
172
     1
173
     1
176
     2
177
     2
178
     2
271
     3
340
52
343
2CA
344
2CA
  0
ENDTAB
  0
TABLE
  2
BLOCK_RECORD
  5
1
330
0
100
AcDbSymbolTable
 70
    12
  0
BLOCK_RECORD
  5
1F
330
1
100
AcDbSymbolTableRecord
100
AcDbBlockTableRecord
  2
*Model_Space
340
22
  0
BLOCK_RECORD
  5
1B
330
1
100
AcDbSymbolTableRecord
100
AcDbBlockTableRecord
  2
*Paper_Space
340
1E
  0
BLOCK_RECORD
  5
23
330
1
100
AcDbSymbolTableRecord
100
AcDbBlockTableRecord
  2
*Paper_Space0
340
26
  0
BLOCK_RECORD
  5
33
330
1
100
AcDbSymbolTableRecord
100
AcDbBlockTableRecord
  2
TOP
340
0
102
{BLKREFS
331
42
102
}
  0
BLOCK_RECORD
  5
36
330
1
100
AcDbSymbolTableRecord
100
AcDbBlockTableRecord
  2
_5
340
0
102
{BLKREFS
331
43
102
}
  0
BLOCK_RECORD
  5
39
330
1
100
AcDbSymbolTableRecord
100
AcDbBlockTableRecord
  2
_4
340
0
102
{BLKREFS
331
44
102
}
  0
BLOCK_RECORD
  5
3C
330
1
100
AcDbSymbolTableRecord
100
AcDbBlockTableRecord
  2
_2
340
0
102
{BLKREFS
331
45
102
}
  0
BLOCK_RECORD
  5
3F
330
1
100
AcDbSymbolTableRecord
100
AcDbBlockTableRecord
  2
_7
340
0
102
{BLKREFS
331
46
102
}
  0
BLOCK_RECORD
  5
2BF
330
1
100
AcDbSymbolTableRecord
100
AcDbBlockTableRecord
  2
*D06
340
0
  0
BLOCK_RECORD
  5
2CA
330
1
100
AcDbSymbolTableRecord
100
AcDbBlockTableRecord
  2
_Open30
340
0
  0
BLOCK_RECORD
  5
2D2
330
1
100
AcDbSymbolTableRecord
100
AcDbBlockTableRecord
  2
*D18
340
0
  0
BLOCK_RECORD
  5
2DF
330
1
100
AcDbSymbolTableRecord
100
AcDbBlockTableRecord
  2
*D29
340
0
  0
BLOCK_RECORD
  5
2EC
330
1
100
AcDbSymbolTableRecord
100
AcDbBlockTableRecord
  2
*D310
340
0
  0
BLOCK_RECORD
  5
2F9
330
1
100
AcDbSymbolTableRecord
100
AcDbBlockTableRecord
  2
*D411
340
0
  0
ENDTAB
  0
ENDSEC
  0
SECTION
  2
BLOCKS
  0
BLOCK
  5
20
330
1F
100
AcDbEntity
  8
0
100
AcDbBlockBegin
  2
*Model_Space
 70
     0
 71
     0
 10
0.0
 20
0.0
 30
0.0
  3
*Model_Space
  1

  0
ENDBLK
  5
21
330
1F
100
AcDbEntity
  8
0
100
AcDbBlockEnd
  0
BLOCK
  5
1C
330
1B
100
AcDbEntity
 67
     1
  8
0
100
AcDbBlockBegin
  2
*Paper_Space
 70
     0
 71
     0
 10
0.0
 20
0.0
 30
0.0
  3
*Paper_Space
  1

  0
ENDBLK
  5
1D
330
1B
100
AcDbEntity
 67
     1
  8
0
100
AcDbBlockEnd
  0
BLOCK
  5
24
330
23
100
AcDbEntity
  8
0
100
AcDbBlockBegin
  2
*Paper_Space0
 70
     0
 71
     0
 10
0.0
 20
0.0
 30
0.0
  3
*Paper_Space0
  1

  0
ENDBLK
  5
25
330
23
100
AcDbEntity
  8
0
100
AcDbBlockEnd
  0
BLOCK
  5
34
330
33
100
AcDbEntity
  8
0
100
AcDbBlockBegin
  2
TOP
 70
     0
 71
     0
 10
371.772968345943
 20
-1216.62614457102
 30
0.0
  3
TOP
  1

  0
POINT
  5
47
330
33
100
AcDbEntity
  8
1
 62
     3
 60
     1
100
AcDbPoint
 10
564.4104846645847
 20
-1301.882332624415
 30
0.0
  0
POINT
  5
48
330
33
100
AcDbEntity
  8
1
 62
     3
 60
     1
100
AcDbPoint
 10
564.4104846645847
 20
-1277.882332624415
 30
0.0
  0
LINE
  5
49
330
33
100
AcDbEntity
  8
6_ALL_DRFT_GEOM
  6
Continuous
 62
     3
100
AcDbLine
 10
471.6499687185769
 20
-495.3117441447714
 30
0.0
 11
471.6499687185769
 21
-500.2117441447715
 31
0.0
  0
LINE
  5
4A
330
33
100
AcDbEntity
  8
6_ALL_DRFT_GEOM
  6
Continuous
 62
     3
100
AcDbLine
 10
484.049968718577
 20
-487.8117441447715
 30
0.0
 11
479.1499687185769
 21
-487.8117441447715
 31
0.0
  0
LINE
  5
4B
330
33
100
AcDbEntity
  8
6_ALL_DRFT_GEOM
  6
Continuous
 62
     3
100
AcDbLine
 10
469.1499687185769
 20
-489.8117441447715
 30
0.0
 11
469.1499687185769
 21
-485.8117441447715
 31
0.0
  0
LINE
  5
4C
330
33
100
AcDbEntity
  8
6_ALL_DRFT_GEOM
  6
Continuous
 62
     3
100
AcDbLine
 10
469.1499687185769
 20
-485.8117441447715
 30
0.0
 11
475.1499687185769
 21
-487.8117441447715
 31
0.0
  0
LINE
  5
4D
330
33
100
AcDbEntity
  8
6_ALL_DRFT_GEOM
  6
Continuous
 62
     3
100
AcDbLine
 10
475.1499687185769
 20
-487.8117441447715
 30
0.0
 11
469.1499687185769
 21
-489.8117441447715
 31
0.0
  0
ARC
  5
4E
330
33
100
AcDbEntity
  8
6_ALL_DRFT_GEOM
  6
Continuous
 62
     3
100
AcDbCircle
 10
471.649968718577
 20
-487.8117441447715
 30
0.0
 40
7.499999999999886
100
AcDbArc
 50
-90.00000000000088
 51
0.0
  0
ARC
  5
4F
330
33
100
AcDbEntity
  8
1
  6
Continuous
 62
     3
100
AcDbCircle
 10
474.2831860175638
 20
-485.66466341243
 30
0.0
 40
9.999999999999847
100
AcDbArc
 50
-105.2672535353403
 51
-12.39840117245493
  0
CIRCLE
  5
50
330
33
100
AcDbEntity
  8
1
  6
Continuous
 62
     3
100
AcDbCircle
 10
471.649968718577
 20
-487.8117441447715
 30
0.0
 40
13.0
  0
LWPOLYLINE
  5
51
330
33
100
AcDbEntity
  8
6_ALL_DRFT_GEOM
  6
Continuous
 62
     3
 60
     1
100
AcDbPolyline
 90
        4
 70
     0
 43
0.0
 10
469.1499687906769
 20
-485.8117441447715
 10
469.1499687906769
 20
-489.8117441447715
 10
475.1499687185769
 20
-487.8117441447715
 10
469.1499687906769
 20
-485.8117441447715
  0
MTEXT
  5
53
330
33
100
AcDbEntity
  8
0
 62
     3
100
AcDbMText
 10
479.0161471273768
 20
-480.9227844453716
 30
0.0
 40
3.0
 41
0.0
 71
     7
 72
     1
  1
100
  7
CONVERTER_1
 11
0.0
 21
-1.0
 31
0.0
 73
     1
 44
0.60024009603842
  0
MTEXT
  5
54
330
33
100
AcDbEntity
  8
0
 62
     3
100
AcDbMText
 10
470.7785748182769
 20
-496.6801804606715
 30
0.0
 40
3.0
 41
0.0
 71
     7
 72
     1
  1
0
  7
CONVERTER_1
 11
-1.0
 21
1.836909530733566E-16
 31
0.0
 73
     1
 44
0.60024009603842
  0
ENDBLK
  5
35
330
33
100
AcDbEntity
  8
0
100
AcDbBlockEnd
  0
BLOCK
  5
37
330
36
100
AcDbEntity
  8
0
100
AcDbBlockBegin
  2
_5
 70
     0
 71
     0
 10
342.880174469531
 20
-262.13030285773
 30
0.0
  3
_5
  1

  0
LINE
  5
55
330
36
100
AcDbEntity
  8
1
  6
Continuous
 62
     3
100
AcDbLine
 10
467.9842491439231
 20
-483.0617441447715
 30
0.0
 11
475.3156882932306
 21
-483.0617441447715
 31
0.0
  0
LINE
  5
56
330
36
100
AcDbEntity
  8
1
  6
Continuous
 62
     3
100
AcDbLine
 10
475.3156882932306
 20
-492.5617441447715
 30
0.0
 11
467.9842491439231
 21
-492.5617441447715
 31
0.0
  0
LINE
  5
57
330
36
100
AcDbEntity
  8
1
  6
Continuous
 62
     3
100
AcDbLine
 10
476.399968718577
 20
-484.1460245701177
 30
0.0
 11
476.399968718577
 21
-486.8117441447715
 31
0.0
  0
LINE
  5
58
330
36
100
AcDbEntity
  8
1
  6
Continuous
 62
     3
100
AcDbLine
 10
466.899968718577
 20
-491.4774637194254
 30
0.0
 11
466.899968718577
 21
-484.1460245701177
 31
0.0
  0
LINE
  5
59
330
36
100
AcDbEntity
  8
1
  6
Continuous
 62
     3
100
AcDbLine
 10
476.399968718577
 20
-486.8117441447715
 30
0.0
 11
476.399968718577
 21
-491.4774637194254
 31
0.0
  0
LINE
  5
5A
330
36
100
AcDbEntity
  8
1
  6
Continuous
 62
     3
100
AcDbLine
 10
564.1905092591177
 20
-551.3117441447716
 30
0.0
 11
564.1905092591178
 21
-554.8117441447715
 31
0.0
  0
LINE
  5
5B
330
36
100
AcDbEntity
  8
1
  6
Continuous
 62
     3
100
AcDbLine
 10
576.1905092591177
 20
-551.3117441447716
 30
0.0
 11
576.1905092591177
 21
-554.8117441447715
 31
0.0
  0
LINE
  5
5C
330
36
100
AcDbEntity
  8
1
  6
Continuous
 62
     3
100
AcDbLine
 10
574.9405092591178
 20
-542.8117441447715
 30
0.0
 11
574.9405092591177
 21
-551.3117441447716
 31
0.0
  0
LINE
  5
5D
330
36
100
AcDbEntity
  8
1
  6
Continuous
 62
     3
100
AcDbLine
 10
565.4405092591177
 20
-551.3117441447716
 30
0.0
 11
564.1905092591177
 21
-551.3117441447716
 31
0.0
  0
LINE
  5
5E
330
36
100
AcDbEntity
  8
1
  6
Continuous
 62
     3
100
AcDbLine
 10
574.9405092591177
 20
-551.3117441447716
 30
0.0
 11
573.8562288337714
 21
-551.3117441447716
 31
0.0
  0
LINE
  5
5F
330
36
100
AcDbEntity
  8
1
  6
Continuous
 62
     3
100
AcDbLine
 10
576.1905092591177
 20
-551.3117441447716
 30
0.0
 11
574.9405092591177
 21
-551.3117441447716
 31
0.0
  0
LINE
  5
60
330
36
100
AcDbEntity
  8
1
  6
Continuous
 62
     3
100
AcDbLine
 10
574.9405092591178
 20
-541.6004192793662
 30
0.0
 11
574.9405092591177
 21
-542.3217441447716
 31
0.0
  0
LINE
  5
61
330
36
100
AcDbEntity
  8
1
  6
Continuous
 62
     3
100
AcDbLine
 10
574.4405092591177
 20
-541.3117441447715
 30
0.0
 11
565.9405092591177
 21
-541.3117441447715
 31
0.0
  0
LINE
  5
62
330
36
100
AcDbEntity
  8
1
  6
Continuous
 62
     3
100
AcDbLine
 10
573.8562288337714
 20
-551.3117441447716
 30
0.0
 11
573.8562288337714
 21
-542.3217441447716
 31
0.0
  0
LINE
  5
63
330
36
100
AcDbEntity
  8
1
  6
Continuous
 62
     3
100
AcDbLine
 10
565.4405092591177
 20
-551.3117441447716
 30
0.0
 11
565.4405092591177
 21
-542.3217441447716
 31
0.0
  0
LINE
  5
64
330
36
100
AcDbEntity
  8
1
  6
Continuous
 62
     3
100
AcDbLine
 10
574.9405092591178
 20
-541.6004192793662
 30
0.0
 11
574.4405092591177
 21
-541.3117441447715
 31
0.0
  0
LINE
  5
65
330
36
100
AcDbEntity
  8
1
  6
Continuous
 62
     3
100
AcDbLine
 10
565.9405092591177
 20
-541.3117441447715
 30
0.0
 11
565.4405092591177
 21
-541.6004192793662
 31
0.0
  0
LINE
  5
66
330
36
100
AcDbEntity
  8
1
  6
Continuous
 62
     3
100
AcDbLine
 10
566.5247896844638
 20
-542.3217441447716
 30
0.0
 11
565.4405092591177
 21
-542.3217441447716
 31
0.0
  0
LINE
  5
67
330
36
100
AcDbEntity
  8
1
  6
Continuous
 62
     3
100
AcDbLine
 10
566.5247896844638
 20
-542.3217441447716
 30
0.0
 11
566.5247896844638
 21
-551.3117441447716
 31
0.0
  0
LINE
  5
68
330
36
100
AcDbEntity
  8
1
  6
Continuous
 62
     3
100
AcDbLine
 10
565.4405092591177
 20
-542.3217441447716
 30
0.0
 11
565.4405092591177
 21
-541.6004192793662
 31
0.0
  0
LINE
  5
69
330
36
100
AcDbEntity
  8
1
  6
Continuous
 62
     3
100
AcDbLine
 10
574.9405092591177
 20
-542.3217441447716
 30
0.0
 11
573.8562288337714
 21
-542.3217441447716
 31
0.0
  0
LINE
  5
6A
330
36
100
AcDbEntity
  8
1
  6
Continuous
 62
     3
100
AcDbLine
 10
574.9405092591177
 20
-542.3217441447716
 30
0.0
 11
574.9405092591178
 21
-542.8117441447715
 31
0.0
  0
LINE
  5
6B
330
36
100
AcDbEntity
  8
1
  6
Continuous
 62
     1
100
AcDbLine
 10
573.8562288337714
 20
-542.3217441447716
 30
0.0
 11
566.5247896844638
 21
-551.3117441447716
 31
0.0
  0
LINE
  5
6C
330
36
100
AcDbEntity
  8
1
  6
Continuous
 62
     3
100
AcDbLine
 10
566.5247896844638
 20
-551.3117441447716
 30
0.0
 11
565.4405092591177
 21
-551.3117441447716
 31
0.0
  0
LINE
  5
6D
330
36
100
AcDbEntity
  8
1
  6
Continuous
 62
     1
100
AcDbLine
 10
573.8562288337714
 20
-551.3117441447716
 30
0.0
 11
566.5247896844638
 21
-542.3217441447716
 31
0.0
  0
LINE
  5
6E
330
36
100
AcDbEntity
  8
1
  6
Continuous
 62
     3
100
AcDbLine
 10
573.8562288337714
 20
-551.3117441447716
 30
0.0
 11
566.5247896844638
 21
-551.3117441447716
 31
0.0
  0
LINE
  5
6F
330
36
100
AcDbEntity
  8
1
  6
Continuous
 62
     3
100
AcDbLine
 10
366.7751477526905
 20
-551.3117441447716
 30
0.0
 11
359.4437086033829
 21
-551.3117441447716
 31
0.0
  0
LINE
  5
70
330
36
100
AcDbEntity
  8
1
  6
Continuous
 62
     1
100
AcDbLine
 10
366.7751477526905
 20
-551.3117441447716
 30
0.0
 11
359.4437086033829
 21
-542.3217441447716
 31
0.0
  0
LINE
  5
71
330
36
100
AcDbEntity
  8
1
  6
Continuous
 62
     3
100
AcDbLine
 10
359.4437086033829
 20
-551.3117441447716
 30
0.0
 11
358.3594281780368
 21
-551.3117441447716
 31
0.0
  0
LINE
  5
72
330
36
100
AcDbEntity
  8
1
  6
Continuous
 62
     1
100
AcDbLine
 10
366.7751477526905
 20
-542.3217441447716
 30
0.0
 11
359.4437086033829
 21
-551.3117441447716
 31
0.0
  0
LINE
  5
73
330
36
100
AcDbEntity
  8
1
  6
Continuous
 62
     3
100
AcDbLine
 10
367.8594281780368
 20
-542.3217441447716
 30
0.0
 11
367.8594281780368
 21
-542.8117441447715
 31
0.0
  0
LINE
  5
74
330
36
100
AcDbEntity
  8
1
  6
Continuous
 62
     3
100
AcDbLine
 10
367.8594281780368
 20
-542.3217441447716
 30
0.0
 11
366.7751477526905
 21
-542.3217441447716
 31
0.0
  0
LINE
  5
75
330
36
100
AcDbEntity
  8
1
  6
Continuous
 62
     3
100
AcDbLine
 10
358.3594281780368
 20
-542.3217441447716
 30
0.0
 11
358.3594281780368
 21
-541.6004192793662
 31
0.0
  0
LINE
  5
76
330
36
100
AcDbEntity
  8
1
  6
Continuous
 62
     3
100
AcDbLine
 10
359.4437086033829
 20
-542.3217441447716
 30
0.0
 11
359.4437086033829
 21
-551.3117441447716
 31
0.0
  0
LINE
  5
77
330
36
100
AcDbEntity
  8
1
  6
Continuous
 62
     3
100
AcDbLine
 10
359.4437086033829
 20
-542.3217441447716
 30
0.0
 11
358.3594281780368
 21
-542.3217441447716
 31
0.0
  0
LINE
  5
78
330
36
100
AcDbEntity
  8
1
  6
Continuous
 62
     3
100
AcDbLine
 10
358.8594281780368
 20
-541.3117441447715
 30
0.0
 11
358.3594281780368
 21
-541.6004192793662
 31
0.0
  0
LINE
  5
79
330
36
100
AcDbEntity
  8
1
  6
Continuous
 62
     3
100
AcDbLine
 10
367.8594281780368
 20
-541.6004192793662
 30
0.0
 11
367.3594281780368
 21
-541.3117441447715
 31
0.0
  0
LINE
  5
7A
330
36
100
AcDbEntity
  8
1
  6
Continuous
 62
     3
100
AcDbLine
 10
358.3594281780368
 20
-551.3117441447716
 30
0.0
 11
358.3594281780368
 21
-542.3217441447716
 31
0.0
  0
LINE
  5
7B
330
36
100
AcDbEntity
  8
1
  6
Continuous
 62
     3
100
AcDbLine
 10
366.7751477526905
 20
-551.3117441447716
 30
0.0
 11
366.7751477526905
 21
-542.3217441447716
 31
0.0
  0
LINE
  5
7C
330
36
100
AcDbEntity
  8
1
  6
Continuous
 62
     3
100
AcDbLine
 10
367.3594281780368
 20
-541.3117441447715
 30
0.0
 11
358.8594281780368
 21
-541.3117441447715
 31
0.0
  0
LINE
  5
7D
330
36
100
AcDbEntity
  8
1
  6
Continuous
 62
     3
100
AcDbLine
 10
367.8594281780368
 20
-541.6004192793662
 30
0.0
 11
367.8594281780368
 21
-542.3217441447716
 31
0.0
  0
LINE
  5
7E
330
36
100
AcDbEntity
  8
1
  6
Continuous
 62
     3
100
AcDbLine
 10
369.1094281780368
 20
-551.3117441447716
 30
0.0
 11
367.8594281780368
 21
-551.3117441447716
 31
0.0
  0
LINE
  5
7F
330
36
100
AcDbEntity
  8
1
  6
Continuous
 62
     3
100
AcDbLine
 10
367.8594281780368
 20
-551.3117441447716
 30
0.0
 11
366.7751477526905
 21
-551.3117441447716
 31
0.0
  0
LINE
  5
80
330
36
100
AcDbEntity
  8
1
  6
Continuous
 62
     3
100
AcDbLine
 10
358.3594281780368
 20
-551.3117441447716
 30
0.0
 11
357.1094281780368
 21
-551.3117441447716
 31
0.0
  0
LINE
  5
81
330
36
100
AcDbEntity
  8
1
  6
Continuous
 62
     3
100
AcDbLine
 10
367.8594281780368
 20
-542.8117441447715
 30
0.0
 11
367.8594281780368
 21
-551.3117441447716
 31
0.0
  0
LINE
  5
82
330
36
100
AcDbEntity
  8
1
  6
Continuous
 62
     3
100
AcDbLine
 10
369.1094281780368
 20
-551.3117441447716
 30
0.0
 11
369.1094281780368
 21
-554.8117441447715
 31
0.0
  0
LINE
  5
83
330
36
100
AcDbEntity
  8
1
  6
Continuous
 62
     3
100
AcDbLine
 10
357.1094281780368
 20
-551.3117441447716
 30
0.0
 11
357.1094281780368
 21
-554.8117441447715
 31
0.0
  0
LINE
  5
84
330
36
100
AcDbEntity
  8
1
  6
Continuous
 62
     3
100
AcDbLine
 10
476.3999687185771
 20
-542.8117441447715
 30
0.0
 11
476.399968718577
 21
-551.3117441447716
 31
0.0
  0
LINE
  5
85
330
36
100
AcDbEntity
  8
1
  6
Continuous
 62
     3
100
AcDbLine
 10
476.399968718577
 20
-551.3117441447716
 30
0.0
 11
475.3156882932307
 21
-551.3117441447716
 31
0.0
  0
LINE
  5
86
330
36
100
AcDbEntity
  8
1
  6
Continuous
 62
     3
100
AcDbLine
 10
477.649968718577
 20
-551.3117441447716
 30
0.0
 11
476.399968718577
 21
-551.3117441447716
 31
0.0
  0
LINE
  5
87
330
36
100
AcDbEntity
  8
1
  6
Continuous
 62
     3
100
AcDbLine
 10
476.3999687185771
 20
-541.6004192793662
 30
0.0
 11
476.399968718577
 21
-542.3217441447716
 31
0.0
  0
LINE
  5
88
330
36
100
AcDbEntity
  8
1
  6
Continuous
 62
     3
100
AcDbLine
 10
475.899968718577
 20
-541.3117441447715
 30
0.0
 11
467.399968718577
 21
-541.3117441447715
 31
0.0
  0
LINE
  5
89
330
36
100
AcDbEntity
  8
1
  6
Continuous
 62
     3
100
AcDbLine
 10
475.3156882932307
 20
-551.3117441447716
 30
0.0
 11
475.3156882932307
 21
-542.3217441447716
 31
0.0
  0
LINE
  5
8A
330
36
100
AcDbEntity
  8
1
  6
Continuous
 62
     3
100
AcDbLine
 10
466.899968718577
 20
-551.3117441447716
 30
0.0
 11
466.899968718577
 21
-542.3217441447716
 31
0.0
  0
LINE
  5
8B
330
36
100
AcDbEntity
  8
1
  6
Continuous
 62
     3
100
AcDbLine
 10
476.3999687185771
 20
-541.6004192793662
 30
0.0
 11
475.899968718577
 21
-541.3117441447715
 31
0.0
  0
LINE
  5
8C
330
36
100
AcDbEntity
  8
1
  6
Continuous
 62
     3
100
AcDbLine
 10
467.399968718577
 20
-541.3117441447715
 30
0.0
 11
466.899968718577
 21
-541.6004192793662
 31
0.0
  0
LINE
  5
8D
330
36
100
AcDbEntity
  8
1
  6
Continuous
 62
     3
100
AcDbLine
 10
467.9842491439231
 20
-542.3217441447716
 30
0.0
 11
466.899968718577
 21
-542.3217441447716
 31
0.0
  0
LINE
  5
8E
330
36
100
AcDbEntity
  8
1
  6
Continuous
 62
     3
100
AcDbLine
 10
467.9842491439231
 20
-542.3217441447716
 30
0.0
 11
467.9842491439231
 21
-551.3117441447716
 31
0.0
  0
LINE
  5
8F
330
36
100
AcDbEntity
  8
1
  6
Continuous
 62
     3
100
AcDbLine
 10
466.899968718577
 20
-542.3217441447716
 30
0.0
 11
466.899968718577
 21
-541.6004192793662
 31
0.0
  0
LINE
  5
90
330
36
100
AcDbEntity
  8
1
  6
Continuous
 62
     3
100
AcDbLine
 10
476.399968718577
 20
-542.3217441447716
 30
0.0
 11
475.3156882932307
 21
-542.3217441447716
 31
0.0
  0
LINE
  5
91
330
36
100
AcDbEntity
  8
1
  6
Continuous
 62
     3
100
AcDbLine
 10
476.399968718577
 20
-542.3217441447716
 30
0.0
 11
476.3999687185771
 21
-542.8117441447715
 31
0.0
  0
LINE
  5
92
330
36
100
AcDbEntity
  8
1
  6
Continuous
 62
     1
100
AcDbLine
 10
475.3156882932307
 20
-542.3217441447716
 30
0.0
 11
467.9842491439231
 21
-551.3117441447716
 31
0.0
  0
LINE
  5
93
330
36
100
AcDbEntity
  8
1
  6
Continuous
 62
     3
100
AcDbLine
 10
467.9842491439231
 20
-551.3117441447716
 30
0.0
 11
466.899968718577
 21
-551.3117441447716
 31
0.0
  0
LINE
  5
94
330
36
100
AcDbEntity
  8
1
  6
Continuous
 62
     1
100
AcDbLine
 10
475.3156882932307
 20
-551.3117441447716
 30
0.0
 11
467.9842491439231
 21
-542.3217441447716
 31
0.0
  0
LINE
  5
95
330
36
100
AcDbEntity
  8
1
  6
Continuous
 62
     3
100
AcDbLine
 10
475.3156882932307
 20
-551.3117441447716
 30
0.0
 11
467.9842491439231
 21
-551.3117441447716
 31
0.0
  0
LINE
  5
96
330
36
100
AcDbEntity
  8
1
  6
Continuous
 62
     3
100
AcDbLine
 10
477.649968718577
 20
-551.3117441447716
 30
0.0
 11
477.649968718577
 21
-554.8117441447715
 31
0.0
  0
LINE
  5
97
330
36
100
AcDbEntity
  8
1
  6
Continuous
 62
     3
100
AcDbLine
 10
465.649968718577
 20
-551.3117441447716
 30
0.0
 11
465.6499687185771
 21
-554.8117441447715
 31
0.0
  0
LINE
  5
98
330
36
100
AcDbEntity
  8
1
  6
Continuous
 62
     3
100
AcDbLine
 10
466.899968718577
 20
-551.3117441447716
 30
0.0
 11
465.649968718577
 21
-551.3117441447716
 31
0.0
  0
LINE
  5
99
330
36
100
AcDbEntity
  8
1
  6
Continuous
 62
     3
100
AcDbLine
 10
667.3562288337716
 20
-551.3117441447716
 30
0.0
 11
660.0247896844641
 21
-551.3117441447716
 31
0.0
  0
LINE
  5
9A
330
36
100
AcDbEntity
  8
1
  6
Continuous
 62
     1
100
AcDbLine
 10
667.3562288337716
 20
-542.3217441447716
 30
0.0
 11
660.0247896844641
 21
-551.3117441447716
 31
0.0
  0
LINE
  5
9B
330
36
100
AcDbEntity
  8
1
  6
Continuous
 62
     3
100
AcDbLine
 10
668.4405092591179
 20
-551.3117441447716
 30
0.0
 11
667.3562288337716
 21
-551.3117441447716
 31
0.0
  0
LINE
  5
9C
330
36
100
AcDbEntity
  8
1
  6
Continuous
 62
     1
100
AcDbLine
 10
667.3562288337716
 20
-551.3117441447716
 30
0.0
 11
660.0247896844641
 21
-542.3217441447716
 31
0.0
  0
LINE
  5
9D
330
36
100
AcDbEntity
  8
1
  6
Continuous
 62
     3
100
AcDbLine
 10
658.9405092591179
 20
-542.8117441447715
 30
0.0
 11
658.9405092591179
 21
-542.3217441447716
 31
0.0
  0
LINE
  5
9E
330
36
100
AcDbEntity
  8
1
  6
Continuous
 62
     3
100
AcDbLine
 10
660.0247896844641
 20
-542.3217441447716
 30
0.0
 11
658.9405092591179
 21
-542.3217441447716
 31
0.0
  0
LINE
  5
9F
330
36
100
AcDbEntity
  8
1
  6
Continuous
 62
     3
100
AcDbLine
 10
668.4405092591179
 20
-541.6004192793662
 30
0.0
 11
668.4405092591179
 21
-542.3217441447716
 31
0.0
  0
LINE
  5
A0
330
36
100
AcDbEntity
  8
1
  6
Continuous
 62
     3
100
AcDbLine
 10
667.3562288337716
 20
-551.3117441447716
 30
0.0
 11
667.3562288337716
 21
-542.3217441447716
 31
0.0
  0
LINE
  5
A1
330
36
100
AcDbEntity
  8
1
  6
Continuous
 62
     3
100
AcDbLine
 10
668.4405092591179
 20
-542.3217441447716
 30
0.0
 11
667.3562288337716
 21
-542.3217441447716
 31
0.0
  0
LINE
  5
A2
330
36
100
AcDbEntity
  8
1
  6
Continuous
 62
     3
100
AcDbLine
 10
668.4405092591179
 20
-541.6004192793662
 30
0.0
 11
667.9405092591179
 21
-541.3117441447715
 31
0.0
  0
LINE
  5
A3
330
36
100
AcDbEntity
  8
1
  6
Continuous
 62
     3
100
AcDbLine
 10
659.4405092591179
 20
-541.3117441447715
 30
0.0
 11
658.9405092591179
 21
-541.6004192793662
 31
0.0
  0
LINE
  5
A4
330
36
100
AcDbEntity
  8
1
  6
Continuous
 62
     3
100
AcDbLine
 10
668.4405092591179
 20
-542.3217441447716
 30
0.0
 11
668.4405092591179
 21
-551.3117441447716
 31
0.0
  0
LINE
  5
A5
330
36
100
AcDbEntity
  8
1
  6
Continuous
 62
     3
100
AcDbLine
 10
660.0247896844641
 20
-542.3217441447716
 30
0.0
 11
660.0247896844641
 21
-551.3117441447716
 31
0.0
  0
LINE
  5
A6
330
36
100
AcDbEntity
  8
1
  6
Continuous
 62
     3
100
AcDbLine
 10
667.9405092591179
 20
-541.3117441447715
 30
0.0
 11
659.4405092591179
 21
-541.3117441447715
 31
0.0
  0
LINE
  5
A7
330
36
100
AcDbEntity
  8
1
  6
Continuous
 62
     3
100
AcDbLine
 10
658.9405092591179
 20
-542.3217441447716
 30
0.0
 11
658.9405092591179
 21
-541.6004192793662
 31
0.0
  0
LINE
  5
A8
330
36
100
AcDbEntity
  8
1
  6
Continuous
 62
     3
100
AcDbLine
 10
660.0247896844641
 20
-551.3117441447716
 30
0.0
 11
658.9405092591179
 21
-551.3117441447716
 31
0.0
  0
LINE
  5
A9
330
36
100
AcDbEntity
  8
1
  6
Continuous
 62
     3
100
AcDbLine
 10
658.9405092591179
 20
-551.3117441447716
 30
0.0
 11
658.9405092591179
 21
-542.8117441447715
 31
0.0
  0
LINE
  5
AA
330
36
100
AcDbEntity
  8
1
  6
Continuous
 62
     3
100
AcDbLine
 10
669.6905092591179
 20
-554.8117441447715
 30
0.0
 11
669.6905092591179
 21
-551.3117441447716
 31
0.0
  0
LINE
  5
AB
330
36
100
AcDbEntity
  8
1
  6
Continuous
 62
     3
100
AcDbLine
 10
669.6905092591179
 20
-551.3117441447716
 30
0.0
 11
668.4405092591179
 21
-551.3117441447716
 31
0.0
  0
LINE
  5
AC
330
36
100
AcDbEntity
  8
1
  6
Continuous
 62
     3
100
AcDbLine
 10
658.9405092591179
 20
-551.3117441447716
 30
0.0
 11
657.6905092591179
 21
-551.3117441447716
 31
0.0
  0
LINE
  5
AD
330
36
100
AcDbEntity
  8
1
  6
Continuous
 62
     3
100
AcDbLine
 10
657.6905092591179
 20
-554.8117441447715
 30
0.0
 11
657.6905092591179
 21
-551.3117441447716
 31
0.0
  0
ARC
  5
AE
330
36
100
AcDbEntity
  8
1
  6
Continuous
 62
     3
100
AcDbCircle
 10
570.1905092591177
 20
-551.2755394858571
 30
0.0
 40
9.675120206490595
100
AcDbArc
 50
67.73561128814158
 51
112.2643887118591
  0
ARC
  5
AF
330
36
100
AcDbEntity
  8
1
  6
Continuous
 62
     3
100
AcDbCircle
 10
363.1094281780368
 20
-551.2755394858571
 30
0.0
 40
9.675120206490574
100
AcDbArc
 50
67.7356112881419
 51
112.2643887118594
  0
ARC
  5
B0
330
36
100
AcDbEntity
  8
1
  6
Continuous
 62
     3
100
AcDbCircle
 10
471.649968718577
 20
-551.2755394858571
 30
0.0
 40
9.675120206490595
100
AcDbArc
 50
67.73561128814158
 51
112.2643887118594
  0
ARC
  5
B1
330
36
100
AcDbEntity
  8
1
  6
Continuous
 62
     3
100
AcDbCircle
 10
663.6905092591179
 20
-551.2755394858571
 30
0.0
 40
9.675120206490595
100
AcDbArc
 50
67.73561128814158
 51
112.2643887118591
  0
CIRCLE
  5
B2
330
36
100
AcDbEntity
  8
1
  6
Continuous
 62
     3
100
AcDbCircle
 10
471.649968718577
 20
-487.8117441447715
 30
0.0
 40
4.250000000000171
  0
CIRCLE
  5
B3
330
36
100
AcDbEntity
  8
1
  6
Continuous
 62
     3
100
AcDbCircle
 10
471.649968718577
 20
-487.8117441447715
 30
0.0
 40
6.000000000000033
  0
ENDBLK
  5
38
330
36
100
AcDbEntity
  8
0
100
AcDbBlockEnd
  0
BLOCK
  5
3A
330
39
100
AcDbEntity
  8
0
100
AcDbBlockBegin
  2
_4
 70
     0
 71
     0
 10
334.9703936029752
 20
-273.63030285773
 30
0.0
  3
_4
  1

  0
LINE
  5
B4
330
39
100
AcDbEntity
  8
1
  6
Continuous
 62
     3
100
AcDbLine
 10
556.6905092591178
 20
-566.3117441447715
 30
0.0
 11
556.6905092591178
 21
-561.3117441447715
 31
0.0
  0
LINE
  5
B5
330
39
100
AcDbEntity
  8
1
  6
Continuous
 62
     3
100
AcDbLine
 10
583.6905092591177
 20
-561.3117441447715
 30
0.0
 11
583.6905092591177
 21
-566.3117441447715
 31
0.0
  0
LINE
  5
B6
330
39
100
AcDbEntity
  8
1
  6
Continuous
 62
     3
100
AcDbLine
 10
563.3517962044273
 20
-554.8117441447715
 30
0.0
 11
563.3517962044273
 21
-561.3117441447715
 31
0.0
  0
LINE
  5
B7
330
39
100
AcDbEntity
  8
1
  6
Continuous
 62
     3
100
AcDbLine
 10
556.2807283925619
 20
-561.3117441447715
 30
0.0
 11
556.2807283925619
 21
-554.8117441447715
 31
0.0
  0
LINE
  5
B8
330
39
100
AcDbEntity
  8
1
  6
Continuous
 62
     3
100
AcDbLine
 10
570.1905092591177
 20
-554.8117441447715
 30
0.0
 11
556.2807283925619
 21
-554.8117441447715
 31
0.0
  0
LINE
  5
B9
330
39
100
AcDbEntity
  8
1
  6
Continuous
 62
     3
100
AcDbLine
 10
564.8589692395664
 20
-554.8117441447715
 30
0.0
 11
564.8589692395664
 21
-561.3117441447715
 31
0.0
  0
LINE
  5
BA
330
39
100
AcDbEntity
  8
1
  6
Continuous
 62
     3
100
AcDbLine
 10
564.8589692395664
 20
-561.3117441447715
 30
0.0
 11
556.2807283925619
 21
-561.3117441447715
 31
0.0
  0
LINE
  5
BB
330
39
100
AcDbEntity
  8
1
  6
Continuous
 62
     3
100
AcDbLine
 10
575.5220492786691
 20
-561.3117441447715
 30
0.0
 11
575.5220492786691
 21
-554.8117441447715
 31
0.0
  0
LINE
  5
BC
330
39
100
AcDbEntity
  8
1
  6
Continuous
 62
     3
100
AcDbLine
 10
577.0292223138081
 20
-561.3117441447715
 30
0.0
 11
577.0292223138081
 21
-554.8117441447715
 31
0.0
  0
LINE
  5
BD
330
39
100
AcDbEntity
  8
1
  6
Continuous
 62
     3
100
AcDbLine
 10
584.1002901256736
 20
-554.8117441447715
 30
0.0
 11
570.1905092591177
 21
-554.8117441447715
 31
0.0
  0
LINE
  5
BE
330
39
100
AcDbEntity
  8
1
  6
Continuous
 62
     3
100
AcDbLine
 10
584.1002901256736
 20
-561.3117441447715
 30
0.0
 11
575.5220492786691
 21
-561.3117441447715
 31
0.0
  0
LINE
  5
BF
330
39
100
AcDbEntity
  8
1
  6
Continuous
 62
     3
100
AcDbLine
 10
584.1002901256736
 20
-554.8117441447715
 30
0.0
 11
584.1002901256736
 21
-561.3117441447715
 31
0.0
  0
LINE
  5
C0
330
39
100
AcDbEntity
  8
1
  6
Continuous
 62
     3
100
AcDbLine
 10
485.5597495851329
 20
-554.8117441447715
 30
0.0
 11
471.649968718577
 21
-554.8117441447715
 31
0.0
  0
LINE
  5
C1
330
39
100
AcDbEntity
  8
1
  6
Continuous
 62
     3
100
AcDbLine
 10
485.5597495851329
 20
-554.8117441447715
 30
0.0
 11
485.5597495851329
 21
-561.3117441447715
 31
0.0
  0
LINE
  5
C2
330
39
100
AcDbEntity
  8
1
  6
Continuous
 62
     3
100
AcDbLine
 10
485.149968718577
 20
-561.3117441447715
 30
0.0
 11
485.149968718577
 21
-566.3117441447715
 31
0.0
  0
LINE
  5
C3
330
39
100
AcDbEntity
  8
1
  6
Continuous
 62
     3
100
AcDbLine
 10
458.1499687185771
 20
-566.3117441447715
 30
0.0
 11
458.1499687185771
 21
-561.3117441447715
 31
0.0
  0
LINE
  5
C4
330
39
100
AcDbEntity
  8
1
  6
Continuous
 62
     3
100
AcDbLine
 10
464.8112556638867
 20
-554.8117441447715
 30
0.0
 11
464.8112556638867
 21
-561.3117441447715
 31
0.0
  0
LINE
  5
C5
330
39
100
AcDbEntity
  8
1
  6
Continuous
 62
     3
100
AcDbLine
 10
457.7401878520212
 20
-561.3117441447715
 30
0.0
 11
457.7401878520212
 21
-554.8117441447715
 31
0.0
  0
LINE
  5
C6
330
39
100
AcDbEntity
  8
1
  6
Continuous
 62
     3
100
AcDbLine
 10
471.649968718577
 20
-554.8117441447715
 30
0.0
 11
457.7401878520212
 21
-554.8117441447715
 31
0.0
  0
LINE
  5
C7
330
39
100
AcDbEntity
  8
1
  6
Continuous
 62
     3
100
AcDbLine
 10
466.3184286990257
 20
-554.8117441447715
 30
0.0
 11
466.3184286990257
 21
-561.3117441447715
 31
0.0
  0
LINE
  5
C8
330
39
100
AcDbEntity
  8
1
  6
Continuous
 62
     3
100
AcDbLine
 10
466.3184286990257
 20
-561.3117441447715
 30
0.0
 11
457.7401878520212
 21
-561.3117441447715
 31
0.0
  0
LINE
  5
C9
330
39
100
AcDbEntity
  8
1
  6
Continuous
 62
     3
100
AcDbLine
 10
476.9815087381284
 20
-561.3117441447715
 30
0.0
 11
476.9815087381284
 21
-554.8117441447715
 31
0.0
  0
LINE
  5
CA
330
39
100
AcDbEntity
  8
1
  6
Continuous
 62
     3
100
AcDbLine
 10
478.4886817732674
 20
-561.3117441447715
 30
0.0
 11
478.4886817732674
 21
-554.8117441447715
 31
0.0
  0
LINE
  5
CB
330
39
100
AcDbEntity
  8
1
  6
Continuous
 62
     3
100
AcDbLine
 10
485.5597495851329
 20
-561.3117441447715
 30
0.0
 11
476.9815087381284
 21
-561.3117441447715
 31
0.0
  0
LINE
  5
CC
330
39
100
AcDbEntity
  8
1
  6
Continuous
 62
     3
100
AcDbLine
 10
377.0192090445927
 20
-554.8117441447715
 30
0.0
 11
377.0192090445927
 21
-561.3117441447715
 31
0.0
  0
LINE
  5
CD
330
39
100
AcDbEntity
  8
1
  6
Continuous
 62
     3
100
AcDbLine
 10
377.0192090445927
 20
-561.3117441447715
 30
0.0
 11
368.4409681975882
 21
-561.3117441447715
 31
0.0
  0
LINE
  5
CE
330
39
100
AcDbEntity
  8
1
  6
Continuous
 62
     3
100
AcDbLine
 10
377.0192090445927
 20
-554.8117441447715
 30
0.0
 11
363.1094281780368
 21
-554.8117441447715
 31
0.0
  0
LINE
  5
CF
330
39
100
AcDbEntity
  8
1
  6
Continuous
 62
     3
100
AcDbLine
 10
369.9481412327271
 20
-561.3117441447715
 30
0.0
 11
369.9481412327271
 21
-554.8117441447715
 31
0.0
  0
LINE
  5
D0
330
39
100
AcDbEntity
  8
1
  6
Continuous
 62
     3
100
AcDbLine
 10
368.4409681975882
 20
-561.3117441447715
 30
0.0
 11
368.4409681975882
 21
-554.8117441447715
 31
0.0
  0
LINE
  5
D1
330
39
100
AcDbEntity
  8
1
  6
Continuous
 62
     3
100
AcDbLine
 10
357.7778881584854
 20
-561.3117441447715
 30
0.0
 11
349.1996473114809
 21
-561.3117441447715
 31
0.0
  0
LINE
  5
D2
330
39
100
AcDbEntity
  8
1
  6
Continuous
 62
     3
100
AcDbLine
 10
357.7778881584854
 20
-554.8117441447715
 30
0.0
 11
357.7778881584854
 21
-561.3117441447715
 31
0.0
  0
LINE
  5
D3
330
39
100
AcDbEntity
  8
1
  6
Continuous
 62
     3
100
AcDbLine
 10
363.1094281780368
 20
-554.8117441447715
 30
0.0
 11
349.1996473114809
 21
-554.8117441447715
 31
0.0
  0
LINE
  5
D4
330
39
100
AcDbEntity
  8
1
  6
Continuous
 62
     3
100
AcDbLine
 10
349.1996473114809
 20
-561.3117441447715
 30
0.0
 11
349.1996473114809
 21
-554.8117441447715
 31
0.0
  0
LINE
  5
D5
330
39
100
AcDbEntity
  8
1
  6
Continuous
 62
     3
100
AcDbLine
 10
356.2707151233464
 20
-554.8117441447715
 30
0.0
 11
356.2707151233464
 21
-561.3117441447715
 31
0.0
  0
LINE
  5
D6
330
39
100
AcDbEntity
  8
1
  6
Continuous
 62
     3
100
AcDbLine
 10
376.6094281780368
 20
-561.3117441447715
 30
0.0
 11
376.6094281780368
 21
-566.3117441447715
 31
0.0
  0
LINE
  5
D7
330
39
100
AcDbEntity
  8
1
  6
Continuous
 62
     3
100
AcDbLine
 10
349.6094281780368
 20
-566.3117441447715
 30
0.0
 11
349.6094281780368
 21
-561.3117441447715
 31
0.0
  0
LINE
  5
D8
330
39
100
AcDbEntity
  8
1
  6
Continuous
 62
     3
100
AcDbLine
 10
649.7807283925619
 20
-561.3117441447715
 30
0.0
 11
649.7807283925619
 21
-554.8117441447715
 31
0.0
  0
LINE
  5
D9
330
39
100
AcDbEntity
  8
1
  6
Continuous
 62
     3
100
AcDbLine
 10
658.3589692395665
 20
-561.3117441447715
 30
0.0
 11
649.7807283925619
 21
-561.3117441447715
 31
0.0
  0
LINE
  5
DA
330
39
100
AcDbEntity
  8
1
  6
Continuous
 62
     3
100
AcDbLine
 10
663.6905092591179
 20
-554.8117441447715
 30
0.0
 11
649.7807283925619
 21
-554.8117441447715
 31
0.0
  0
LINE
  5
DB
330
39
100
AcDbEntity
  8
1
  6
Continuous
 62
     3
100
AcDbLine
 10
656.8517962044274
 20
-554.8117441447715
 30
0.0
 11
656.8517962044274
 21
-561.3117441447715
 31
0.0
  0
LINE
  5
DC
330
39
100
AcDbEntity
  8
1
  6
Continuous
 62
     3
100
AcDbLine
 10
658.3589692395665
 20
-554.8117441447715
 30
0.0
 11
658.3589692395665
 21
-561.3117441447715
 31
0.0
  0
LINE
  5
DD
330
39
100
AcDbEntity
  8
1
  6
Continuous
 62
     3
100
AcDbLine
 10
677.6002901256738
 20
-561.3117441447715
 30
0.0
 11
669.0220492786693
 21
-561.3117441447715
 31
0.0
  0
LINE
  5
DE
330
39
100
AcDbEntity
  8
1
  6
Continuous
 62
     3
100
AcDbLine
 10
669.0220492786693
 20
-561.3117441447715
 30
0.0
 11
669.0220492786693
 21
-554.8117441447715
 31
0.0
  0
LINE
  5
DF
330
39
100
AcDbEntity
  8
1
  6
Continuous
 62
     3
100
AcDbLine
 10
677.6002901256738
 20
-554.8117441447715
 30
0.0
 11
663.6905092591179
 21
-554.8117441447715
 31
0.0
  0
LINE
  5
E0
330
39
100
AcDbEntity
  8
1
  6
Continuous
 62
     3
100
AcDbLine
 10
677.6002901256738
 20
-554.8117441447715
 30
0.0
 11
677.6002901256738
 21
-561.3117441447715
 31
0.0
  0
LINE
  5
E1
330
39
100
AcDbEntity
  8
1
  6
Continuous
 62
     3
100
AcDbLine
 10
670.5292223138083
 20
-561.3117441447715
 30
0.0
 11
670.5292223138083
 21
-554.8117441447715
 31
0.0
  0
LINE
  5
E2
330
39
100
AcDbEntity
  8
1
  6
Continuous
 62
     3
100
AcDbLine
 10
677.1905092591179
 20
-561.3117441447715
 30
0.0
 11
677.1905092591179
 21
-566.3117441447715
 31
0.0
  0
LINE
  5
E3
330
39
100
AcDbEntity
  8
1
  6
Continuous
 62
     3
100
AcDbLine
 10
650.1905092591179
 20
-566.3117441447715
 30
0.0
 11
650.1905092591179
 21
-561.3117441447715
 31
0.0
  0
ENDBLK
  5
3B
330
39
100
AcDbEntity
  8
0
100
AcDbBlockEnd
  0
BLOCK
  5
3D
330
3C
100
AcDbEntity
  8
0
100
AcDbBlockBegin
  2
_2
 70
     0
 71
     0
 10
429.649968718577
 20
-511.3117441447715
 30
0.0
  3
_2
  1

  0
LINE
  5
E4
330
3C
100
AcDbEntity
  8
1
  6
Continuous
 62
     3
100
AcDbLine
 10
450.7839433147925
 20
-468.8117441447714
 30
0.0
 11
453.5599162034515
 21
-468.8117441447714
 31
0.0
  0
LINE
  5
E5
330
3C
100
AcDbEntity
  8
1
  6
Continuous
 62
     3
100
AcDbLine
 10
447.649968718577
 20
-467.3117441447714
 30
0.0
 11
449.7839433147925
 21
-468.5437949523403
 31
0.0
  0
LINE
  5
E6
330
3C
100
AcDbEntity
  8
1
  6
Continuous
 62
     3
100
AcDbLine
 10
447.649968718577
 20
-467.3117441447714
 30
0.0
 11
430.5263570934436
 21
-467.3117441447714
 31
0.0
  0
LINE
  5
E7
330
3C
100
AcDbEntity
  8
1
  6
Continuous
 62
     3
100
AcDbLine
 10
447.649968718577
 20
-508.3117441447715
 30
0.0
 11
430.5263570934436
 21
-508.3117441447718
 31
0.0
  0
LINE
  5
E8
330
3C
100
AcDbEntity
  8
1
  6
Continuous
 62
     3
100
AcDbLine
 10
449.7839433147925
 20
-507.0796933372025
 30
0.0
 11
447.649968718577
 21
-508.3117441447715
 31
0.0
  0
LINE
  5
E9
330
3C
100
AcDbEntity
  8
1
  6
Continuous
 62
     3
100
AcDbLine
 10
429.649968718577
 20
-469.95881731272
 30
0.0
 11
429.649968718577
 21
-505.6646709768228
 31
0.0
  0
LINE
  5
EA
330
3C
100
AcDbEntity
  8
1
  6
Continuous
 62
     3
100
AcDbLine
 10
429.649968718577
 20
-469.95881731272
 30
0.0
 11
429.649968718577
 21
-505.6646709768228
 31
0.0
  0
LINE
  5
EB
330
3C
100
AcDbEntity
  8
1
  6
Continuous
 62
     3
100
AcDbLine
 10
489.149968718577
 20
-510.3117441447715
 30
0.0
 11
471.649968718577
 21
-510.3117441447715
 31
0.0
  0
LINE
  5
EC
330
3C
100
AcDbEntity
  8
1
  6
Continuous
 62
     3
100
AcDbLine
 10
490.149968718577
 20
-511.3117441447715
 30
0.0
 11
489.149968718577
 21
-510.3117441447715
 31
0.0
  0
LINE
  5
ED
330
3C
100
AcDbEntity
  8
1
  6
Continuous
 62
     3
100
AcDbLine
 10
490.149968718577
 20
-464.3117441447714
 30
0.0
 11
489.149968718577
 21
-465.3117441447714
 31
0.0
  0
LINE
  5
EE
330
3C
100
AcDbEntity
  8
1
  6
Continuous
 62
     3
100
AcDbLine
 10
494.149968718577
 20
-511.3117441447715
 30
0.0
 11
490.149968718577
 21
-511.3117441447715
 31
0.0
  0
LINE
  5
EF
330
3C
100
AcDbEntity
  8
1
  6
Continuous
 62
     3
100
AcDbLine
 10
490.149968718577
 20
-464.3117441447714
 30
0.0
 11
494.149968718577
 21
-464.3117441447714
 31
0.0
  0
LINE
  5
F0
330
3C
100
AcDbEntity
  8
1
  6
Continuous
 62
     3
100
AcDbLine
 10
489.149968718577
 20
-465.3117441447714
 30
0.0
 11
471.649968718577
 21
-465.3117441447714
 31
0.0
  0
LINE
  5
F1
330
3C
100
AcDbEntity
  8
1
  6
Continuous
 62
     3
100
AcDbLine
 10
453.5599162034515
 20
-506.8117441447715
 30
0.0
 11
450.7839433147925
 21
-506.8117441447715
 31
0.0
  0
LINE
  5
F2
330
3C
100
AcDbEntity
  8
1
  6
Continuous
 62
     3
100
AcDbLine
 10
490.149968718577
 20
-464.3117441447714
 30
0.0
 11
490.149968718577
 21
-469.8431171781747
 31
0.0
  0
LINE
  5
F3
330
3C
100
AcDbEntity
  8
1
  6
Continuous
 62
     3
100
AcDbLine
 10
489.149968718577
 20
-465.3117441447714
 30
0.0
 11
489.149968718577
 21
-468.9383469723671
 31
0.0
  0
LINE
  5
F4
330
3C
100
AcDbEntity
  8
1
  6
Continuous
 62
     3
100
AcDbLine
 10
490.149968718577
 20
-511.3117441447715
 30
0.0
 11
490.149968718577
 21
-505.7803711113684
 31
0.0
  0
LINE
  5
F5
330
3C
100
AcDbEntity
  8
1
  6
Continuous
 62
     3
100
AcDbLine
 10
489.149968718577
 20
-510.3117441447715
 30
0.0
 11
489.149968718577
 21
-506.685141317176
 31
0.0
  0
LINE
  5
F6
330
3C
100
AcDbEntity
  8
1
  6
Continuous
 62
     3
100
AcDbLine
 10
429.6499687185773
 20
-468.8296933372025
 30
0.0
 11
430.5263570934436
 21
-467.3117441447714
 31
0.0
  0
LINE
  5
F7
330
3C
100
AcDbEntity
  8
1
  6
Continuous
 62
     3
100
AcDbLine
 10
429.6499687185773
 20
-468.8296933372025
 30
0.0
 11
429.649968718577
 21
-469.95881731272
 31
0.0
  0
LINE
  5
F8
330
3C
100
AcDbEntity
  8
1
  6
Continuous
 62
     3
100
AcDbLine
 10
429.649968718577
 20
-505.6646709768228
 30
0.0
 11
429.6499687185773
 21
-506.7937949523407
 31
0.0
  0
LINE
  5
F9
330
3C
100
AcDbEntity
  8
1
  6
Continuous
 62
     3
100
AcDbLine
 10
430.5263570934436
 20
-508.3117441447718
 30
0.0
 11
429.6499687185773
 21
-506.7937949523407
 31
0.0
  0
LINE
  5
FA
330
3C
100
AcDbEntity
  8
1
  6
Continuous
 62
     3
100
AcDbLine
 10
447.649968718577
 20
-467.3117441447714
 30
0.0
 11
447.649968718577
 21
-508.3117441447715
 31
0.0
  0
LINE
  5
FB
330
3C
100
AcDbEntity
  8
1
  6
Continuous
 62
     3
100
AcDbLine
 10
495.1499687185772
 20
-464.5796933372027
 30
0.0
 11
495.1499687185772
 21
-511.0437949523403
 31
0.0
  0
LINE
  5
FC
330
3C
100
AcDbEntity
  8
1
  6
Continuous
 62
     3
100
AcDbLine
 10
447.649968718577
 20
-487.8117441447715
 30
0.0
 11
430.8150322280382
 21
-487.8117441447715
 31
0.0
  0
ARC
  5
FD
330
3C
100
AcDbEntity
  8
1
  6
Continuous
 62
     3
100
AcDbCircle
 10
471.649968718577
 20
-462.8117441447714
 30
0.0
 40
47.49999999999992
100
AcDbArc
 50
-111.9001846962617
 51
-94.79992769355036
  0
ARC
  5
FE
330
3C
100
AcDbEntity
  8
1
  6
Continuous
 62
     3
100
AcDbCircle
 10
471.649968718577
 20
-512.8117441447715
 30
0.0
 40
47.50000000000011
100
AcDbArc
 50
90.0
 51
111.9001846962616
  0
ARC
  5
FF
330
3C
100
AcDbEntity
  8
1
  6
Continuous
 62
     3
100
AcDbCircle
 10
471.649968718577
 20
-462.8117441447714
 30
0.0
 40
47.49999999999976
100
AcDbArc
 50
-94.79992769355036
 51
-90.0
  0
ARC
  5
100
330
3C
100
AcDbEntity
  8
1
  6
Continuous
 62
     3
100
AcDbCircle
 10
458.6766213069696
 20
-499.0069091574361
 30
0.0
 40
30.0266525883925
100
AcDbArc
 50
158.1090682873123
 51
165.1715109470675
  0
ARC
  5
101
330
3C
100
AcDbEntity
  8
1
  6
Continuous
 62
     3
100
AcDbCircle
 10
458.6766213069696
 20
-476.6165791321068
 30
0.0
 40
30.02665258839238
100
AcDbArc
 50
-165.1715109470673
 51
-158.109068287312
  0
ARC
  5
102
330
3C
100
AcDbEntity
  8
1
  6
Continuous
 62
     3
100
AcDbCircle
 10
453.5599162034515
 20
-467.8117441447714
 30
0.0
 40
1.0
100
AcDbArc
 50
-90.0
 51
-68.09981530373418
  0
ARC
  5
103
330
3C
100
AcDbEntity
  8
1
  6
Continuous
 62
     3
100
AcDbCircle
 10
450.7839433147925
 20
-466.8117441447714
 30
0.0
 40
2.000000000000016
100
AcDbArc
 50
-119.9999999999997
 51
-90.0
  0
ARC
  5
104
330
3C
100
AcDbEntity
  8
1
  6
Continuous
 62
     3
100
AcDbCircle
 10
494.149968718577
 20
-466.3117441447714
 30
0.0
 40
1.999999999999983
100
AcDbArc
 50
59.99999999999218
 51
90.0
  0
ARC
  5
105
330
3C
100
AcDbEntity
  8
1
  6
Continuous
 62
     3
100
AcDbCircle
 10
453.5599162034515
 20
-507.8117441447715
 30
0.0
 40
1.00000000000016
100
AcDbArc
 50
68.09981530373781
 51
90.0
  0
ARC
  5
106
330
3C
100
AcDbEntity
  8
1
  6
Continuous
 62
     3
100
AcDbCircle
 10
450.7839433147925
 20
-508.8117441447715
 30
0.0
 40
2.0
100
AcDbArc
 50
90.0
 51
119.9999999999981
  0
ARC
  5
107
330
3C
100
AcDbEntity
  8
1
  6
Continuous
 62
     3
100
AcDbCircle
 10
494.149968718577
 20
-509.3117441447715
 30
0.0
 40
2.0
100
AcDbArc
 50
-90.0
 51
-59.999999999993
  0
ENDBLK
  5
3E
330
3C
100
AcDbEntity
  8
0
100
AcDbBlockEnd
  0
BLOCK
  5
40
330
3F
100
AcDbEntity
  8
0
100
AcDbBlockBegin
  2
_7
 70
     0
 71
     0
 10
495.1499687185772
 20
-643.3117441447715
 30
0.0
  3
_7
  1

  0
LINE
  5
108
330
3F
100
AcDbEntity
  8
1
  6
Continuous
 62
     3
100
AcDbLine
 10
495.6499687185772
 20
-464.3117441447715
 30
0.0
 11
498.1499687185772
 21
-464.3117441447715
 31
0.0
  0
LINE
  5
109
330
3F
100
AcDbEntity
  8
1
  6
Continuous
 62
     3
100
AcDbLine
 10
499.1499687185772
 20
-466.3117441447715
 30
0.0
 11
499.1499687185772
 21
-465.3117441447715
 31
0.0
  0
LINE
  5
10A
330
3F
100
AcDbEntity
  8
1
  6
Continuous
 62
     3
100
AcDbLine
 10
499.1499687185772
 20
-509.3117441447715
 30
0.0
 11
499.1499687185772
 21
-510.3117441447715
 31
0.0
  0
LINE
  5
10B
330
3F
100
AcDbEntity
  8
1
  6
Continuous
 62
     3
100
AcDbLine
 10
498.1499687185772
 20
-511.3117441447715
 30
0.0
 11
495.1499687185772
 21
-511.3117441447715
 31
0.0
  0
LINE
  5
10C
330
3F
100
AcDbEntity
  8
1
  6
Continuous
 62
     3
100
AcDbLine
 10
495.1499687185772
 20
-468.0117441447716
 30
0.0
 11
495.1499687185772
 21
-464.3752524716678
 31
0.0
  0
LINE
  5
10D
330
3F
100
AcDbEntity
  8
1
  6
Continuous
 62
     3
100
AcDbLine
 10
495.1499687185772
 20
-511.3117441447715
 30
0.0
 11
495.1499687185772
 21
-507.6117441447715
 31
0.0
  0
LINE
  5
10E
330
3F
100
AcDbEntity
  8
1
  6
Continuous
 62
     3
100
AcDbLine
 10
499.1499687185772
 20
-466.3117441447715
 30
0.0
 11
499.1499687185772
 21
-487.8117441447715
 31
0.0
  0
LINE
  5
10F
330
3F
100
AcDbEntity
  8
1
  6
Continuous
 62
     3
100
AcDbLine
 10
514.6499687185772
 20
-599.3296933372026
 30
0.0
 11
513.4849052091161
 21
-597.3117441447715
 31
0.0
  0
LINE
  5
110
330
3F
100
AcDbEntity
  8
1
  6
Continuous
 62
     3
100
AcDbLine
 10
514.6499687185772
 20
-602.385819395837
 30
0.0
 11
514.6499687185772
 21
-599.3117441447715
 31
0.0
  0
LINE
  5
111
330
3F
100
AcDbEntity
  8
1
  6
Continuous
 62
     3
100
AcDbLine
 10
513.4849052091161
 20
-642.3117441447715
 30
0.0
 11
514.6499687185772
 21
-640.2937949523405
 31
0.0
  0
LINE
  5
112
330
3F
100
AcDbEntity
  8
1
  6
Continuous
 62
     3
100
AcDbLine
 10
514.6499687185772
 20
-637.2376688937059
 30
0.0
 11
514.6499687185772
 21
-602.385819395837
 31
0.0
  0
LINE
  5
113
330
3F
100
AcDbEntity
  8
1
  6
Continuous
 62
     3
100
AcDbLine
 10
514.6499687185772
 20
-640.3117441447715
 30
0.0
 11
514.6499687185772
 21
-637.2376688937059
 31
0.0
  0
LINE
  5
114
330
3F
100
AcDbEntity
  8
1
  6
Continuous
 62
     3
100
AcDbLine
 10
513.4849052091161
 20
-597.3117441447715
 30
0.0
 11
499.8766365810153
 21
-597.3117441447715
 31
0.0
  0
LINE
  5
115
330
3F
100
AcDbEntity
  8
1
  6
Continuous
 62
     3
100
AcDbLine
 10
513.4849052091163
 20
-608.6165791321071
 30
0.0
 11
499.0474943487234
 21
-608.6165791321071
 31
0.0
  0
LINE
  5
116
330
3F
100
AcDbEntity
  8
1
  6
Continuous
 62
     3
100
AcDbLine
 10
513.4849052091163
 20
-631.0069091574361
 30
0.0
 11
499.0474943487234
 21
-631.0069091574361
 31
0.0
  0
LINE
  5
117
330
3F
100
AcDbEntity
  8
1
  6
Continuous
 62
     3
100
AcDbLine
 10
499.8820195261461
 20
-642.3117441447715
 30
0.0
 11
513.4849052091161
 21
-642.3117441447715
 31
0.0
  0
LINE
  5
118
330
3F
100
AcDbEntity
  8
1
  6
Continuous
 62
     3
100
AcDbLine
 10
495.6499687185772
 20
-596.3117441447715
 30
0.0
 11
498.1499687185772
 21
-596.3117441447715
 31
0.0
  0
LINE
  5
119
330
3F
100
AcDbEntity
  8
1
  6
Continuous
 62
     3
100
AcDbLine
 10
499.0474943487234
 20
-642.8117441447715
 30
0.0
 11
499.0474943487234
 21
-596.8707818524711
 31
0.0
  0
LINE
  5
11A
330
3F
100
AcDbEntity
  8
1
  6
Continuous
 62
     3
100
AcDbLine
 10
498.1499687185772
 20
-643.3117441447715
 30
0.0
 11
495.1499687185772
 21
-643.3117441447715
 31
0.0
  0
LINE
  5
11B
330
3F
100
AcDbEntity
  8
1
  6
Continuous
 62
     3
100
AcDbLine
 10
495.1499687185772
 20
-596.5796933372026
 30
0.0
 11
495.1499687185772
 21
-596.3752524716676
 31
0.0
  0
LINE
  5
11C
330
3F
100
AcDbEntity
  8
1
  6
Continuous
 62
     3
100
AcDbLine
 10
495.1499687185772
 20
-639.6117441447715
 30
0.0
 11
495.1499687185772
 21
-596.5796933372026
 31
0.0
  0
LINE
  5
11D
330
3F
100
AcDbEntity
  8
1
  6
Continuous
 62
     3
100
AcDbLine
 10
495.1499687185772
 20
-641.0617441447715
 30
0.0
 11
495.1499687185772
 21
-643.0437949523405
 31
0.0
  0
LINE
  5
11E
330
3F
100
AcDbEntity
  8
1
  6
Continuous
 62
     3
100
AcDbLine
 10
495.1499687185772
 20
-641.0617441447715
 30
0.0
 11
495.1499687185772
 21
-639.6117441447715
 31
0.0
  0
LINE
  5
11F
330
3F
100
AcDbEntity
  8
1
  6
Continuous
 62
     3
100
AcDbLine
 10
495.1499687185772
 20
-643.3117441447715
 30
0.0
 11
495.1499687185772
 21
-643.0437949523405
 31
0.0
  0
LINE
  5
120
330
3F
100
AcDbEntity
  8
1
  6
Continuous
 62
     3
100
AcDbLine
 10
514.6499687185772
 20
-472.385819395837
 30
0.0
 11
514.6499687185772
 21
-469.3117441447715
 31
0.0
  0
LINE
  5
121
330
3F
100
AcDbEntity
  8
1
  6
Continuous
 62
     3
100
AcDbLine
 10
514.6499687185772
 20
-469.3296933372026
 30
0.0
 11
513.4849052091161
 21
-467.3117441447715
 31
0.0
  0
LINE
  5
122
330
3F
100
AcDbEntity
  8
1
  6
Continuous
 62
     3
100
AcDbLine
 10
513.4849052091161
 20
-508.3117441447716
 30
0.0
 11
514.6499687185772
 21
-506.2937949523406
 31
0.0
  0
LINE
  5
123
330
3F
100
AcDbEntity
  8
1
  6
Continuous
 62
     3
100
AcDbLine
 10
513.4849052091161
 20
-467.3117441447715
 30
0.0
 11
500.1499687185772
 21
-467.3117441447715
 31
0.0
  0
LINE
  5
124
330
3F
100
AcDbEntity
  8
1
  6
Continuous
 62
     3
100
AcDbLine
 10
513.4849052091161
 20
-508.3117441447716
 30
0.0
 11
500.1499687185772
 21
-508.3117441447715
 31
0.0
  0
LINE
  5
125
330
3F
100
AcDbEntity
  8
1
  6
Continuous
 62
     3
100
AcDbLine
 10
514.6499687185772
 20
-506.2937949523406
 30
0.0
 11
514.6499687185772
 21
-469.3296933372026
 31
0.0
  0
LINE
  5
126
330
3F
100
AcDbEntity
  8
1
  6
Continuous
 62
     3
100
AcDbLine
 10
513.4849052091163
 20
-487.8117441447715
 30
0.0
 11
499.1499687185772
 21
-487.8117441447715
 31
0.0
  0
LINE
  5
127
330
3F
100
AcDbEntity
  8
1
  6
Continuous
 62
     3
100
AcDbLine
 10
499.1499687185772
 20
-487.8117441447715
 30
0.0
 11
499.1499687185772
 21
-509.3117441447715
 31
0.0
  0
LINE
  5
128
330
3F
100
AcDbEntity
  8
1
  6
Continuous
 62
     3
100
AcDbLine
 10
620.6905092591177
 20
-637.2376688937059
 30
0.0
 11
620.6905092591177
 21
-640.3117441447715
 31
0.0
  0
LINE
  5
129
330
3F
100
AcDbEntity
  8
1
  6
Continuous
 62
     3
100
AcDbLine
 10
620.6905092591177
 20
-602.385819395837
 30
0.0
 11
620.6905092591177
 21
-637.2376688937059
 31
0.0
  0
LINE
  5
12A
330
3F
100
AcDbEntity
  8
1
  6
Continuous
 62
     3
100
AcDbLine
 10
620.6905092591177
 20
-599.3117441447715
 30
0.0
 11
620.6905092591177
 21
-602.385819395837
 31
0.0
  0
LINE
  5
12B
330
3F
100
AcDbEntity
  8
1
  6
Continuous
 62
     3
100
AcDbLine
 10
640.1905092591177
 20
-643.3117441447715
 30
0.0
 11
637.1905092591177
 21
-643.3117441447715
 31
0.0
  0
LINE
  5
12C
330
3F
100
AcDbEntity
  8
1
  6
Continuous
 62
     3
100
AcDbLine
 10
637.1905092591177
 20
-596.3117441447715
 30
0.0
 11
639.6905092591177
 21
-596.3117441447715
 31
0.0
  0
LINE
  5
12D
330
3F
100
AcDbEntity
  8
1
  6
Continuous
 62
     3
100
AcDbLine
 10
635.4638413966796
 20
-597.3117441447715
 30
0.0
 11
621.8555727685788
 21
-597.3117441447715
 31
0.0
  0
LINE
  5
12E
330
3F
100
AcDbEntity
  8
1
  6
Continuous
 62
     3
100
AcDbLine
 10
621.8555727685788
 20
-597.3117441447715
 30
0.0
 11
620.6905092591177
 21
-599.3296933372026
 31
0.0
  0
LINE
  5
12F
330
3F
100
AcDbEntity
  8
1
  6
Continuous
 62
     3
100
AcDbLine
 10
621.8555727685788
 20
-642.3117441447715
 30
0.0
 11
635.4584584515488
 21
-642.3117441447715
 31
0.0
  0
LINE
  5
130
330
3F
100
AcDbEntity
  8
1
  6
Continuous
 62
     3
100
AcDbLine
 10
620.6905092591177
 20
-640.2937949523405
 30
0.0
 11
621.8555727685788
 21
-642.3117441447715
 31
0.0
  0
LINE
  5
131
330
3F
100
AcDbEntity
  8
1
  6
Continuous
 62
     3
100
AcDbLine
 10
636.2929836289715
 20
-596.8707818524711
 30
0.0
 11
636.2929836289715
 21
-642.8117441447715
 31
0.0
  0
LINE
  5
132
330
3F
100
AcDbEntity
  8
1
  6
Continuous
 62
     3
100
AcDbLine
 10
636.2929836289715
 20
-608.6165791321071
 30
0.0
 11
621.8555727685786
 21
-608.6165791321071
 31
0.0
  0
LINE
  5
133
330
3F
100
AcDbEntity
  8
1
  6
Continuous
 62
     3
100
AcDbLine
 10
636.2929836289715
 20
-631.0069091574361
 30
0.0
 11
621.8555727685786
 21
-631.0069091574361
 31
0.0
  0
LINE
  5
134
330
3F
100
AcDbEntity
  8
1
  6
Continuous
 62
     3
100
AcDbLine
 10
640.1905092591177
 20
-643.0437949523405
 30
0.0
 11
640.1905092591177
 21
-641.0617441447715
 31
0.0
  0
LINE
  5
135
330
3F
100
AcDbEntity
  8
1
  6
Continuous
 62
     3
100
AcDbLine
 10
640.1905092591177
 20
-598.5617441447715
 30
0.0
 11
640.1905092591177
 21
-596.5796933372026
 31
0.0
  0
LINE
  5
136
330
3F
100
AcDbEntity
  8
1
  6
Continuous
 62
     3
100
AcDbLine
 10
640.1905092591177
 20
-643.0437949523405
 30
0.0
 11
640.1905092591177
 21
-643.3117441447715
 31
0.0
  0
LINE
  5
137
330
3F
100
AcDbEntity
  8
1
  6
Continuous
 62
     3
100
AcDbLine
 10
640.1905092591177
 20
-641.0617441447715
 30
0.0
 11
640.1905092591177
 21
-643.0437949523405
 31
0.0
  0
LINE
  5
138
330
3F
100
AcDbEntity
  8
1
  6
Continuous
 62
     3
100
AcDbLine
 10
640.1905092591177
 20
-639.6117441447715
 30
0.0
 11
640.1905092591177
 21
-641.0617441447715
 31
0.0
  0
LINE
  5
139
330
3F
100
AcDbEntity
  8
1
  6
Continuous
 62
     3
100
AcDbLine
 10
640.1905092591177
 20
-596.5796933372026
 30
0.0
 11
640.1905092591177
 21
-639.6117441447715
 31
0.0
  0
LINE
  5
13A
330
3F
100
AcDbEntity
  8
1
  6
Continuous
 62
     3
100
AcDbLine
 10
640.1905092591177
 20
-596.3752524716676
 30
0.0
 11
640.1905092591177
 21
-596.5796933372026
 31
0.0
  0
LINE
  5
13B
330
3F
100
AcDbEntity
  8
1
  6
Continuous
 62
     3
100
AcDbLine
 10
587.1905092591177
 20
-637.4816171258493
 30
0.0
 11
587.1905092591177
 21
-636.432514283366
 31
0.0
  0
LINE
  5
13C
330
3F
100
AcDbEntity
  8
1
  6
Continuous
 62
     3
100
AcDbLine
 10
590.6905092591177
 20
-627.7961038561072
 30
0.0
 11
590.6905092591177
 21
-611.8273844334359
 31
0.0
  0
LINE
  5
13D
330
3F
100
AcDbEntity
  8
1
  6
Continuous
 62
     3
100
AcDbLine
 10
553.025850916148
 20
-633.5730850666847
 30
0.0
 11
566.8551676020873
 21
-641.5574447780203
 31
0.0
  0
LINE
  5
13E
330
3F
100
AcDbEntity
  8
1
  6
Continuous
 62
     3
100
AcDbLine
 10
573.525850916148
 20
-641.5574447780203
 30
0.0
 11
587.3551676020873
 21
-633.5730850666847
 31
0.0
  0
LINE
  5
13F
330
3F
100
AcDbEntity
  8
1
  6
Continuous
 62
     3
100
AcDbLine
 10
549.6905092591177
 20
-611.8273844334359
 30
0.0
 11
549.6905092591177
 21
-627.7961038561072
 31
0.0
  0
LINE
  5
140
330
3F
100
AcDbEntity
  8
1
  6
Continuous
 62
     3
100
AcDbLine
 10
566.8551676020874
 20
-598.0660435115227
 30
0.0
 11
553.025850916148
 21
-606.0504032228583
 31
0.0
  0
LINE
  5
141
330
3F
100
AcDbEntity
  8
1
  6
Continuous
 62
     3
100
AcDbLine
 10
587.3551676020873
 20
-606.0504032228583
 30
0.0
 11
573.525850916148
 21
-598.0660435115227
 31
0.0
  0
ARC
  5
142
330
3F
100
AcDbEntity
  8
1
  6
Continuous
 62
     3
100
AcDbCircle
 10
485.6233161301848
 20
-619.8117441447716
 30
0.0
 40
30.02665258839246
100
AcDbArc
 50
14.82848905293244
 51
21.8909317126876
  0
ARC
  5
143
330
3F
100
AcDbEntity
  8
1
  6
Continuous
 62
     3
100
AcDbCircle
 10
507.1889412792851
 20
-602.9641616384395
 30
0.0
 40
8.461027439292174
100
AcDbArc
 50
-41.91699652544154
 51
-28.13839377529008
  0
ARC
  5
144
330
3F
100
AcDbEntity
  8
1
  6
Continuous
 62
     3
100
AcDbCircle
 10
485.6233161301848
 20
-619.8117441447716
 30
0.0
 40
30.02665258839256
100
AcDbArc
 50
-21.8909317126874
 51
-14.82848905293265
  0
ARC
  5
145
330
3F
100
AcDbEntity
  8
1
  6
Continuous
 62
     3
100
AcDbCircle
 10
507.1889412792853
 20
-636.6593266511038
 30
0.0
 40
8.461027439291968
100
AcDbArc
 50
28.13839377529081
 51
41.91699652544314
  0
ARC
  5
146
330
3F
100
AcDbEntity
  8
1
  6
Continuous
 62
     3
100
AcDbCircle
 10
499.8766365810153
 20
-596.3117441447715
 30
0.0
 40
0.9999999999999946
100
AcDbArc
 50
-146.0107250886024
 51
-90.0
  0
ARC
  5
147
330
3F
100
AcDbEntity
  8
1
  6
Continuous
 62
     3
100
AcDbCircle
 10
499.8766365810153
 20
-596.3117441447715
 30
0.0
 40
0.9999999999999372
100
AcDbArc
 50
-149.6045586644268
 51
-146.0107250886024
  0
ARC
  5
148
330
3F
100
AcDbEntity
  8
1
  6
Continuous
 62
     3
100
AcDbCircle
 10
499.8820195261461
 20
-643.3117441447715
 30
0.0
 40
1.0
100
AcDbArc
 50
90.0
 51
150.0000000000044
  0
ARC
  5
149
330
3F
100
AcDbEntity
  8
1
  6
Continuous
 62
     3
100
AcDbCircle
 10
485.6233161301848
 20
-499.0069091574361
 30
0.0
 40
30.02665258839246
100
AcDbArc
 50
14.82848905293244
 51
21.8909317126876
  0
ARC
  5
14A
330
3F
100
AcDbEntity
  8
1
  6
Continuous
 62
     3
100
AcDbCircle
 10
485.6233161301848
 20
-476.6165791321071
 30
0.0
 40
30.02665258839254
100
AcDbArc
 50
-21.89093171268729
 51
-14.82848905293234
  0
ARC
  5
14B
330
3F
100
AcDbEntity
  8
1
  6
Continuous
 62
     3
100
AcDbCircle
 10
635.4638413966796
 20
-596.3117441447715
 30
0.0
 40
0.9999999999999003
100
AcDbArc
 50
-33.98927491140129
 51
-30.39544133557491
  0
ARC
  5
14C
330
3F
100
AcDbEntity
  8
1
  6
Continuous
 62
     3
100
AcDbCircle
 10
635.4584584515488
 20
-643.3117441447715
 30
0.0
 40
1.000000000000082
100
AcDbArc
 50
29.99999999999729
 51
90.0
  0
ARC
  5
14D
330
3F
100
AcDbEntity
  8
1
  6
Continuous
 62
     3
100
AcDbCircle
 10
635.4638413966796
 20
-596.3117441447715
 30
0.0
 40
1.0
100
AcDbArc
 50
-90.0
 51
-33.98927491140129
  0
ARC
  5
14E
330
3F
100
AcDbEntity
  8
1
  6
Continuous
 62
     3
100
AcDbCircle
 10
628.1515366984098
 20
-602.9641616384395
 30
0.0
 40
8.461027439292218
100
AcDbArc
 50
-151.8616062247101
 51
-138.0830034745587
  0
ARC
  5
14F
330
3F
100
AcDbEntity
  8
1
  6
Continuous
 62
     3
100
AcDbCircle
 10
649.7171618475101
 20
-619.8117441447716
 30
0.0
 40
30.0266525883926
100
AcDbArc
 50
158.1090682873124
 51
165.1715109470676
  0
ARC
  5
150
330
3F
100
AcDbEntity
  8
1
  6
Continuous
 62
     3
100
AcDbCircle
 10
628.1515366984096
 20
-636.6593266511038
 30
0.0
 40
8.461027439292122
100
AcDbArc
 50
138.0830034745571
 51
151.8616062247094
  0
ARC
  5
151
330
3F
100
AcDbEntity
  8
1
  6
Continuous
 62
     3
100
AcDbCircle
 10
649.7171618475101
 20
-619.8117441447716
 30
0.0
 40
30.02665258839249
100
AcDbArc
 50
-165.1715109470674
 51
-158.1090682873126
  0
ARC
  5
152
330
3F
100
AcDbEntity
  8
1
  6
Continuous
 62
     3
100
AcDbCircle
 10
570.1905092591177
 20
-619.8117441447715
 30
0.0
 40
22.00000000000001
100
AcDbArc
 50
-98.72003353158718
 51
-81.27996646841311
  0
ARC
  5
153
330
3F
100
AcDbEntity
  8
1
  6
Continuous
 62
     3
100
AcDbCircle
 10
570.1905092591177
 20
-619.8117441447715
 30
0.0
 40
22.5
100
AcDbArc
 50
-36.86989764584402
 51
-23.57817847820191
  0
ARC
  5
154
330
3F
100
AcDbEntity
  8
1
  6
Continuous
 62
     3
100
AcDbCircle
 10
570.1905092591177
 20
-619.8117441447715
 30
0.0
 40
21.99999999999994
100
AcDbArc
 50
-38.72003353158715
 51
-21.27996646841299
  0
ARC
  5
155
330
3F
100
AcDbEntity
  8
1
  6
Continuous
 62
     3
100
AcDbCircle
 10
570.1905092591177
 20
-619.8117441447715
 30
0.0
 40
21.99999999999999
100
AcDbArc
 50
21.27996646841299
 51
38.72003353158715
  0
ARC
  5
156
330
3F
100
AcDbEntity
  8
1
  6
Continuous
 62
     3
100
AcDbCircle
 10
570.1905092591177
 20
-619.8117441447715
 30
0.0
 40
21.99999999999999
100
AcDbArc
 50
-158.720033531587
 51
-141.2799664684131
  0
ARC
  5
157
330
3F
100
AcDbEntity
  8
1
  6
Continuous
 62
     3
100
AcDbCircle
 10
570.1905092591177
 20
-619.8117441447715
 30
0.0
 40
22.00000000000003
100
AcDbArc
 50
141.2799664684131
 51
158.720033531587
  0
ARC
  5
158
330
3F
100
AcDbEntity
  8
1
  6
Continuous
 62
     3
100
AcDbCircle
 10
570.1905092591177
 20
-619.8117441447715
 30
0.0
 40
21.99999999999999
100
AcDbArc
 50
81.27996646841311
 51
98.72003353158689
  0
CIRCLE
  5
159
330
3F
100
AcDbEntity
  8
1
  6
Continuous
 62
     1
100
AcDbCircle
 10
570.1905092591177
 20
-619.8117441447715
 30
0.0
 40
17.85292683205137
  0
CIRCLE
  5
15A
330
3F
100
AcDbEntity
  8
1
  6
Continuous
 62
     3
100
AcDbCircle
 10
570.1905092591177
 20
-619.8117441447715
 30
0.0
 40
20.5
  0
CIRCLE
  5
15B
330
3F
100
AcDbEntity
  8
1
  6
Continuous
 62
     3
100
AcDbCircle
 10
570.1905092591177
 20
-619.8117441447715
 30
0.0
 40
16.25624999999991
  0
CIRCLE
  5
15C
330
3F
100
AcDbEntity
  8
1
  6
Continuous
 62
     3
100
AcDbCircle
 10
570.1905092591177
 20
-619.8117441447715
 30
0.0
 40
23.5
  0
ARC
  5
15D
330
3F
100
AcDbEntity
  8
1
  6
Continuous
 62
     3
100
AcDbCircle
 10
500.1499687185772
 20
-466.3117441447715
 30
0.0
 40
1.0
100
AcDbArc
 50
180.0
 51
-90.0
  0
ARC
  5
15E
330
3F
100
AcDbEntity
  8
1
  6
Continuous
 62
     3
100
AcDbCircle
 10
498.1499687185772
 20
-510.3117441447715
 30
0.0
 40
1.0
100
AcDbArc
 50
-90.0
 51
0.0
  0
ARC
  5
15F
330
3F
100
AcDbEntity
  8
1
  6
Continuous
 62
     3
100
AcDbCircle
 10
500.1499687185772
 20
-509.3117441447715
 30
0.0
 40
1.0
100
AcDbArc
 50
90.0
 51
180.0
  0
ARC
  5
160
330
3F
100
AcDbEntity
  8
1
  6
Continuous
 62
     3
100
AcDbCircle
 10
498.1499687185772
 20
-465.3117441447715
 30
0.0
 40
1.0
100
AcDbArc
 50
0.0
 51
90.0
  0
ARC
  5
161
330
3F
100
AcDbEntity
  8
1
  6
Continuous
 62
     3
100
AcDbCircle
 10
495.6499687185772
 20
-466.3117441447715
 30
0.0
 40
2.0
100
AcDbArc
 50
90.0
 51
104.4775121859299
  0
ARC
  5
162
330
3F
100
AcDbEntity
  8
1
  6
Continuous
 62
     3
100
AcDbCircle
 10
498.1499687185772
 20
-597.3117441447715
 30
0.0
 40
1.000000000000075
100
AcDbArc
 50
26.1652952989184
 51
90.0
  0
ARC
  5
163
330
3F
100
AcDbEntity
  8
1
  6
Continuous
 62
     3
100
AcDbCircle
 10
498.1499687185772
 20
-642.3117441447715
 30
0.0
 40
1.0
100
AcDbArc
 50
-90.0
 51
-30.0000000000038
  0
ARC
  5
164
330
3F
100
AcDbEntity
  8
1
  6
Continuous
 62
     3
100
AcDbCircle
 10
495.6499687185772
 20
-598.3117441447715
 30
0.0
 40
2.0
100
AcDbArc
 50
90.0
 51
104.4775121859287
  0
ARC
  5
165
330
3F
100
AcDbEntity
  8
1
  6
Continuous
 62
     3
100
AcDbCircle
 10
637.1905092591177
 20
-597.3117441447715
 30
0.0
 40
1.0
100
AcDbArc
 50
90.0
 51
153.834704701083
  0
ARC
  5
166
330
3F
100
AcDbEntity
  8
1
  6
Continuous
 62
     3
100
AcDbCircle
 10
637.1905092591177
 20
-642.3117441447715
 30
0.0
 40
0.9999999999998851
100
AcDbArc
 50
-149.9999999999962
 51
-90.0
  0
ARC
  5
167
330
3F
100
AcDbEntity
  8
1
  6
Continuous
 62
     3
100
AcDbCircle
 10
639.6905092591177
 20
-598.3117441447715
 30
0.0
 40
2.000000000000173
100
AcDbArc
 50
75.52248781407137
 51
90.0
  0
ENDBLK
  5
41
330
3F
100
AcDbEntity
  8
0
100
AcDbBlockEnd
  0
BLOCK
  5
2C8
330
2BF
100
AcDbEntity
  8
0
100
AcDbBlockBegin
  2
*D06
 70
     1
 71
     0
 10
0.0
 20
0.0
 30
0.0
  3
*D06
  1

  0
LINE
  5
2C0
330
2BF
100
AcDbEntity
  8
1
  6
Continuous
 62
     2
100
AcDbLine
 10
418.6499687185773
 20
-619.8117441447715
 30
0.0
 11
418.6499687185773
 21
-661.8117441447715
 31
0.0
  0
LINE
  5
2C1
330
2BF
100
AcDbEntity
  8
1
  6
Continuous
 62
     2
100
AcDbLine
 10
450.1679179110081
 20
-661.8117441447715
 30
0.0
 11
417.6499687185773
 21
-661.8117441447715
 31
0.0
  0
LINE
  5
2C2
330
2BF
100
AcDbEntity
  8
1
  6
Continuous
 62
     2
100
AcDbLine
 10
425.6499687185773
 20
-619.8117441447715
 30
0.0
 11
417.6499687185773
 21
-619.8117441447715
 31
0.0
  0
LINE
  5
2C3
330
2BF
100
AcDbEntity
  8
1
 62
     2
100
AcDbLine
 10
418.6499687185773
 20
-619.8117441447715
 30
0.0
 11
419.5877908920863
 21
-623.3117441447715
 31
0.0
  0
LINE
  5
2C4
330
2BF
100
AcDbEntity
  8
1
 62
     2
100
AcDbLine
 10
418.6499687185773
 20
-619.8117441447715
 30
0.0
 11
417.7121465450684
 21
-623.3117441447715
 31
0.0
  0
LINE
  5
2C5
330
2BF
100
AcDbEntity
  8
1
 62
     2
100
AcDbLine
 10
418.6499687185773
 20
-661.8117441447715
 30
0.0
 11
417.7121465450684
 21
-658.3117441447715
 31
0.0
  0
LINE
  5
2C6
330
2BF
100
AcDbEntity
  8
1
 62
     2
100
AcDbLine
 10
418.6499687185773
 20
-661.8117441447715
 30
0.0
 11
419.5877908920863
 21
-658.3117441447715
 31
0.0
  0
MTEXT
  5
2C7
330
2BF
100
AcDbEntity
  8
1
 62
     2
100
AcDbMText
 10
417.0499687185773
 20
-643.736410424691
 30
0.0
 40
3.5
 41
0.0
 71
     7
 72
     1
  1
42
  7
CONVERTER_1
 11
0.0
 21
1.0
 31
0.0
 73
     1
 44
0.60024009603842
  0
ENDBLK
  5
2C9
330
2BF
100
AcDbEntity
  8
0
100
AcDbBlockEnd
  0
BLOCK
  5
2CB
330
2CA
100
AcDbEntity
  8
0
100
AcDbBlockBegin
  2
_Open30
 70
     0
 71
     0
 10
0.0
 20
0.0
 30
0.0
  3
_Open30
  1

  0
LINE
  5
2CD
330
2CA
100
AcDbEntity
  8
0
  6
ByBlock
 62
     0
370
    -2
100
AcDbLine
 10
-1.0
 20
0.267949
 30
0.0
 11
0.0
 21
0.0
 31
0.0
  0
LINE
  5
2CE
330
2CA
100
AcDbEntity
  8
0
  6
ByBlock
 62
     0
370
    -2
100
AcDbLine
 10
0.0
 20
0.0
 30
0.0
 11
-1.0
 21
-0.267949
 31
0.0
  0
LINE
  5
2CF
330
2CA
100
AcDbEntity
  8
0
  6
ByBlock
 62
     0
370
    -2
100
AcDbLine
 10
0.0
 20
0.0
 30
0.0
 11
-1.0
 21
0.0
 31
0.0
  0
ENDBLK
  5
2CC
330
2CA
100
AcDbEntity
  8
0
100
AcDbBlockEnd
  0
BLOCK
  5
2DB
330
2D2
100
AcDbEntity
  8
0
100
AcDbBlockBegin
  2
*D18
 70
     1
 71
     0
 10
0.0
 20
0.0
 30
0.0
  3
*D18
  1

  0
LINE
  5
2D3
330
2D2
100
AcDbEntity
  8
1
  6
Continuous
 62
     2
100
AcDbLine
 10
418.6499687185773
 20
-619.8117441447715
 30
0.0
 11
418.6499687185773
 21
-566.3117441447715
 31
0.0
  0
LINE
  5
2D4
330
2D2
100
AcDbEntity
  8
1
  6
Continuous
 62
     2
100
AcDbLine
 10
450.649968718577
 20
-566.3117441447715
 30
0.0
 11
417.6499687185773
 21
-566.3117441447715
 31
0.0
  0
LINE
  5
2D5
330
2D2
100
AcDbEntity
  8
1
  6
Continuous
 62
     2
100
AcDbLine
 10
425.6499687185773
 20
-619.8117441447715
 30
0.0
 11
417.6499687185773
 21
-619.8117441447715
 31
0.0
  0
LINE
  5
2D6
330
2D2
100
AcDbEntity
  8
1
 62
     2
100
AcDbLine
 10
418.6499687185773
 20
-619.8117441447715
 30
0.0
 11
417.7121465450684
 21
-616.3117441447715
 31
0.0
  0
LINE
  5
2D7
330
2D2
100
AcDbEntity
  8
1
 62
     2
100
AcDbLine
 10
418.6499687185773
 20
-619.8117441447715
 30
0.0
 11
419.5877908920863
 21
-616.3117441447715
 31
0.0
  0
LINE
  5
2D8
330
2D2
100
AcDbEntity
  8
1
 62
     2
100
AcDbLine
 10
418.6499687185773
 20
-566.3117441447715
 30
0.0
 11
419.5877908920863
 21
-569.8117441447715
 31
0.0
  0
LINE
  5
2D9
330
2D2
100
AcDbEntity
  8
1
 62
     2
100
AcDbLine
 10
418.6499687185773
 20
-566.3117441447715
 30
0.0
 11
417.7121465450684
 21
-569.8117441447715
 31
0.0
  0
MTEXT
  5
2DA
330
2D2
100
AcDbEntity
  8
1
 62
     2
100
AcDbMText
 10
417.0499687185773
 20
-601.0804941447715
 30
0.0
 40
3.5
 41
0.0
 71
     7
 72
     1
  1
53.5
  7
CONVERTER_1
 11
0.0
 21
1.0
 31
0.0
 73
     1
 44
0.60024009603842
  0
ENDBLK
  5
2DC
330
2D2
100
AcDbEntity
  8
0
100
AcDbBlockEnd
  0
BLOCK
  5
2E8
330
2DF
100
AcDbEntity
  8
0
100
AcDbBlockBegin
  2
*D29
 70
     1
 71
     0
 10
0.0
 20
0.0
 30
0.0
  3
*D29
  1

  0
LINE
  5
2E0
330
2DF
100
AcDbEntity
  8
1
  6
Continuous
 62
     2
100
AcDbLine
 10
418.544570532415
 20
-566.3117441447715
 30
0.0
 11
418.544570532415
 21
-541.3117441447715
 31
0.0
  0
LINE
  5
2E1
330
2DF
100
AcDbEntity
  8
1
  6
Continuous
 62
     2
100
AcDbLine
 10
466.399968718577
 20
-541.3117441447715
 30
0.0
 11
417.544570532415
 21
-541.3117441447715
 31
0.0
  0
LINE
  5
2E2
330
2DF
100
AcDbEntity
  8
1
  6
Continuous
 62
     2
100
AcDbLine
 10
450.649968718577
 20
-566.3117441447715
 30
0.0
 11
417.544570532415
 21
-566.3117441447715
 31
0.0
  0
LINE
  5
2E3
330
2DF
100
AcDbEntity
  8
1
 62
     2
100
AcDbLine
 10
418.544570532415
 20
-566.3117441447715
 30
0.0
 11
417.6067483589061
 21
-562.8117441447715
 31
0.0
  0
LINE
  5
2E4
330
2DF
100
AcDbEntity
  8
1
 62
     2
100
AcDbLine
 10
418.544570532415
 20
-566.3117441447715
 30
0.0
 11
419.482392705924
 21
-562.8117441447715
 31
0.0
  0
LINE
  5
2E5
330
2DF
100
AcDbEntity
  8
1
 62
     2
100
AcDbLine
 10
418.544570532415
 20
-541.3117441447715
 30
0.0
 11
419.482392705924
 21
-544.8117441447715
 31
0.0
  0
LINE
  5
2E6
330
2DF
100
AcDbEntity
  8
1
 62
     2
100
AcDbLine
 10
418.544570532415
 20
-541.3117441447715
 30
0.0
 11
417.6067483589061
 21
-544.8117441447715
 31
0.0
  0
MTEXT
  5
2E7
330
2DF
100
AcDbEntity
  8
1
 62
     2
100
AcDbMText
 10
416.944570532415
 20
-553.990802456471
 30
0.0
 40
3.5
 41
0.0
 71
     7
 72
     1
  1
25
  7
CONVERTER_1
 11
0.0
 21
1.0
 31
0.0
 73
     1
 44
0.60024009603842
  0
ENDBLK
  5
2E9
330
2DF
100
AcDbEntity
  8
0
100
AcDbBlockEnd
  0
BLOCK
  5
2F5
330
2EC
100
AcDbEntity
  8
0
100
AcDbBlockBegin
  2
*D310
 70
     1
 71
     0
 10
0.0
 20
0.0
 30
0.0
  3
*D310
  1

  0
LINE
  5
2ED
330
2EC
100
AcDbEntity
  8
1
  6
Continuous
 62
     2
100
AcDbLine
 10
471.649968718577
 20
-674.3117441447715
 30
0.0
 11
429.6499687185773
 21
-674.3117441447715
 31
0.0
  0
LINE
  5
2EE
330
2EC
100
AcDbEntity
  8
1
  6
Continuous
 62
     2
100
AcDbLine
 10
429.6499687185773
 20
-641.3117441447715
 30
0.0
 11
429.6499687185773
 21
-675.3117441447715
 31
0.0
  0
LINE
  5
2EF
330
2EC
100
AcDbEntity
  8
1
  6
Continuous
 62
     2
100
AcDbLine
 10
471.649968718577
 20
-667.3117441447715
 30
0.0
 11
471.649968718577
 21
-675.3117441447715
 31
0.0
  0
LINE
  5
2F0
330
2EC
100
AcDbEntity
  8
1
 62
     2
100
AcDbLine
 10
471.649968718577
 20
-674.3117441447715
 30
0.0
 11
468.149968718577
 21
-675.2495663182805
 31
0.0
  0
LINE
  5
2F1
330
2EC
100
AcDbEntity
  8
1
 62
     2
100
AcDbLine
 10
471.649968718577
 20
-674.3117441447715
 30
0.0
 11
468.149968718577
 21
-673.3739219712626
 31
0.0
  0
LINE
  5
2F2
330
2EC
100
AcDbEntity
  8
1
 62
     2
100
AcDbLine
 10
429.6499687185773
 20
-674.3117441447715
 30
0.0
 11
433.1499687185773
 21
-673.3739219712626
 31
0.0
  0
LINE
  5
2F3
330
2EC
100
AcDbEntity
  8
1
 62
     2
100
AcDbLine
 10
429.6499687185773
 20
-674.3117441447715
 30
0.0
 11
433.1499687185773
 21
-675.2495663182805
 31
0.0
  0
MTEXT
  5
2F4
330
2EC
100
AcDbEntity
  8
1
 62
     2
100
AcDbMText
 10
447.396224370829
 20
-672.7117441447715
 30
0.0
 40
3.5
 41
0.0
 71
     7
 72
     1
  1
42
  7
CONVERTER_1
 11
0.9999999999970621
 21
2.424068405545307E-6
 31
0.0
 73
     1
 44
0.60024009603842
  0
ENDBLK
  5
2F6
330
2EC
100
AcDbEntity
  8
0
100
AcDbBlockEnd
  0
BLOCK
  5
302
330
2F9
100
AcDbEntity
  8
0
100
AcDbBlockBegin
  2
*D411
 70
     1
 71
     0
 10
0.0
 20
0.0
 30
0.0
  3
*D411
  1

  0
LINE
  5
2FA
330
2F9
100
AcDbEntity
  8
1
  6
Continuous
 62
     2
100
AcDbLine
 10
429.6499687185773
 20
-685.9854976935691
 30
0.0
 11
514.6499687185772
 21
-685.9854976935691
 31
0.0
  0
LINE
  5
2FB
330
2F9
100
AcDbEntity
  8
1
  6
Continuous
 62
     2
100
AcDbLine
 10
514.6499687185772
 20
-638.2376688937059
 30
0.0
 11
514.6499687185772
 21
-686.9854976935691
 31
0.0
  0
LINE
  5
2FC
330
2F9
100
AcDbEntity
  8
1
  6
Continuous
 62
     2
100
AcDbLine
 10
429.6499687185773
 20
-641.3117441447715
 30
0.0
 11
429.6499687185773
 21
-686.9854976935691
 31
0.0
  0
LINE
  5
2FD
330
2F9
100
AcDbEntity
  8
1
 62
     2
100
AcDbLine
 10
429.6499687185773
 20
-685.9854976935691
 30
0.0
 11
433.1499687185773
 21
-685.0476755200601
 31
0.0
  0
LINE
  5
2FE
330
2F9
100
AcDbEntity
  8
1
 62
     2
100
AcDbLine
 10
429.6499687185773
 20
-685.9854976935691
 30
0.0
 11
433.1499687185773
 21
-686.923319867078
 31
0.0
  0
LINE
  5
2FF
330
2F9
100
AcDbEntity
  8
1
 62
     2
100
AcDbLine
 10
514.6499687185772
 20
-685.9854976935691
 30
0.0
 11
511.1499687185772
 21
-686.923319867078
 31
0.0
  0
LINE
  5
300
330
2F9
100
AcDbEntity
  8
1
 62
     2
100
AcDbLine
 10
514.6499687185772
 20
-685.9854976935691
 30
0.0
 11
511.1499687185772
 21
-685.0476755200601
 31
0.0
  0
MTEXT
  5
301
330
2F9
100
AcDbEntity
  8
1
 62
     2
100
AcDbMText
 10
468.828011348314
 20
-684.3854976935691
 30
0.0
 40
3.5
 41
0.0
 71
     7
 72
     1
  1
85
  7
CONVERTER_1
 11
0.9999999999970621
 21
2.424068405545307E-6
 31
0.0
 73
     1
 44
0.60024009603842
  0
ENDBLK
  5
303
330
2F9
100
AcDbEntity
  8
0
100
AcDbBlockEnd
  0
ENDSEC
  0
SECTION
  2
ENTITIES
  0
INSERT
  5
42
330
1F
100
AcDbEntity
  8
0
100
AcDbBlockReference
  2
TOP
 10
371.772968345943
 20
-1216.62614457102
 30
0.0
  0
INSERT
  5
43
330
1F
100
AcDbEntity
  8
1
100
AcDbBlockReference
  2
_5
 10
342.880174469531
 20
-262.13030285773
 30
0.0
  0
INSERT
  5
44
330
1F
100
AcDbEntity
  8
1
100
AcDbBlockReference
  2
_4
 10
334.9703936029752
 20
-273.63030285773
 30
0.0
  0
INSERT
  5
45
330
1F
100
AcDbEntity
  8
1
100
AcDbBlockReference
  2
_2
 10
429.649968718577
 20
-511.3117441447715
 30
0.0
  0
INSERT
  5
46
330
1F
100
AcDbEntity
  8
1
100
AcDbBlockReference
  2
_7
 10
495.1499687185772
 20
-643.3117441447715
 30
0.0
  0
LINE
  5
168
330
1F
100
AcDbEntity
  8
1
  6
DOT_CENTER
 62
     1
100
AcDbLine
 10
617.6905092591177
 20
-619.8117441447715
 30
0.0
 11
708.6905092591177
 21
-619.8117441447715
 31
0.0
  0
LINE
  5
169
330
1F
100
AcDbEntity
  8
1
  6
DOT_CENTER
 62
     1
100
AcDbLine
 10
663.6905092591179
 20
-664.8117441447715
 30
0.0
 11
663.6905092591179
 21
-538.3117441447716
 31
0.0
  0
LINE
  5
16A
330
1F
100
AcDbEntity
  8
1
  6
Continuous
 62
     3
100
AcDbLine
 10
687.6905092591179
 20
-623.3117441447715
 30
0.0
 11
687.6905092591177
 21
-640.3117441447715
 31
0.0
  0
LINE
  5
16B
330
1F
100
AcDbEntity
  8
1
  6
Continuous
 62
     3
100
AcDbLine
 10
645.1905092591179
 20
-616.3117441447715
 30
0.0
 11
688.0019540981599
 21
-616.3117441447715
 31
0.0
  0
LINE
  5
16C
330
1F
100
AcDbEntity
  8
1
  6
Continuous
 62
     3
100
AcDbLine
 10
688.0019540981599
 20
-623.3117441447715
 30
0.0
 11
645.1905092591179
 21
-623.3117441447715
 31
0.0
  0
LINE
  5
16D
330
1F
100
AcDbEntity
  8
1
  6
Continuous
 62
     3
100
AcDbLine
 10
685.0385854704711
 20
-661.8117441447715
 30
0.0
 11
642.3424330477645
 21
-661.8117441447715
 31
0.0
  0
LINE
  5
16E
330
1F
100
AcDbEntity
  8
1
  6
Continuous
 62
     3
100
AcDbLine
 10
686.1905092591179
 20
-640.3117441447715
 30
0.0
 11
687.6905092591177
 21
-640.3117441447715
 31
0.0
  0
LINE
  5
16F
330
1F
100
AcDbEntity
  8
1
  6
Continuous
 62
     3
100
AcDbLine
 10
641.6905092591179
 20
-661.4353557699052
 30
0.0
 11
642.3424330477645
 21
-661.8117441447715
 31
0.0
  0
LINE
  5
170
330
1F
100
AcDbEntity
  8
1
  6
Continuous
 62
     3
100
AcDbLine
 10
685.6905092591179
 20
-661.4353557699052
 30
0.0
 11
685.0385854704711
 21
-661.8117441447715
 31
0.0
  0
LINE
  5
171
330
1F
100
AcDbEntity
  8
1
  6
Continuous
 62
     3
100
AcDbLine
 10
685.6905092591179
 20
-646.9098203561246
 30
0.0
 11
684.1905092591179
 21
-644.3117441447715
 31
0.0
  0
LINE
  5
172
330
1F
100
AcDbEntity
  8
1
  6
Continuous
 62
     3
100
AcDbLine
 10
684.1905092591179
 20
-644.3117441447715
 30
0.0
 11
684.1905092591179
 21
-642.3117441447715
 31
0.0
  0
LINE
  5
173
330
1F
100
AcDbEntity
  8
1
  6
Continuous
 62
     3
100
AcDbLine
 10
684.1725600666867
 20
-644.3117441447715
 30
0.0
 11
643.1905092591179
 21
-644.3117441447715
 31
0.0
  0
LINE
  5
174
330
1F
100
AcDbEntity
  8
1
  6
Continuous
 62
     3
100
AcDbLine
 10
652.4953442464534
 20
-660.6466806353106
 30
0.0
 11
652.4953442464533
 21
-647.7758457599091
 31
0.0
  0
LINE
  5
175
330
1F
100
AcDbEntity
  8
1
  6
Continuous
 62
     3
100
AcDbLine
 10
674.8856742717825
 20
-660.6466806353106
 30
0.0
 11
674.8856742717823
 21
-647.7758457599091
 31
0.0
  0
LINE
  5
176
330
1F
100
AcDbEntity
  8
1
  6
Continuous
 62
     3
100
AcDbLine
 10
641.6905092591179
 20
-661.4353557699052
 30
0.0
 11
641.6905092591179
 21
-646.9098203561246
 31
0.0
  0
LINE
  5
177
330
1F
100
AcDbEntity
  8
1
  6
Continuous
 62
     3
100
AcDbLine
 10
685.6905092591179
 20
-661.4353557699052
 30
0.0
 11
685.6905092591179
 21
-646.9098203561246
 31
0.0
  0
LINE
  5
178
330
1F
100
AcDbEntity
  8
1
  6
Continuous
 62
     3
100
AcDbLine
 10
641.6905092591179
 20
-646.9098203561246
 30
0.0
 11
643.1905092591179
 21
-644.3117441447715
 31
0.0
  0
LINE
  5
179
330
1F
100
AcDbEntity
  8
1
  6
Continuous
 62
     3
100
AcDbLine
 10
646.1905092591179
 20
-616.3117441447715
 30
0.0
 11
646.1905092591177
 21
-597.3117441447715
 31
0.0
  0
LINE
  5
17A
330
1F
100
AcDbEntity
  8
1
  6
Continuous
 62
     3
100
AcDbLine
 10
645.1905092591179
 20
-616.3117441447715
 30
0.0
 11
645.1905092591177
 21
-596.3117441447715
 31
0.0
  0
LINE
  5
17B
330
1F
100
AcDbEntity
  8
1
  6
Continuous
 62
     3
100
AcDbLine
 10
673.00351498252
 20
-597.3291926374369
 30
0.0
 11
665.00351498252
 21
-596.3291926374369
 31
0.0
  0
LINE
  5
17C
330
1F
100
AcDbEntity
  8
1
  6
Continuous
 62
     3
100
AcDbLine
 10
662.0698534504078
 20
-596.1030690461719
 30
0.0
 11
654.0698534504078
 21
-596.1030690461719
 31
0.0
  0
LINE
  5
17D
330
1F
100
AcDbEntity
  8
1
  6
Continuous
 62
     3
100
AcDbLine
 10
645.1905092591177
 20
-643.3117441447715
 30
0.0
 11
645.1905092591179
 21
-623.3117441447715
 31
0.0
  0
LINE
  5
17E
330
1F
100
AcDbEntity
  8
1
  6
Continuous
 62
     3
100
AcDbLine
 10
646.1905092591177
 20
-643.3117441447715
 30
0.0
 11
646.1905092591179
 21
-623.3117441447715
 31
0.0
  0
LINE
  5
17F
330
1F
100
AcDbEntity
  8
1
  6
Continuous
 62
     3
100
AcDbLine
 10
687.6905092591179
 20
-599.3296933372026
 30
0.0
 11
687.6905092591179
 21
-616.3117441447715
 31
0.0
  0
LINE
  5
180
330
1F
100
AcDbEntity
  8
1
  6
Continuous
 62
     3
100
AcDbLine
 10
704.5254457496568
 20
-608.6165791321071
 30
0.0
 11
691.1546108742556
 21
-608.6165791321071
 31
0.0
  0
LINE
  5
181
330
1F
100
AcDbEntity
  8
1
  6
Continuous
 62
     3
100
AcDbLine
 10
704.5254457496568
 20
-631.0069091574361
 30
0.0
 11
691.1546108742556
 21
-631.0069091574361
 31
0.0
  0
LINE
  5
182
330
1F
100
AcDbEntity
  8
1
  6
Continuous
 62
     3
100
AcDbLine
 10
646.6905092591179
 20
-570.8117441447715
 30
0.0
 11
680.6905092591179
 21
-570.8117441447715
 31
0.0
  0
LINE
  5
183
330
1F
100
AcDbEntity
  8
1
  6
Continuous
 62
     3
100
AcDbLine
 10
663.6905092591177
 20
-566.3117441447715
 30
0.0
 11
643.6905092591179
 21
-566.3117441447715
 31
0.0
  0
LINE
  5
184
330
1F
100
AcDbEntity
  8
1
  6
Continuous
 62
     3
100
AcDbLine
 10
663.6905092591177
 20
-566.3117441447715
 30
0.0
 11
683.6905092591179
 21
-566.3117441447715
 31
0.0
  0
LINE
  5
185
330
1F
100
AcDbEntity
  8
1
  6
Continuous
 62
     3
100
AcDbLine
 10
680.6905092591179
 20
-570.8117441447715
 30
0.0
 11
682.6905092591179
 21
-570.8117441447715
 31
0.0
  0
LINE
  5
186
330
1F
100
AcDbEntity
  8
1
  6
Continuous
 62
     3
100
AcDbLine
 10
644.6905092591179
 20
-570.8117441447715
 30
0.0
 11
646.6905092591179
 21
-570.8117441447715
 31
0.0
  0
LINE
  5
187
330
1F
100
AcDbEntity
  8
1
  6
Continuous
 62
     3
100
AcDbLine
 10
643.6905092591179
 20
-566.3117441447715
 30
0.0
 11
643.6905092591179
 21
-569.8117441447715
 31
0.0
  0
LINE
  5
188
330
1F
100
AcDbEntity
  8
1
  6
Continuous
 62
     3
100
AcDbLine
 10
652.6905092591179
 20
-582.184727490979
 30
0.0
 11
652.6905092591177
 21
-592.3117441447715
 31
0.0
  0
LINE
  5
189
330
1F
100
AcDbEntity
  8
1
  6
Continuous
 62
     3
100
AcDbLine
 10
674.6905092591177
 20
-594.8092442072683
 30
0.0
 11
674.6905092591179
 21
-582.184727490979
 31
0.0
  0
LINE
  5
18A
330
1F
100
AcDbEntity
  8
1
  6
Continuous
 62
     3
100
AcDbLine
 10
676.6905092591179
 20
-566.3117441447715
 30
0.0
 11
683.6905092591179
 21
-566.3117441447715
 31
0.0
  0
LINE
  5
18B
330
1F
100
AcDbEntity
  8
1
  6
Continuous
 62
     3
100
AcDbLine
 10
650.6905092591177
 20
-566.3117441447715
 30
0.0
 11
643.6905092591179
 21
-566.3117441447715
 31
0.0
  0
LINE
  5
18C
330
1F
100
AcDbEntity
  8
1
  6
Continuous
 62
     3
100
AcDbLine
 10
687.6905092591177
 20
-640.3117441447715
 30
0.0
 11
690.2885854704711
 21
-641.8117441447715
 31
0.0
  0
LINE
  5
18D
330
1F
100
AcDbEntity
  8
1
  6
Continuous
 62
     3
100
AcDbLine
 10
704.8141208842513
 20
-641.8117441447715
 30
0.0
 11
690.2885854704711
 21
-641.8117441447715
 31
0.0
  0
LINE
  5
18E
330
1F
100
AcDbEntity
  8
1
  6
Continuous
 62
     3
100
AcDbLine
 10
690.3196743837165
 20
-597.8117441447715
 30
0.0
 11
704.8141208842513
 21
-597.8117441447715
 31
0.0
  0
LINE
  5
18F
330
1F
100
AcDbEntity
  8
1
  6
Continuous
 62
     3
100
AcDbLine
 10
690.3196743837165
 20
-597.8117441447715
 30
0.0
 11
685.7791727954924
 21
-600.4332039589888
 31
0.0
  0
LINE
  5
190
330
1F
100
AcDbEntity
  8
1
  6
Continuous
 62
     3
100
AcDbLine
 10
645.1905092591177
 20
-596.3117441447715
 30
0.0
 11
641.1905092591177
 21
-596.3117441447715
 31
0.0
  0
LINE
  5
191
330
1F
100
AcDbEntity
  8
1
  6
Continuous
 62
     3
100
AcDbLine
 10
646.1905092591177
 20
-597.3117441447715
 30
0.0
 11
645.1905092591177
 21
-596.3117441447715
 31
0.0
  0
LINE
  5
192
330
1F
100
AcDbEntity
  8
1
  6
Continuous
 62
     3
100
AcDbLine
 10
646.1905092591177
 20
-597.3117441447715
 30
0.0
 11
647.6905092591177
 21
-597.3117441447715
 31
0.0
  0
LINE
  5
193
330
1F
100
AcDbEntity
  8
1
  6
Continuous
 62
     3
100
AcDbLine
 10
705.6905092591177
 20
-640.3117441447715
 30
0.0
 11
705.6905092591177
 21
-599.3296933372026
 31
0.0
  0
LINE
  5
194
330
1F
100
AcDbEntity
  8
1
  6
Continuous
 62
     3
100
AcDbLine
 10
704.8141208842513
 20
-641.8117441447715
 30
0.0
 11
705.6199609524066
 21
-640.4159882039519
 31
0.0
  0
LINE
  5
195
330
1F
100
AcDbEntity
  8
1
  6
Continuous
 62
     3
100
AcDbLine
 10
704.8141208842513
 20
-597.8117441447715
 30
0.0
 11
705.6905092591177
 21
-599.3296933372026
 31
0.0
  0
LINE
  5
196
330
1F
100
AcDbEntity
  8
1
  6
Continuous
 62
     3
100
AcDbLine
 10
683.6905092591179
 20
-569.8117441447715
 30
0.0
 11
683.6905092591179
 21
-566.3117441447715
 31
0.0
  0
LINE
  5
197
330
1F
100
AcDbEntity
  8
1
  6
Continuous
 62
     3
100
AcDbLine
 10
643.6905092591177
 20
-570.8117441447715
 30
0.0
 11
644.6905092591179
 21
-570.8117441447715
 31
0.0
  0
LINE
  5
198
330
1F
100
AcDbEntity
  8
1
  6
Continuous
 62
     3
100
AcDbLine
 10
641.6905092591177
 20
-566.3117441447715
 30
0.0
 11
641.6905092591177
 21
-568.8117441447715
 31
0.0
  0
LINE
  5
199
330
1F
100
AcDbEntity
  8
1
  6
Continuous
 62
     3
100
AcDbLine
 10
643.6905092591179
 20
-566.3117441447715
 30
0.0
 11
641.6905092591177
 21
-566.3117441447715
 31
0.0
  0
LINE
  5
19A
330
1F
100
AcDbEntity
  8
1
  6
Continuous
 62
     3
100
AcDbLine
 10
649.6905092591179
 20
-573.8117441447715
 30
0.0
 11
649.6905092591179
 21
-578.3117441447715
 31
0.0
  0
LINE
  5
19B
330
1F
100
AcDbEntity
  8
1
  6
Continuous
 62
     3
100
AcDbLine
 10
677.6905092591179
 20
-578.3117441447715
 30
0.0
 11
677.6905092591179
 21
-573.8117441447715
 31
0.0
  0
LINE
  5
19C
330
1F
100
AcDbEntity
  8
1
  6
Continuous
 62
     3
100
AcDbLine
 10
651.1905092591179
 20
-580.2482358178752
 30
0.0
 11
676.1905092591179
 21
-580.2482358178752
 31
0.0
  0
LINE
  5
19D
330
1F
100
AcDbEntity
  8
1
  6
Continuous
 62
     3
100
AcDbLine
 10
459.149968718577
 20
-580.2482358178752
 30
0.0
 11
484.149968718577
 21
-580.2482358178752
 31
0.0
  0
LINE
  5
19E
330
1F
100
AcDbEntity
  8
1
  6
Continuous
 62
     3
100
AcDbLine
 10
457.649968718577
 20
-573.8117441447715
 30
0.0
 11
457.649968718577
 21
-578.3117441447715
 31
0.0
  0
LINE
  5
19F
330
1F
100
AcDbEntity
  8
1
  6
Continuous
 62
     3
100
AcDbLine
 10
485.649968718577
 20
-578.3117441447715
 30
0.0
 11
485.649968718577
 21
-573.8117441447715
 31
0.0
  0
LINE
  5
1A0
330
1F
100
AcDbEntity
  8
1
  6
Continuous
 62
     3
100
AcDbLine
 10
493.6499687185772
 20
-566.3117441447715
 30
0.0
 11
491.649968718577
 21
-566.3117441447715
 31
0.0
  0
LINE
  5
1A1
330
1F
100
AcDbEntity
  8
1
  6
Continuous
 62
     3
100
AcDbLine
 10
493.6499687185772
 20
-568.8117441447715
 30
0.0
 11
493.6499687185772
 21
-566.3117441447715
 31
0.0
  0
LINE
  5
1A2
330
1F
100
AcDbEntity
  8
1
  6
Continuous
 62
     3
100
AcDbLine
 10
490.649968718577
 20
-570.8117441447715
 30
0.0
 11
491.6499687185772
 21
-570.8117441447715
 31
0.0
  0
LINE
  5
1A3
330
1F
100
AcDbEntity
  8
1
  6
Continuous
 62
     3
100
AcDbLine
 10
451.649968718577
 20
-566.3117441447715
 30
0.0
 11
451.649968718577
 21
-569.8117441447715
 31
0.0
  0
LINE
  5
1A4
330
1F
100
AcDbEntity
  8
1
  6
Continuous
 62
     3
100
AcDbLine
 10
429.6499687185773
 20
-599.3296933372026
 30
0.0
 11
430.5263570934436
 21
-597.8117441447715
 31
0.0
  0
LINE
  5
1A5
330
1F
100
AcDbEntity
  8
1
  6
Continuous
 62
     3
100
AcDbLine
 10
429.7205170252884
 20
-640.4159882039519
 30
0.0
 11
430.5263570934436
 21
-641.8117441447715
 31
0.0
  0
LINE
  5
1A6
330
1F
100
AcDbEntity
  8
1
  6
Continuous
 62
     3
100
AcDbLine
 10
429.6499687185773
 20
-599.3296933372026
 30
0.0
 11
429.6499687185773
 21
-640.3117441447715
 31
0.0
  0
LINE
  5
1A7
330
1F
100
AcDbEntity
  8
1
  6
Continuous
 62
     3
100
AcDbLine
 10
487.6499687185772
 20
-597.3117441447715
 30
0.0
 11
489.1499687185772
 21
-597.3117441447715
 31
0.0
  0
LINE
  5
1A8
330
1F
100
AcDbEntity
  8
1
  6
Continuous
 62
     3
100
AcDbLine
 10
490.1499687185772
 20
-596.3117441447715
 30
0.0
 11
489.1499687185772
 21
-597.3117441447715
 31
0.0
  0
LINE
  5
1A9
330
1F
100
AcDbEntity
  8
1
  6
Continuous
 62
     3
100
AcDbLine
 10
494.1499687185772
 20
-596.3117441447715
 30
0.0
 11
490.1499687185772
 21
-596.3117441447715
 31
0.0
  0
LINE
  5
1AA
330
1F
100
AcDbEntity
  8
1
  6
Continuous
 62
     3
100
AcDbLine
 10
449.5613051822025
 20
-600.4332039589888
 30
0.0
 11
445.0208035939784
 21
-597.8117441447715
 31
0.0
  0
LINE
  5
1AB
330
1F
100
AcDbEntity
  8
1
  6
Continuous
 62
     3
100
AcDbLine
 10
430.5263570934436
 20
-597.8117441447715
 30
0.0
 11
445.0208035939784
 21
-597.8117441447715
 31
0.0
  0
LINE
  5
1AC
330
1F
100
AcDbEntity
  8
1
  6
Continuous
 62
     3
100
AcDbLine
 10
445.0518925072238
 20
-641.8117441447715
 30
0.0
 11
430.5263570934436
 21
-641.8117441447715
 31
0.0
  0
LINE
  5
1AD
330
1F
100
AcDbEntity
  8
1
  6
Continuous
 62
     3
100
AcDbLine
 10
445.0518925072238
 20
-641.8117441447715
 30
0.0
 11
447.6499687185772
 21
-640.3117441447715
 31
0.0
  0
LINE
  5
1AE
330
1F
100
AcDbEntity
  8
1
  6
Continuous
 62
     3
100
AcDbLine
 10
491.649968718577
 20
-566.3117441447715
 30
0.0
 11
484.6499687185772
 21
-566.3117441447715
 31
0.0
  0
LINE
  5
1AF
330
1F
100
AcDbEntity
  8
1
  6
Continuous
 62
     3
100
AcDbLine
 10
451.649968718577
 20
-566.3117441447715
 30
0.0
 11
458.6499687185768
 21
-566.3117441447715
 31
0.0
  0
LINE
  5
1B0
330
1F
100
AcDbEntity
  8
1
  6
Continuous
 62
     3
100
AcDbLine
 10
460.649968718577
 20
-582.184727490979
 30
0.0
 11
460.6499687185772
 21
-594.8092442072683
 31
0.0
  0
LINE
  5
1B1
330
1F
100
AcDbEntity
  8
1
  6
Continuous
 62
     3
100
AcDbLine
 10
482.6499687185772
 20
-592.3117441447715
 30
0.0
 11
482.649968718577
 21
-582.184727490979
 31
0.0
  0
LINE
  5
1B2
330
1F
100
AcDbEntity
  8
1
  6
Continuous
 62
     3
100
AcDbLine
 10
491.649968718577
 20
-569.8117441447715
 30
0.0
 11
491.649968718577
 21
-566.3117441447715
 31
0.0
  0
LINE
  5
1B3
330
1F
100
AcDbEntity
  8
1
  6
Continuous
 62
     3
100
AcDbLine
 10
488.649968718577
 20
-570.8117441447715
 30
0.0
 11
490.649968718577
 21
-570.8117441447715
 31
0.0
  0
LINE
  5
1B4
330
1F
100
AcDbEntity
  8
1
  6
Continuous
 62
     3
100
AcDbLine
 10
452.649968718577
 20
-570.8117441447715
 30
0.0
 11
454.649968718577
 21
-570.8117441447715
 31
0.0
  0
LINE
  5
1B5
330
1F
100
AcDbEntity
  8
1
  6
Continuous
 62
     3
100
AcDbLine
 10
451.649968718577
 20
-566.3117441447715
 30
0.0
 11
471.6499687185768
 21
-566.3117441447715
 31
0.0
  0
LINE
  5
1B6
330
1F
100
AcDbEntity
  8
1
  6
Continuous
 62
     3
100
AcDbLine
 10
491.649968718577
 20
-566.3117441447715
 30
0.0
 11
471.6499687185768
 21
-566.3117441447715
 31
0.0
  0
LINE
  5
1B7
330
1F
100
AcDbEntity
  8
1
  6
Continuous
 62
     3
100
AcDbLine
 10
454.649968718577
 20
-570.8117441447715
 30
0.0
 11
488.649968718577
 21
-570.8117441447715
 31
0.0
  0
LINE
  5
1B8
330
1F
100
AcDbEntity
  8
1
  6
Continuous
 62
     3
100
AcDbLine
 10
444.1858671034393
 20
-631.0069091574361
 30
0.0
 11
430.8150322280382
 21
-631.0069091574361
 31
0.0
  0
LINE
  5
1B9
330
1F
100
AcDbEntity
  8
1
  6
Continuous
 62
     3
100
AcDbLine
 10
444.1858671034393
 20
-608.6165791321071
 30
0.0
 11
430.8150322280382
 21
-608.6165791321071
 31
0.0
  0
LINE
  5
1BA
330
1F
100
AcDbEntity
  8
1
  6
Continuous
 62
     3
100
AcDbLine
 10
447.649968718577
 20
-616.3117441447715
 30
0.0
 11
447.649968718577
 21
-599.3296933372026
 31
0.0
  0
LINE
  5
1BB
330
1F
100
AcDbEntity
  8
1
  6
Continuous
 62
     3
100
AcDbLine
 10
481.2706245272871
 20
-596.1030690461719
 30
0.0
 11
473.2706245272871
 21
-596.1030690461719
 31
0.0
  0
LINE
  5
1BC
330
1F
100
AcDbEntity
  8
1
  6
Continuous
 62
     3
100
AcDbLine
 10
470.3369629951749
 20
-596.3291926374369
 30
0.0
 11
462.3369629951749
 21
-597.3291926374369
 31
0.0
  0
LINE
  5
1BD
330
1F
100
AcDbEntity
  8
1
  6
Continuous
 62
     3
100
AcDbLine
 10
492.149968718577
 20
-644.3117441447715
 30
0.0
 11
493.649968718577
 21
-646.9098203561246
 31
0.0
  0
LINE
  5
1BE
330
1F
100
AcDbEntity
  8
1
  6
Continuous
 62
     3
100
AcDbLine
 10
449.649968718577
 20
-646.9098203561246
 30
0.0
 11
449.649968718577
 21
-660.9353557699052
 31
0.0
  0
LINE
  5
1BF
330
1F
100
AcDbEntity
  8
1
  6
Continuous
 62
     3
100
AcDbLine
 10
493.649968718577
 20
-646.9098203561246
 30
0.0
 11
493.649968718577
 21
-660.9353557699052
 31
0.0
  0
LINE
  5
1C0
330
1F
100
AcDbEntity
  8
1
  6
Continuous
 62
     3
100
AcDbLine
 10
492.149968718577
 20
-644.3117441447715
 30
0.0
 11
451.1679179110082
 21
-644.3117441447715
 31
0.0
  0
LINE
  5
1C1
330
1F
100
AcDbEntity
  8
1
  6
Continuous
 62
     3
100
AcDbLine
 10
451.149968718577
 20
-642.3117441447715
 30
0.0
 11
451.149968718577
 21
-644.3117441447715
 31
0.0
  0
LINE
  5
1C2
330
1F
100
AcDbEntity
  8
1
  6
Continuous
 62
     3
100
AcDbLine
 10
451.149968718577
 20
-644.3117441447715
 30
0.0
 11
449.649968718577
 21
-646.9098203561246
 31
0.0
  0
LINE
  5
1C3
330
1F
100
AcDbEntity
  8
1
  6
Continuous
 62
     3
100
AcDbLine
 10
447.6499687185772
 20
-640.3117441447715
 30
0.0
 11
449.149968718577
 21
-640.3117441447715
 31
0.0
  0
LINE
  5
1C4
330
1F
100
AcDbEntity
  8
1
  6
Continuous
 62
     3
100
AcDbLine
 10
447.6499687185772
 20
-640.3117441447715
 30
0.0
 11
447.649968718577
 21
-623.3117441447715
 31
0.0
  0
LINE
  5
1C5
330
1F
100
AcDbEntity
  8
1
  6
DOT_CENTER
 62
     1
100
AcDbLine
 10
426.6499687185773
 20
-619.8117441447715
 30
0.0
 11
517.6499687185772
 21
-619.8117441447715
 31
0.0
  0
LINE
  5
1C6
330
1F
100
AcDbEntity
  8
1
  6
Continuous
 62
     3
100
AcDbLine
 10
470.2399687185769
 20
-619.5972877557493
 30
0.0
 11
466.4899687185769
 21
-615.8117441447715
 31
0.0
  0
LINE
  5
1C7
330
1F
100
AcDbEntity
  8
1
  6
Continuous
 62
     3
100
AcDbLine
 10
470.2399687185769
 20
-615.8117441447715
 30
0.0
 11
470.2399687185769
 21
-619.5972877557493
 31
0.0
  0
LINE
  5
1C8
330
1F
100
AcDbEntity
  8
1
  6
Continuous
 62
     3
100
AcDbLine
 10
476.4899687185769
 20
-615.8117441447715
 30
0.0
 11
470.2399687185769
 21
-623.8117441447715
 31
0.0
  0
LINE
  5
1C9
330
1F
100
AcDbEntity
  8
1
  6
Continuous
 62
     3
100
AcDbLine
 10
472.6608527103363
 20
-615.8117441447715
 30
0.0
 11
476.4899687185769
 21
-615.8117441447715
 31
0.0
  0
LINE
  5
1CA
330
1F
100
AcDbEntity
  8
1
  6
Continuous
 62
     3
100
AcDbLine
 10
466.4899687185769
 20
-623.8117441447715
 30
0.0
 11
470.2399687185769
 21
-623.8117441447715
 31
0.0
  0
LINE
  5
1CB
330
1F
100
AcDbEntity
  8
1
  6
Continuous
 62
     3
100
AcDbLine
 10
470.2399687185769
 20
-619.8117441447715
 30
0.0
 11
466.4899687185769
 21
-623.8117441447715
 31
0.0
  0
LINE
  5
1CC
330
1F
100
AcDbEntity
  8
1
  6
Continuous
 62
     3
100
AcDbLine
 10
472.6608527103363
 20
-617.8117441447715
 30
0.0
 11
472.6608527103363
 21
-615.8117441447715
 31
0.0
  0
LINE
  5
1CD
330
1F
100
AcDbEntity
  8
1
  6
Continuous
 62
     3
100
AcDbLine
 10
470.2399687185769
 20
-619.8117441447715
 30
0.0
 11
470.6608527103363
 21
-619.8117441447715
 31
0.0
  0
LINE
  5
1CE
330
1F
100
AcDbEntity
  8
1
  6
Continuous
 62
     3
100
AcDbLine
 10
466.4899687185769
 20
-615.8117441447715
 30
0.0
 11
470.2399687185769
 21
-615.8117441447715
 31
0.0
  0
LINE
  5
1CF
330
1F
100
AcDbEntity
  8
1
  6
Continuous
 62
     3
100
AcDbLine
 10
470.3369629951749
 20
-596.3291926374369
 30
0.0
 11
462.3369629951749
 21
-597.3291926374369
 31
0.0
  0
LINE
  5
1D0
330
1F
100
AcDbEntity
  8
1
  6
DOT_CENTER
 62
     1
100
AcDbLine
 10
471.649968718577
 20
-538.8739954122157
 30
0.0
 11
471.649968718577
 21
-666.3117441447715
 31
0.0
  0
LINE
  5
1D1
330
1F
100
AcDbEntity
  8
1
  6
Continuous
 62
     3
100
AcDbLine
 10
481.2706245272871
 20
-596.1030690461719
 30
0.0
 11
473.2706245272871
 21
-596.1030690461719
 31
0.0
  0
LINE
  5
1D2
330
1F
100
AcDbEntity
  8
1
  6
Continuous
 62
     3
100
AcDbLine
 10
490.1499687185772
 20
-596.3117441447715
 30
0.0
 11
490.149968718577
 21
-614.8117441447715
 31
0.0
  0
LINE
  5
1D3
330
1F
100
AcDbEntity
  8
1
  6
Continuous
 62
     3
100
AcDbLine
 10
489.1499687185772
 20
-597.3117441447715
 30
0.0
 11
489.149968718577
 21
-614.8117441447715
 31
0.0
  0
LINE
  5
1D4
330
1F
100
AcDbEntity
  8
1
  6
Continuous
 62
     3
100
AcDbLine
 10
489.149968718577
 20
-624.8117441447715
 30
0.0
 11
490.149968718577
 21
-624.8117441447715
 31
0.0
  0
LINE
  5
1D5
330
1F
100
AcDbEntity
  8
1
  6
Continuous
 62
     3
100
AcDbLine
 10
489.149968718577
 20
-614.8117441447715
 30
0.0
 11
484.149968718577
 21
-614.8117441447715
 31
0.0
  0
LINE
  5
1D6
330
1F
100
AcDbEntity
  8
1
  6
Continuous
 62
     3
100
AcDbLine
 10
490.149968718577
 20
-614.8117441447715
 30
0.0
 11
489.149968718577
 21
-614.8117441447715
 31
0.0
  0
LINE
  5
1D7
330
1F
100
AcDbEntity
  8
1
  6
Continuous
 62
     3
100
AcDbLine
 10
484.149968718577
 20
-614.8117441447715
 30
0.0
 11
484.149968718577
 21
-624.8117441447715
 31
0.0
  0
LINE
  5
1D8
330
1F
100
AcDbEntity
  8
1
  6
Continuous
 62
     3
100
AcDbLine
 10
484.149968718577
 20
-624.8117441447715
 30
0.0
 11
489.149968718577
 21
-624.8117441447715
 31
0.0
  0
LINE
  5
1D9
330
1F
100
AcDbEntity
  8
1
  6
Continuous
 62
     3
100
AcDbLine
 10
489.149968718577
 20
-624.8117441447715
 30
0.0
 11
489.149968718577
 21
-643.3117441447715
 31
0.0
  0
LINE
  5
1DA
330
1F
100
AcDbEntity
  8
1
  6
Continuous
 62
     3
100
AcDbLine
 10
490.149968718577
 20
-624.8117441447715
 30
0.0
 11
490.149968718577
 21
-643.3117441447715
 31
0.0
  0
LINE
  5
1DB
330
1F
100
AcDbEntity
  8
1
  6
Continuous
 62
     3
100
AcDbLine
 10
447.6499687185772
 20
-640.3117441447715
 30
0.0
 11
447.649968718577
 21
-599.3296933372026
 31
0.0
  0
LINE
  5
1DC
330
1F
100
AcDbEntity
  8
1
  6
Continuous
 62
     3
100
AcDbLine
 10
380.2740865210063
 20
-606.0504032228583
 30
0.0
 11
366.4447698350671
 21
-598.0660435115227
 31
0.0
  0
LINE
  5
1DD
330
1F
100
AcDbEntity
  8
1
  6
Continuous
 62
     3
100
AcDbLine
 10
359.7740865210064
 20
-598.0660435115227
 30
0.0
 11
345.9447698350671
 21
-606.0504032228583
 31
0.0
  0
LINE
  5
1DE
330
1F
100
AcDbEntity
  8
1
  6
Continuous
 62
     3
100
AcDbLine
 10
342.6094281780368
 20
-611.8273844334359
 30
0.0
 11
342.6094281780368
 21
-627.7961038561072
 31
0.0
  0
LINE
  5
1DF
330
1F
100
AcDbEntity
  8
1
  6
Continuous
 62
     3
100
AcDbLine
 10
366.4447698350671
 20
-641.5574447780203
 30
0.0
 11
380.2740865210063
 21
-633.5730850666847
 31
0.0
  0
LINE
  5
1E0
330
1F
100
AcDbEntity
  8
1
  6
Continuous
 62
     3
100
AcDbLine
 10
345.9447698350671
 20
-633.5730850666847
 30
0.0
 11
359.7740865210063
 21
-641.5574447780203
 31
0.0
  0
LINE
  5
1E1
330
1F
100
AcDbEntity
  8
1
  6
Continuous
 62
     3
100
AcDbLine
 10
383.6094281780368
 20
-627.7961038561072
 30
0.0
 11
383.6094281780368
 21
-611.8273844334359
 31
0.0
  0
LINE
  5
1E2
330
1F
100
AcDbEntity
  8
1
  6
DOT_CENTER
 62
     1
100
AcDbLine
 10
363.1094281780368
 20
-538.8739954122157
 30
0.0
 11
363.1094281780368
 21
-666.3117441447715
 31
0.0
  0
LINE
  5
1E3
330
1F
100
AcDbEntity
  8
1
  6
Continuous
 62
     3
100
AcDbLine
 10
491.649968718577
 20
-490.6401712695177
 30
0.0
 11
491.649968718577
 21
-501.8117441447715
 31
0.0
  0
LINE
  5
1E4
330
1F
100
AcDbEntity
  8
1
  6
Continuous
 62
     3
100
AcDbLine
 10
451.649968718577
 20
-501.8117441447715
 30
0.0
 11
451.649968718577
 21
-487.8117441447715
 31
0.0
  0
LINE
  5
1E5
330
1F
100
AcDbEntity
  8
1
  6
DASH_CENTER
 62
     1
100
AcDbLine
 10
471.649968718577
 20
-462.2442816248986
 30
0.0
 11
471.649968718577
 21
-512.8628014726496
 31
0.0
  0
LINE
  5
1E6
330
1F
100
AcDbEntity
  8
1
  6
Continuous
 62
     3
100
AcDbLine
 10
451.649968718577
 20
-487.8117441447715
 30
0.0
 11
451.649968718577
 21
-473.8117441447716
 31
0.0
  0
LINE
  5
1E7
330
1F
100
AcDbEntity
  8
1
  6
DASH_CENTER
 62
     1
100
AcDbLine
 10
426.6499687185773
 20
-487.8117441447715
 30
0.0
 11
517.6499687185772
 21
-487.8117441447715
 31
0.0
  0
LINE
  5
1E8
330
1F
100
AcDbEntity
  8
1
  6
Continuous
 62
     3
100
AcDbLine
 10
491.649968718577
 20
-473.8117441447716
 30
0.0
 11
491.649968718577
 21
-484.9833170200253
 31
0.0
  0
LINE
  5
1E9
330
1F
100
AcDbEntity
  8
1
  6
Continuous
 62
     3
100
AcDbLine
 10
346.1094281780368
 20
-570.8117441447715
 30
0.0
 11
380.1094281780368
 21
-570.8117441447715
 31
0.0
  0
LINE
  5
1EA
330
1F
100
AcDbEntity
  8
1
  6
Continuous
 62
     3
100
AcDbLine
 10
383.1094281780368
 20
-566.3117441447715
 30
0.0
 11
363.1094281780365
 21
-566.3117441447715
 31
0.0
  0
LINE
  5
1EB
330
1F
100
AcDbEntity
  8
1
  6
Continuous
 62
     3
100
AcDbLine
 10
343.1094281780368
 20
-566.3117441447715
 30
0.0
 11
363.1094281780365
 21
-566.3117441447715
 31
0.0
  0
LINE
  5
1EC
330
1F
100
AcDbEntity
  8
1
  6
Continuous
 62
     3
100
AcDbLine
 10
344.1094281780368
 20
-570.8117441447715
 30
0.0
 11
346.1094281780368
 21
-570.8117441447715
 31
0.0
  0
LINE
  5
1ED
330
1F
100
AcDbEntity
  8
1
  6
Continuous
 62
     3
100
AcDbLine
 10
380.1094281780368
 20
-570.8117441447715
 30
0.0
 11
382.1094281780368
 21
-570.8117441447715
 31
0.0
  0
LINE
  5
1EE
330
1F
100
AcDbEntity
  8
1
  6
Continuous
 62
     3
100
AcDbLine
 10
383.1094281780368
 20
-569.8117441447715
 30
0.0
 11
383.1094281780368
 21
-566.3117441447715
 31
0.0
  0
LINE
  5
1EF
330
1F
100
AcDbEntity
  8
1
  6
Continuous
 62
     3
100
AcDbLine
 10
343.1094281780368
 20
-566.3117441447715
 30
0.0
 11
350.1094281780365
 21
-566.3117441447715
 31
0.0
  0
LINE
  5
1F0
330
1F
100
AcDbEntity
  8
1
  6
Continuous
 62
     3
100
AcDbLine
 10
383.1094281780368
 20
-566.3117441447715
 30
0.0
 11
376.109428178037
 21
-566.3117441447715
 31
0.0
  0
LINE
  5
1F1
330
1F
100
AcDbEntity
  8
1
  6
Continuous
 62
     3
100
AcDbLine
 10
343.1094281780368
 20
-566.3117441447715
 30
0.0
 11
343.1094281780368
 21
-569.8117441447715
 31
0.0
  0
LINE
  5
1F2
330
1F
100
AcDbEntity
  8
1
  6
Continuous
 62
     3
100
AcDbLine
 10
377.1094281780368
 20
-578.3117441447715
 30
0.0
 11
377.1094281780368
 21
-573.8117441447715
 31
0.0
  0
LINE
  5
1F3
330
1F
100
AcDbEntity
  8
1
  6
Continuous
 62
     3
100
AcDbLine
 10
349.1094281780368
 20
-573.8117441447715
 30
0.0
 11
349.1094281780368
 21
-578.3117441447715
 31
0.0
  0
LINE
  5
1F4
330
1F
100
AcDbEntity
  8
1
  6
Continuous
 62
     3
100
AcDbLine
 10
350.6094281780368
 20
-580.2482358178752
 30
0.0
 11
375.6094281780368
 21
-580.2482358178752
 31
0.0
  0
LINE
  5
1F5
330
1F
100
AcDbEntity
  8
1
  6
Continuous
 62
     3
100
AcDbLine
 10
374.1094281780368
 20
-597.4454748984265
 30
0.0
 11
374.1094281780368
 21
-582.184727490979
 31
0.0
  0
LINE
  5
1F6
330
1F
100
AcDbEntity
  8
1
  6
Continuous
 62
     3
100
AcDbLine
 10
352.1094281780368
 20
-582.184727490979
 30
0.0
 11
352.1094281780368
 21
-597.4454748984265
 31
0.0
  0
LINE
  5
1F7
330
1F
100
AcDbEntity
  8
1
  6
Continuous
 62
     3
100
AcDbLine
 10
380.1094281780368
 20
-637.4816171258493
 30
0.0
 11
380.1094281780368
 21
-636.3117441447715
 31
0.0
  0
LINE
  5
1F8
330
1F
100
AcDbEntity
  8
1
  6
Continuous
 62
     3
100
AcDbLine
 10
346.1094281780368
 20
-637.4816171258493
 30
0.0
 11
346.1094281780368
 21
-636.3117441447714
 31
0.0
  0
LINE
  5
1F9
330
1F
100
AcDbEntity
  8
1
  6
Continuous
 62
     3
100
AcDbLine
 10
380.1094281780368
 20
-637.4816171258493
 30
0.0
 11
380.1094281780368
 21
-636.432514283366
 31
0.0
  0
LINE
  5
1FA
330
1F
100
AcDbEntity
  8
1
  6
Continuous
 62
     3
100
AcDbLine
 10
342.6094281780368
 20
-643.8117441447715
 30
0.0
 11
345.9754535818211
 21
-637.9816171258493
 31
0.0
  0
LINE
  5
1FB
330
1F
100
AcDbEntity
  8
1
  6
Continuous
 62
     3
100
AcDbLine
 10
380.2434027742522
 20
-637.9816171258493
 30
0.0
 11
383.6094281780368
 21
-643.8117441447715
 31
0.0
  0
LINE
  5
1FC
330
1F
100
AcDbEntity
  8
1
  6
Continuous
 62
     3
100
AcDbLine
 10
380.2434027742522
 20
-637.9816171258493
 30
0.0
 11
383.6094281780368
 21
-643.8117441447715
 31
0.0
  0
LINE
  5
1FD
330
1F
100
AcDbEntity
  8
1
  6
Continuous
 62
     3
100
AcDbLine
 10
342.6094281780368
 20
-643.8117441447715
 30
0.0
 11
345.9754535818211
 21
-637.9816171258493
 31
0.0
  0
LINE
  5
1FE
330
1F
100
AcDbEntity
  8
1
  6
Continuous
 62
     3
100
AcDbLine
 10
451.167917911008
 20
-661.8117441447715
 30
0.0
 11
449.649968718577
 21
-660.9353557699052
 31
0.0
  0
LINE
  5
1FF
330
1F
100
AcDbEntity
  8
1
  6
Continuous
 62
     3
100
AcDbLine
 10
493.649968718577
 20
-660.9353557699052
 30
0.0
 11
492.1320195261459
 21
-661.8117441447715
 31
0.0
  0
LINE
  5
200
330
1F
100
AcDbEntity
  8
1
  6
Continuous
 62
     3
100
AcDbLine
 10
492.1320195261459
 20
-661.8117441447715
 30
0.0
 11
451.167917911008
 21
-661.8117441447715
 31
0.0
  0
LINE
  5
201
330
1F
100
AcDbEntity
  8
1
  6
Continuous
 62
     3
100
AcDbLine
 10
482.8451337312413
 20
-647.7758457599091
 30
0.0
 11
482.8451337312416
 21
-660.6466806353106
 31
0.0
  0
LINE
  5
202
330
1F
100
AcDbEntity
  8
1
  6
Continuous
 62
     3
100
AcDbLine
 10
460.4548037059124
 20
-647.7758457599091
 30
0.0
 11
460.4548037059125
 21
-660.6466806353106
 31
0.0
  0
LINE
  5
203
330
1F
100
AcDbEntity
  8
1
  6
Continuous
 62
     3
100
AcDbLine
 10
383.6094281780368
 20
-660.9353557699052
 30
0.0
 11
382.0914789856057
 21
-661.8117441447715
 31
0.0
  0
LINE
  5
204
330
1F
100
AcDbEntity
  8
1
  6
Continuous
 62
     3
100
AcDbLine
 10
344.1273773704678
 20
-661.8117441447715
 30
0.0
 11
342.6094281780368
 21
-660.9353557699052
 31
0.0
  0
LINE
  5
205
330
1F
100
AcDbEntity
  8
1
  6
Continuous
 62
     3
100
AcDbLine
 10
344.1273773704678
 20
-661.8117441447715
 30
0.0
 11
382.0914789856057
 21
-661.8117441447715
 31
0.0
  0
LINE
  5
206
330
1F
100
AcDbEntity
  8
1
  6
Continuous
 62
     3
100
AcDbLine
 10
383.6094281780368
 20
-643.8117441447715
 30
0.0
 11
383.6094281780368
 21
-660.9353557699052
 31
0.0
  0
LINE
  5
207
330
1F
100
AcDbEntity
  8
1
  6
Continuous
 62
     3
100
AcDbLine
 10
342.6094281780368
 20
-643.8117441447715
 30
0.0
 11
342.6094281780368
 21
-660.9353557699052
 31
0.0
  0
LINE
  5
208
330
1F
100
AcDbEntity
  8
1
  6
Continuous
 62
     3
100
AcDbLine
 10
342.6094281780368
 20
-643.8117441447715
 30
0.0
 11
383.6094281780368
 21
-643.8117441447715
 31
0.0
  0
LINE
  5
209
330
1F
100
AcDbEntity
  8
1
  6
Continuous
 62
     3
100
AcDbLine
 10
363.1094281780367
 20
-647.2758457599091
 30
0.0
 11
363.1094281780369
 21
-660.6466806353106
 31
0.0
  0
LINE
  5
20A
330
1F
100
AcDbEntity
  8
1
  6
DOT_CENTER
 62
     1
100
AcDbLine
 10
388.6499687185773
 20
-619.8117441447715
 30
0.0
 11
337.5688876374962
 21
-619.8117441447715
 31
0.0
  0
LINE
  5
20B
330
1F
100
AcDbEntity
  8
1
  6
DOT_CENTER
 62
     1
100
AcDbLine
 10
595.7310497996582
 20
-619.8117441447715
 30
0.0
 11
544.6499687185772
 21
-619.8117441447715
 31
0.0
  0
LINE
  5
20C
330
1F
100
AcDbEntity
  8
1
  6
Continuous
 62
     3
100
AcDbLine
 10
570.1905092591176
 20
-647.2758457599091
 30
0.0
 11
570.1905092591178
 21
-660.6466806353106
 31
0.0
  0
LINE
  5
20D
330
1F
100
AcDbEntity
  8
1
  6
Continuous
 62
     3
100
AcDbLine
 10
549.6905092591177
 20
-643.8117441447715
 30
0.0
 11
590.6905092591177
 21
-643.8117441447715
 31
0.0
  0
LINE
  5
20E
330
1F
100
AcDbEntity
  8
1
  6
Continuous
 62
     3
100
AcDbLine
 10
549.6905092591177
 20
-643.8117441447715
 30
0.0
 11
549.6905092591177
 21
-660.9353557699052
 31
0.0
  0
LINE
  5
20F
330
1F
100
AcDbEntity
  8
1
  6
Continuous
 62
     3
100
AcDbLine
 10
590.6905092591177
 20
-643.8117441447715
 30
0.0
 11
590.6905092591177
 21
-660.9353557699052
 31
0.0
  0
LINE
  5
210
330
1F
100
AcDbEntity
  8
1
  6
Continuous
 62
     3
100
AcDbLine
 10
551.2084584515487
 20
-661.8117441447715
 30
0.0
 11
589.1725600666866
 21
-661.8117441447715
 31
0.0
  0
LINE
  5
211
330
1F
100
AcDbEntity
  8
1
  6
Continuous
 62
     3
100
AcDbLine
 10
551.2084584515487
 20
-661.8117441447715
 30
0.0
 11
549.6905092591177
 21
-660.9353557699052
 31
0.0
  0
LINE
  5
212
330
1F
100
AcDbEntity
  8
1
  6
Continuous
 62
     3
100
AcDbLine
 10
590.6905092591177
 20
-660.9353557699052
 30
0.0
 11
589.1725600666866
 21
-661.8117441447715
 31
0.0
  0
LINE
  5
213
330
1F
100
AcDbEntity
  8
1
  6
Continuous
 62
     3
100
AcDbLine
 10
549.6905092591177
 20
-643.8117441447715
 30
0.0
 11
553.056534662902
 21
-637.9816171258493
 31
0.0
  0
LINE
  5
214
330
1F
100
AcDbEntity
  8
1
  6
Continuous
 62
     3
100
AcDbLine
 10
587.3244838553331
 20
-637.9816171258493
 30
0.0
 11
590.6905092591177
 21
-643.8117441447715
 31
0.0
  0
LINE
  5
215
330
1F
100
AcDbEntity
  8
1
  6
Continuous
 62
     3
100
AcDbLine
 10
587.3244838553331
 20
-637.9816171258493
 30
0.0
 11
590.6905092591177
 21
-643.8117441447715
 31
0.0
  0
LINE
  5
216
330
1F
100
AcDbEntity
  8
1
  6
Continuous
 62
     3
100
AcDbLine
 10
549.6905092591177
 20
-643.8117441447715
 30
0.0
 11
553.056534662902
 21
-637.9816171258493
 31
0.0
  0
LINE
  5
217
330
1F
100
AcDbEntity
  8
1
  6
Continuous
 62
     3
100
AcDbLine
 10
559.1905092591177
 20
-582.184727490979
 30
0.0
 11
559.1905092591177
 21
-597.4454748984265
 31
0.0
  0
LINE
  5
218
330
1F
100
AcDbEntity
  8
1
  6
Continuous
 62
     3
100
AcDbLine
 10
581.1905092591177
 20
-597.4454748984265
 30
0.0
 11
581.1905092591177
 21
-582.184727490979
 31
0.0
  0
LINE
  5
219
330
1F
100
AcDbEntity
  8
1
  6
Continuous
 62
     3
100
AcDbLine
 10
557.6905092591177
 20
-580.2482358178752
 30
0.0
 11
582.6905092591177
 21
-580.2482358178752
 31
0.0
  0
LINE
  5
21A
330
1F
100
AcDbEntity
  8
1
  6
Continuous
 62
     3
100
AcDbLine
 10
556.1905092591177
 20
-573.8117441447715
 30
0.0
 11
556.1905092591177
 21
-578.3117441447715
 31
0.0
  0
LINE
  5
21B
330
1F
100
AcDbEntity
  8
1
  6
Continuous
 62
     3
100
AcDbLine
 10
584.1905092591177
 20
-578.3117441447715
 30
0.0
 11
584.1905092591177
 21
-573.8117441447715
 31
0.0
  0
LINE
  5
21C
330
1F
100
AcDbEntity
  8
1
  6
Continuous
 62
     3
100
AcDbLine
 10
550.1905092591177
 20
-566.3117441447715
 30
0.0
 11
550.1905092591177
 21
-569.8117441447715
 31
0.0
  0
LINE
  5
21D
330
1F
100
AcDbEntity
  8
1
  6
Continuous
 62
     3
100
AcDbLine
 10
590.1905092591177
 20
-566.3117441447715
 30
0.0
 11
583.1905092591179
 21
-566.3117441447715
 31
0.0
  0
LINE
  5
21E
330
1F
100
AcDbEntity
  8
1
  6
Continuous
 62
     3
100
AcDbLine
 10
550.1905092591177
 20
-566.3117441447715
 30
0.0
 11
557.1905092591175
 21
-566.3117441447715
 31
0.0
  0
LINE
  5
21F
330
1F
100
AcDbEntity
  8
1
  6
Continuous
 62
     3
100
AcDbLine
 10
590.1905092591177
 20
-569.8117441447715
 30
0.0
 11
590.1905092591177
 21
-566.3117441447715
 31
0.0
  0
LINE
  5
220
330
1F
100
AcDbEntity
  8
1
  6
Continuous
 62
     3
100
AcDbLine
 10
587.1905092591177
 20
-570.8117441447715
 30
0.0
 11
589.1905092591177
 21
-570.8117441447715
 31
0.0
  0
LINE
  5
221
330
1F
100
AcDbEntity
  8
1
  6
Continuous
 62
     3
100
AcDbLine
 10
551.1905092591177
 20
-570.8117441447715
 30
0.0
 11
553.1905092591177
 21
-570.8117441447715
 31
0.0
  0
LINE
  5
222
330
1F
100
AcDbEntity
  8
1
  6
Continuous
 62
     3
100
AcDbLine
 10
550.1905092591177
 20
-566.3117441447715
 30
0.0
 11
568.1905092591177
 21
-566.3117441447715
 31
0.0
  0
LINE
  5
223
330
1F
100
AcDbEntity
  8
1
  6
Continuous
 62
     3
100
AcDbLine
 10
590.1905092591177
 20
-566.3117441447715
 30
0.0
 11
572.1905092591177
 21
-566.3117441447715
 31
0.0
  0
LINE
  5
224
330
1F
100
AcDbEntity
  8
1
  6
Continuous
 62
     3
100
AcDbLine
 10
553.1905092591177
 20
-570.8117441447715
 30
0.0
 11
568.1905092591177
 21
-570.8117441447715
 31
0.0
  0
LINE
  5
225
330
1F
100
AcDbEntity
  8
1
  6
DOT_CENTER
 62
     1
100
AcDbLine
 10
570.1905092591177
 20
-538.8739954122157
 30
0.0
 11
570.1905092591177
 21
-666.3117441447715
 31
0.0
  0
LINE
  5
226
330
1F
100
AcDbEntity
  8
1
  6
Continuous
 62
     3
100
AcDbLine
 10
587.1905092591177
 20
-637.4816171258493
 30
0.0
 11
587.1905092591177
 21
-636.3117441447715
 31
0.0
  0
LINE
  5
227
330
1F
100
AcDbEntity
  8
1
  6
Continuous
 62
     3
100
AcDbLine
 10
553.1905092591177
 20
-637.4816171258493
 30
0.0
 11
553.1905092591177
 21
-636.3117441447714
 31
0.0
  0
LINE
  5
228
330
1F
100
AcDbEntity
  8
1
  6
Continuous
 62
     3
100
AcDbLine
 10
572.1905092591177
 20
-566.3117441447715
 30
0.0
 11
572.1905092591177
 21
-570.8117441447715
 31
0.0
  0
LINE
  5
229
330
1F
100
AcDbEntity
  8
1
  6
Continuous
 62
     3
100
AcDbLine
 10
572.1905092591177
 20
-566.3117441447715
 30
0.0
 11
570.1905092591175
 21
-566.3117441447715
 31
0.0
  0
LINE
  5
22A
330
1F
100
AcDbEntity
  8
1
  6
Continuous
 62
     3
100
AcDbLine
 10
572.1905092591177
 20
-570.8117441447715
 30
0.0
 11
587.1905092591177
 21
-570.8117441447715
 31
0.0
  0
LINE
  5
22B
330
1F
100
AcDbEntity
  8
1
  6
Continuous
 62
     3
100
AcDbLine
 10
568.1905092591177
 20
-570.8117441447715
 30
0.0
 11
568.1905092591177
 21
-566.3117441447715
 31
0.0
  0
LINE
  5
22C
330
1F
100
AcDbEntity
  8
1
  6
Continuous
 62
     3
100
AcDbLine
 10
568.1905092591177
 20
-566.3117441447715
 30
0.0
 11
570.1905092591175
 21
-566.3117441447715
 31
0.0
  0
LINE
  5
22D
330
1F
100
AcDbEntity
  8
1
  6
Continuous
 62
     3
100
AcDbLine
 10
568.1905092591177
 20
-570.8117441447715
 30
0.0
 11
572.1905092591177
 21
-570.8117441447715
 31
0.0
  0
ARC
  5
22E
330
1F
100
AcDbEntity
  8
1
  6
Continuous
 62
     3
100
AcDbCircle
 10
707.5126355877252
 20
-619.8117441447716
 30
0.0
 40
19.82212632860742
100
AcDbArc
 50
145.6128986567657
 51
169.8299436253285
  0
ARC
  5
22F
330
1F
100
AcDbEntity
  8
1
  6
Continuous
 62
     3
100
AcDbCircle
 10
680.5302508909914
 20
-650.6425607032613
 30
0.0
 40
6.330821414047762
100
AcDbArc
 50
90.07096222071611
 51
153.0753205541094
  0
ARC
  5
230
330
1F
100
AcDbEntity
  8
1
  6
Continuous
 62
     3
100
AcDbCircle
 10
663.6905092591179
 20
-664.1338704733787
 30
0.0
 40
19.82212632860729
100
AcDbArc
 50
55.61289865676625
 51
124.3871013432343
  0
ARC
  5
231
330
1F
100
AcDbEntity
  8
1
  6
Continuous
 62
     3
100
AcDbCircle
 10
663.6905092591179
 20
-664.1338704733787
 30
0.0
 40
19.82212632860729
100
AcDbArc
 50
55.61289865676625
 51
124.3871013432343
  0
ARC
  5
232
330
1F
100
AcDbEntity
  8
1
  6
Continuous
 62
     3
100
AcDbCircle
 10
646.8429267527855
 20
-650.6553547551913
 30
0.0
 40
6.343610610420002
100
AcDbArc
 50
26.99564166384466
 51
90.0
  0
ARC
  5
233
330
1F
100
AcDbEntity
  8
1
  6
Continuous
 62
     3
100
AcDbCircle
 10
698.2294818198253
 20
-602.9641616384395
 30
0.0
 40
8.461027439292385
100
AcDbArc
 50
-41.91699652544025
 51
-28.13839377528918
  0
ARC
  5
234
330
1F
100
AcDbEntity
  8
1
  6
Continuous
 62
     3
100
AcDbCircle
 10
676.6638566707253
 20
-619.8117441447716
 30
0.0
 40
30.02665258839246
100
AcDbArc
 50
14.82848905293244
 51
21.8909317126876
  0
ARC
  5
235
330
1F
100
AcDbEntity
  8
1
  6
Continuous
 62
     3
100
AcDbCircle
 10
707.5126355877252
 20
-619.8117441447716
 30
0.0
 40
19.82212632860725
100
AcDbArc
 50
-169.8299436253292
 51
-145.612898656766
  0
ARC
  5
236
330
1F
100
AcDbEntity
  8
1
  6
Continuous
 62
     3
100
AcDbCircle
 10
694.0341198695377
 20
-636.6593266511038
 30
0.0
 40
6.343610610419849
100
AcDbArc
 50
116.9956416638442
 51
180.0
  0
ARC
  5
237
330
1F
100
AcDbEntity
  8
1
  6
Continuous
 62
     3
100
AcDbCircle
 10
694.0213258176078
 20
-602.9720025128978
 30
0.0
 40
6.330821414047876
100
AcDbArc
 50
-179.9290377792818
 51
-116.9246794458902
  0
ARC
  5
238
330
1F
100
AcDbEntity
  8
1
  6
Continuous
 62
     3
100
AcDbCircle
 10
698.2294818198258
 20
-636.6593266511038
 30
0.0
 40
8.461027439292019
100
AcDbArc
 50
28.13839377529063
 51
41.91699652544288
  0
ARC
  5
239
330
1F
100
AcDbEntity
  8
1
  6
Continuous
 62
     3
100
AcDbCircle
 10
663.6905092591179
 20
-644.8117441447715
 30
0.0
 40
47.49999999999994
100
AcDbArc
 50
68.09199559233356
 51
72.25615989524439
  0
ARC
  5
23A
330
1F
100
AcDbEntity
  8
1
  6
Continuous
 62
     3
100
AcDbCircle
 10
676.6638566707253
 20
-619.8117441447716
 30
0.0
 40
30.02665258839256
100
AcDbArc
 50
-21.8909317126874
 51
-14.82848905293265
  0
ARC
  5
23B
330
1F
100
AcDbEntity
  8
1
  6
Continuous
 62
     3
100
AcDbCircle
 10
458.6766213069696
 20
-619.8117441447716
 30
0.0
 40
30.02665258839238
100
AcDbArc
 50
-165.1715109470673
 51
-158.1090682873125
  0
ARC
  5
23C
330
1F
100
AcDbEntity
  8
1
  6
Continuous
 62
     3
100
AcDbCircle
 10
471.649968718577
 20
-644.8117441447715
 30
0.0
 40
47.50000000000004
100
AcDbArc
 50
107.7438401047556
 51
111.9080044076664
  0
ARC
  5
23D
330
1F
100
AcDbEntity
  8
1
  6
Continuous
 62
     3
100
AcDbCircle
 10
437.1109961578691
 20
-636.6593266511038
 30
0.0
 40
8.461027439292037
100
AcDbArc
 50
138.0830034745566
 51
151.861606224709
  0
ARC
  5
23E
330
1F
100
AcDbEntity
  8
1
  6
Continuous
 62
     3
100
AcDbCircle
 10
441.3191521600871
 20
-602.9720025128978
 30
0.0
 40
6.330821414047512
100
AcDbArc
 50
-63.07532055411027
 51
-0.07096222071817
  0
ARC
  5
23F
330
1F
100
AcDbEntity
  8
1
  6
Continuous
 62
     3
100
AcDbCircle
 10
441.3063581081572
 20
-636.6593266511038
 30
0.0
 40
6.343610610419773
100
AcDbArc
 50
0.0
 51
63.0043583361558
  0
ARC
  5
240
330
1F
100
AcDbEntity
  8
1
  6
Continuous
 62
     3
100
AcDbCircle
 10
458.6766213069696
 20
-619.8117441447716
 30
0.0
 40
30.0266525883925
100
AcDbArc
 50
158.1090682873123
 51
165.1715109470675
  0
ARC
  5
241
330
1F
100
AcDbEntity
  8
1
  6
Continuous
 62
     3
100
AcDbCircle
 10
437.1109961578696
 20
-602.9641616384395
 30
0.0
 40
8.46102743929232
100
AcDbArc
 50
-151.8616062247105
 51
-138.0830034745592
  0
ARC
  5
242
330
1F
100
AcDbEntity
  8
1
  6
Continuous
 62
     3
100
AcDbCircle
 10
488.4975512249094
 20
-650.6553547551913
 30
0.0
 40
6.343610610419773
100
AcDbArc
 50
90.0
 51
153.0043583361565
  0
ARC
  5
243
330
1F
100
AcDbEntity
  8
1
  6
Continuous
 62
     3
100
AcDbCircle
 10
471.649968718577
 20
-664.1338704733787
 30
0.0
 40
19.82212632860725
100
AcDbArc
 50
55.61289865676639
 51
124.3871013432343
  0
ARC
  5
244
330
1F
100
AcDbEntity
  8
1
  6
Continuous
 62
     3
100
AcDbCircle
 10
471.649968718577
 20
-664.1338704733787
 30
0.0
 40
19.82212632860725
100
AcDbArc
 50
55.61289865676639
 51
124.3871013432343
  0
ARC
  5
245
330
1F
100
AcDbEntity
  8
1
  6
Continuous
 62
     3
100
AcDbCircle
 10
454.8102270867035
 20
-650.6425607032613
 30
0.0
 40
6.330821414047233
100
AcDbArc
 50
26.92467944589158
 51
89.9290377792839
  0
ARC
  5
246
330
1F
100
AcDbEntity
  8
1
  6
Continuous
 62
     3
100
AcDbCircle
 10
427.8278423899696
 20
-619.8117441447715
 30
0.0
 40
19.82212632860751
100
AcDbArc
 50
-34.38710134323411
 51
34.38710134323384
  0
ARC
  5
247
330
1F
100
AcDbEntity
  8
1
  6
Continuous
 62
     3
100
AcDbCircle
 10
363.1094281780368
 20
-619.8117441447715
 30
0.0
 40
21.99999999999999
100
AcDbArc
 50
81.27996646841311
 51
98.72003353158718
  0
ARC
  5
248
330
1F
100
AcDbEntity
  8
1
  6
Continuous
 62
     3
100
AcDbCircle
 10
363.1094281780368
 20
-619.8117441447715
 30
0.0
 40
22.00000000000003
100
AcDbArc
 50
141.2799664684131
 51
158.720033531587
  0
ARC
  5
249
330
1F
100
AcDbEntity
  8
1
  6
Continuous
 62
     3
100
AcDbCircle
 10
363.1094281780368
 20
-619.8117441447715
 30
0.0
 40
21.99999999999999
100
AcDbArc
 50
-158.720033531587
 51
-141.2799664684131
  0
ARC
  5
24A
330
1F
100
AcDbEntity
  8
1
  6
Continuous
 62
     3
100
AcDbCircle
 10
363.1094281780368
 20
-619.8117441447715
 30
0.0
 40
21.99999999999999
100
AcDbArc
 50
21.27996646841299
 51
38.72003353158723
  0
ARC
  5
24B
330
1F
100
AcDbEntity
  8
1
  6
Continuous
 62
     3
100
AcDbCircle
 10
363.1094281780368
 20
-619.8117441447715
 30
0.0
 40
21.9999999999999
100
AcDbArc
 50
-38.72003353158723
 51
-21.27996646841299
  0
ARC
  5
24C
330
1F
100
AcDbEntity
  8
1
  6
Continuous
 62
     3
100
AcDbCircle
 10
471.649968718577
 20
-515.8117441447716
 30
0.0
 40
14.00000000000018
100
AcDbArc
 50
50.30180115945517
 51
129.6981988405449
  0
ARC
  5
24D
330
1F
100
AcDbEntity
  8
1
  6
Continuous
 62
     3
100
AcDbCircle
 10
471.649968718577
 20
-459.8117441447716
 30
0.0
 40
14.00000000000002
100
AcDbArc
 50
-129.6981988405448
 51
-50.30180115945458
  0
ARC
  5
24E
330
1F
100
AcDbEntity
  8
1
  6
Continuous
 62
     3
100
AcDbCircle
 10
491.649968718577
 20
-487.8117441447715
 30
0.0
 40
2.000000000000004
100
AcDbArc
 50
-70.52877936550705
 51
70.52877936550705
  0
ARC
  5
24F
330
1F
100
AcDbEntity
  8
1
  6
Continuous
 62
     3
100
AcDbCircle
 10
363.1094281780368
 20
-619.8117441447715
 30
0.0
 40
22.5
100
AcDbArc
 50
-36.86989764584402
 51
-23.57817847820191
  0
ARC
  5
250
330
1F
100
AcDbEntity
  8
1
  6
Continuous
 62
     3
100
AcDbCircle
 10
363.1094281780368
 20
-619.8117441447715
 30
0.0
 40
22.5
100
AcDbArc
 50
-36.86989764584402
 51
-23.57817847820191
  0
ARC
  5
251
330
1F
100
AcDbEntity
  8
1
  6
Continuous
 62
     3
100
AcDbCircle
 10
363.1094281780368
 20
-619.8117441447715
 30
0.0
 40
22.49999999999993
100
AcDbArc
 50
-23.57817847820191
 51
54.42147426754102
  0
ARC
  5
252
330
1F
100
AcDbEntity
  8
1
  6
Continuous
 62
     3
100
AcDbCircle
 10
363.1094281780368
 20
-619.8117441447715
 30
0.0
 40
22.50000000000004
100
AcDbArc
 50
125.5785257324587
 51
-143.1301023541562
  0
ARC
  5
253
330
1F
100
AcDbEntity
  8
1
  6
Continuous
 62
     3
100
AcDbCircle
 10
363.1094281780368
 20
-619.8117441447715
 30
0.0
 40
22.00000000000002
100
AcDbArc
 50
-98.72003353158733
 51
-81.27996646841311
  0
ARC
  5
254
330
1F
100
AcDbEntity
  8
1
  6
Continuous
 62
     3
100
AcDbCircle
 10
471.6499687185771
 20
-632.7850915563791
 30
0.0
 40
30.0266525883926
100
AcDbArc
 50
-111.8909317126876
 51
-104.8284890529324
  0
ARC
  5
255
330
1F
100
AcDbEntity
  8
1
  6
Continuous
 62
     3
100
AcDbCircle
 10
454.8023862122449
 20
-654.3507167054792
 30
0.0
 40
8.461027439292419
100
AcDbArc
 50
-61.86160622471083
 51
-48.08300347455975
  0
ARC
  5
256
330
1F
100
AcDbEntity
  8
1
  6
Continuous
 62
     3
100
AcDbCircle
 10
471.6499687185771
 20
-632.7850915563791
 30
0.0
 40
30.02665258839247
100
AcDbArc
 50
-75.17151094706746
 51
-68.10906828731251
  0
ARC
  5
257
330
1F
100
AcDbEntity
  8
1
  6
Continuous
 62
     3
100
AcDbCircle
 10
488.4975512249093
 20
-654.3507167054796
 30
0.0
 40
8.461027439292083
100
AcDbArc
 50
-131.9169965254426
 51
-118.1383937752906
  0
ARC
  5
258
330
1F
100
AcDbEntity
  8
1
  6
Continuous
 62
     3
100
AcDbCircle
 10
351.9142631653724
 20
-632.7850915563791
 30
0.0
 40
30.02665258839247
100
AcDbArc
 50
-75.17151094706746
 51
-68.10906828731251
  0
ARC
  5
259
330
1F
100
AcDbEntity
  8
1
  6
Continuous
 62
     3
100
AcDbCircle
 10
374.3045931907012
 20
-632.7850915563791
 30
0.0
 40
30.02665258839249
100
AcDbArc
 50
-111.8909317126871
 51
-104.8284890529327
  0
ARC
  5
25A
330
1F
100
AcDbEntity
  8
1
  6
Continuous
 62
     3
100
AcDbCircle
 10
368.7618456717048
 20
-650.1553547551913
 30
0.0
 40
6.343610610419773
100
AcDbArc
 50
90.0
 51
153.0043583361565
  0
ARC
  5
25B
330
1F
100
AcDbEntity
  8
1
  6
Continuous
 62
     3
100
AcDbCircle
 10
357.4570106843686
 20
-650.1553547551913
 30
0.0
 40
6.343610610420255
100
AcDbArc
 50
26.99564166384349
 51
90.0
  0
ARC
  5
25C
330
1F
100
AcDbEntity
  8
1
  6
Continuous
 62
     3
100
AcDbCircle
 10
564.5380917654495
 20
-650.1553547551913
 30
0.0
 40
6.343610610420204
100
AcDbArc
 50
26.99564166384372
 51
90.0
  0
ARC
  5
25D
330
1F
100
AcDbEntity
  8
1
  6
Continuous
 62
     3
100
AcDbCircle
 10
575.8429267527856
 20
-650.1553547551913
 30
0.0
 40
6.343610610419773
100
AcDbArc
 50
90.0
 51
153.0043583361563
  0
ARC
  5
25E
330
1F
100
AcDbEntity
  8
1
  6
Continuous
 62
     3
100
AcDbCircle
 10
581.3856742717821
 20
-632.7850915563791
 30
0.0
 40
30.02665258839252
100
AcDbArc
 50
-111.8909317126872
 51
-104.8284890529327
  0
ARC
  5
25F
330
1F
100
AcDbEntity
  8
1
  6
Continuous
 62
     3
100
AcDbCircle
 10
558.9953442464533
 20
-632.7850915563791
 30
0.0
 40
30.02665258839249
100
AcDbArc
 50
-75.17151094706735
 51
-68.10906828731261
  0
ARC
  5
260
330
1F
100
AcDbEntity
  8
1
  6
Continuous
 62
     3
100
AcDbCircle
 10
680.5380917654502
 20
-654.3507167054796
 30
0.0
 40
8.461027439292122
100
AcDbArc
 50
-131.9169965254429
 51
-118.1383937752906
  0
ARC
  5
261
330
1F
100
AcDbEntity
  8
1
  6
Continuous
 62
     3
100
AcDbCircle
 10
663.690509259118
 20
-632.7850915563791
 30
0.0
 40
30.02665258839249
100
AcDbArc
 50
-75.17151094706735
 51
-68.10906828731261
  0
ARC
  5
262
330
1F
100
AcDbEntity
  8
1
  6
Continuous
 62
     3
100
AcDbCircle
 10
646.8429267527858
 20
-654.3507167054792
 30
0.0
 40
8.461027439292419
100
AcDbArc
 50
-61.86160622471083
 51
-48.08300347455975
  0
ARC
  5
263
330
1F
100
AcDbEntity
  8
1
  6
Continuous
 62
     3
100
AcDbCircle
 10
663.690509259118
 20
-632.7850915563791
 30
0.0
 40
30.0266525883926
100
AcDbArc
 50
-111.8909317126876
 51
-104.8284890529324
  0
CIRCLE
  5
264
330
1F
100
AcDbEntity
  8
1
  6
Continuous
 62
     3
100
AcDbCircle
 10
363.1094281780368
 20
-619.8117441447715
 30
0.0
 40
16.25624999999991
  0
CIRCLE
  5
265
330
1F
100
AcDbEntity
  8
1
  6
Continuous
 62
     3
100
AcDbCircle
 10
363.1094281780368
 20
-619.8117441447715
 30
0.0
 40
20.5
  0
CIRCLE
  5
266
330
1F
100
AcDbEntity
  8
1
  6
Continuous
 62
     1
100
AcDbCircle
 10
363.1094281780368
 20
-619.8117441447715
 30
0.0
 40
17.85292683205131
  0
CIRCLE
  5
267
330
1F
100
AcDbEntity
  8
1
  6
Continuous
 62
     3
100
AcDbCircle
 10
457.507833094846
 20
-501.9538797685025
 30
0.0
 40
2.5
  0
CIRCLE
  5
268
330
1F
100
AcDbEntity
  8
1
  6
Continuous
 62
     3
100
AcDbCircle
 10
457.507833094846
 20
-473.6696085210406
 30
0.0
 40
2.5
  0
CIRCLE
  5
269
330
1F
100
AcDbEntity
  8
1
  6
Continuous
 62
     3
100
AcDbCircle
 10
485.7921043423079
 20
-501.9538797685025
 30
0.0
 40
2.5
  0
CIRCLE
  5
26A
330
1F
100
AcDbEntity
  8
1
  6
Continuous
 62
     3
100
AcDbCircle
 10
485.7921043423079
 20
-473.6696085210406
 30
0.0
 40
2.5
  0
ARC
  5
26B
330
1F
100
AcDbEntity
  8
1
  6
Continuous
 62
     3
100
AcDbCircle
 10
641.1905092591179
 20
-645.3117441447715
 30
0.0
 40
2.000000000000132
100
AcDbArc
 50
21.97353420801405
 51
90.00000000000651
  0
ARC
  5
26C
330
1F
100
AcDbEntity
  8
1
  6
Continuous
 62
     3
100
AcDbCircle
 10
686.1905092591179
 20
-642.3117441447715
 30
0.0
 40
2.0
100
AcDbArc
 50
90.0
 51
180.0
  0
ARC
  5
26D
330
1F
100
AcDbEntity
  8
1
  6
Continuous
 62
     3
100
AcDbCircle
 10
641.1905092591177
 20
-641.3117441447715
 30
0.0
 40
2.000000000000066
100
AcDbArc
 50
-119.9999999999989
 51
-90.0
  0
ARC
  5
26E
330
1F
100
AcDbEntity
  8
1
  6
Continuous
 62
     3
100
AcDbCircle
 10
644.6905092591179
 20
-569.8117441447715
 30
0.0
 40
1.0
100
AcDbArc
 50
180.0
 51
-90.0
  0
ARC
  5
26F
330
1F
100
AcDbEntity
  8
1
  6
Continuous
 62
     3
100
AcDbCircle
 10
647.6905092591177
 20
-592.3117441447715
 30
0.0
 40
5.0
100
AcDbArc
 50
-90.0
 51
0.0
  0
ARC
  5
270
330
1F
100
AcDbEntity
  8
1
  6
Continuous
 62
     3
100
AcDbCircle
 10
683.2791727954924
 20
-596.1030769400666
 30
0.0
 40
4.999999999999957
100
AcDbArc
 50
-111.9080044076702
 51
-60.00000000000011
  0
ARC
  5
271
330
1F
100
AcDbEntity
  8
1
  6
Continuous
 62
     3
100
AcDbCircle
 10
641.1905092591177
 20
-598.3117441447715
 30
0.0
 40
2.000000000000067
100
AcDbArc
 50
110.4873151147233
 51
119.9999999999989
  0
ARC
  5
272
330
1F
100
AcDbEntity
  8
1
  6
Continuous
 62
     3
100
AcDbCircle
 10
641.1905092591177
 20
-598.3117441447715
 30
0.0
 40
2.0
100
AcDbArc
 50
90.0
 51
110.4873151147233
  0
ARC
  5
273
330
1F
100
AcDbEntity
  8
1
  6
Continuous
 62
     3
100
AcDbCircle
 10
679.6905092591177
 20
-594.8092442072683
 30
0.0
 40
5.0
100
AcDbArc
 50
180.0
 51
-107.7438401047544
  0
ARC
  5
274
330
1F
100
AcDbEntity
  8
1
  6
Continuous
 62
     3
100
AcDbCircle
 10
682.6905092591179
 20
-569.8117441447715
 30
0.0
 40
1.0
100
AcDbArc
 50
-90.0
 51
0.0
  0
ARC
  5
275
330
1F
100
AcDbEntity
  8
1
  6
Continuous
 62
     3
100
AcDbCircle
 10
643.6905092591177
 20
-568.8117441447715
 30
0.0
 40
2.0
100
AcDbArc
 50
180.0
 51
-90.0
  0
ARC
  5
276
330
1F
100
AcDbEntity
  8
1
  6
Continuous
 62
     3
100
AcDbCircle
 10
650.6905092591179
 20
-582.184727490979
 30
0.0
 40
2.0
100
AcDbArc
 50
0.0
 51
75.52248781407054
  0
ARC
  5
277
330
1F
100
AcDbEntity
  8
1
  6
Continuous
 62
     3
100
AcDbCircle
 10
651.6905092591179
 20
-578.3117441447715
 30
0.0
 40
2.0
100
AcDbArc
 50
180.0
 51
-104.4775121859303
  0
ARC
  5
278
330
1F
100
AcDbEntity
  8
1
  6
Continuous
 62
     3
100
AcDbCircle
 10
646.6905092591179
 20
-573.8117441447715
 30
0.0
 40
3.0
100
AcDbArc
 50
0.0
 51
90.0
  0
ARC
  5
279
330
1F
100
AcDbEntity
  8
1
  6
Continuous
 62
     3
100
AcDbCircle
 10
680.6905092591179
 20
-573.8117441447715
 30
0.0
 40
3.0
100
AcDbArc
 50
90.0
 51
180.0
  0
ARC
  5
27A
330
1F
100
AcDbEntity
  8
1
  6
Continuous
 62
     3
100
AcDbCircle
 10
676.6905092591179
 20
-582.184727490979
 30
0.0
 40
2.000000000000063
100
AcDbArc
 50
104.4775121859295
 51
180.0
  0
ARC
  5
27B
330
1F
100
AcDbEntity
  8
1
  6
Continuous
 62
     3
100
AcDbCircle
 10
675.6905092591179
 20
-578.3117441447715
 30
0.0
 40
1.999999999999953
100
AcDbArc
 50
-75.52248781406973
 51
0.0
  0
ARC
  5
27C
330
1F
100
AcDbEntity
  8
1
  6
Continuous
 62
     3
100
AcDbCircle
 10
459.649968718577
 20
-578.3117441447715
 30
0.0
 40
2.0
100
AcDbArc
 50
180.0
 51
-104.4775121859303
  0
ARC
  5
27D
330
1F
100
AcDbEntity
  8
1
  6
Continuous
 62
     3
100
AcDbCircle
 10
458.649968718577
 20
-582.184727490979
 30
0.0
 40
2.0
100
AcDbArc
 50
0.0
 51
75.52248781407054
  0
ARC
  5
27E
330
1F
100
AcDbEntity
  8
1
  6
Continuous
 62
     3
100
AcDbCircle
 10
454.649968718577
 20
-573.8117441447715
 30
0.0
 40
3.0
100
AcDbArc
 50
0.0
 51
90.0
  0
ARC
  5
27F
330
1F
100
AcDbEntity
  8
1
  6
Continuous
 62
     3
100
AcDbCircle
 10
488.649968718577
 20
-573.8117441447715
 30
0.0
 40
3.0
100
AcDbArc
 50
90.0
 51
180.0
  0
ARC
  5
280
330
1F
100
AcDbEntity
  8
1
  6
Continuous
 62
     3
100
AcDbCircle
 10
483.649968718577
 20
-578.3117441447715
 30
0.0
 40
1.999999999999953
100
AcDbArc
 50
-75.52248781406973
 51
0.0
  0
ARC
  5
281
330
1F
100
AcDbEntity
  8
1
  6
Continuous
 62
     3
100
AcDbCircle
 10
484.649968718577
 20
-582.184727490979
 30
0.0
 40
2.000000000000063
100
AcDbArc
 50
104.4775121859295
 51
180.0
  0
ARC
  5
282
330
1F
100
AcDbEntity
  8
1
  6
Continuous
 62
     3
100
AcDbCircle
 10
491.6499687185772
 20
-568.8117441447715
 30
0.0
 40
2.0
100
AcDbArc
 50
-90.0
 51
0.0
  0
ARC
  5
283
330
1F
100
AcDbEntity
  8
1
  6
Continuous
 62
     3
100
AcDbCircle
 10
452.649968718577
 20
-569.8117441447715
 30
0.0
 40
1.0
100
AcDbArc
 50
180.0
 51
-90.0
  0
ARC
  5
284
330
1F
100
AcDbEntity
  8
1
  6
Continuous
 62
     3
100
AcDbCircle
 10
455.6499687185772
 20
-594.8092442072683
 30
0.0
 40
4.999999999999977
100
AcDbArc
 50
-72.25615989524559
 51
0.0
  0
ARC
  5
285
330
1F
100
AcDbEntity
  8
1
  6
Continuous
 62
     3
100
AcDbCircle
 10
494.1499687185772
 20
-598.3117441447715
 30
0.0
 40
2.000000000000087
100
AcDbArc
 50
69.51268488527514
 51
90.0
  0
ARC
  5
286
330
1F
100
AcDbEntity
  8
1
  6
Continuous
 62
     3
100
AcDbCircle
 10
494.1499687185772
 20
-598.3117441447715
 30
0.0
 40
2.000000000000066
100
AcDbArc
 50
60.00000000000109
 51
69.51268488527514
  0
ARC
  5
287
330
1F
100
AcDbEntity
  8
1
  6
Continuous
 62
     3
100
AcDbCircle
 10
452.0613051822025
 20
-596.1030769400666
 30
0.0
 40
5.000000000000016
100
AcDbArc
 50
-119.9999999999999
 51
-68.09199559232985
  0
ARC
  5
288
330
1F
100
AcDbEntity
  8
1
  6
Continuous
 62
     3
100
AcDbCircle
 10
487.6499687185772
 20
-592.3117441447715
 30
0.0
 40
5.0
100
AcDbArc
 50
180.0
 51
-90.0
  0
ARC
  5
289
330
1F
100
AcDbEntity
  8
1
  6
Continuous
 62
     3
100
AcDbCircle
 10
490.649968718577
 20
-569.8117441447715
 30
0.0
 40
1.0
100
AcDbArc
 50
-90.0
 51
0.0
  0
ARC
  5
28A
330
1F
100
AcDbEntity
  8
1
  6
Continuous
 62
     3
100
AcDbCircle
 10
494.1499687185772
 20
-641.3117441447715
 30
0.0
 40
2.0
100
AcDbArc
 50
-90.0
 51
-60.00000000000109
  0
ARC
  5
28B
330
1F
100
AcDbEntity
  8
1
  6
Continuous
 62
     3
100
AcDbCircle
 10
449.149968718577
 20
-642.3117441447715
 30
0.0
 40
2.0
100
AcDbArc
 50
0.0
 51
90.0
  0
ARC
  5
28C
330
1F
100
AcDbEntity
  8
1
  6
Continuous
 62
     3
100
AcDbCircle
 10
494.149968718577
 20
-645.3117441447715
 30
0.0
 40
2.0
100
AcDbArc
 50
89.99999999999349
 51
158.026465791986
  0
ARC
  5
28D
330
1F
100
AcDbEntity
  8
1
  6
Continuous
 62
     3
100
AcDbCircle
 10
470.6608527103363
 20
-617.8117441447715
 30
0.0
 40
2.0
100
AcDbArc
 50
-90.0
 51
0.0
  0
ARC
  5
28E
330
1F
100
AcDbEntity
  8
1
  6
Continuous
 62
     3
100
AcDbCircle
 10
457.649968718577
 20
-473.8117441447716
 30
0.0
 40
6.0
100
AcDbArc
 50
90.0
 51
180.0
  0
ARC
  5
28F
330
1F
100
AcDbEntity
  8
1
  6
Continuous
 62
     3
100
AcDbCircle
 10
457.649968718577
 20
-501.8117441447715
 30
0.0
 40
6.000000000000057
100
AcDbArc
 50
-90.0
 51
-32.5490109975072
  0
ARC
  5
290
330
1F
100
AcDbEntity
  8
1
  6
Continuous
 62
     3
100
AcDbCircle
 10
485.649968718577
 20
-501.8117441447715
 30
0.0
 40
5.99999999999993
100
AcDbArc
 50
-147.4509890024928
 51
0.0
  0
ARC
  5
291
330
1F
100
AcDbEntity
  8
1
  6
Continuous
 62
     3
100
AcDbCircle
 10
457.649968718577
 20
-473.8117441447716
 30
0.0
 40
6.000000000000026
100
AcDbArc
 50
32.54901099750661
 51
90.0
  0
ARC
  5
292
330
1F
100
AcDbEntity
  8
1
  6
Continuous
 62
     3
100
AcDbCircle
 10
457.649968718577
 20
-501.8117441447715
 30
0.0
 40
6.0
100
AcDbArc
 50
180.0
 51
-90.0
  0
ARC
  5
293
330
1F
100
AcDbEntity
  8
1
  6
Continuous
 62
     3
100
AcDbCircle
 10
485.649968718577
 20
-473.8117441447716
 30
0.0
 40
6.0
100
AcDbArc
 50
0.0
 51
147.4509890024919
  0
ARC
  5
294
330
1F
100
AcDbEntity
  8
1
  6
Continuous
 62
     3
100
AcDbCircle
 10
492.649968718577
 20
-490.6401712695177
 30
0.0
 40
0.999999999999964
100
AcDbArc
 50
109.4712206344868
 51
180.0
  0
ARC
  5
295
330
1F
100
AcDbEntity
  8
1
  6
Continuous
 62
     3
100
AcDbCircle
 10
492.649968718577
 20
-484.9833170200253
 30
0.0
 40
1.0
100
AcDbArc
 50
180.0
 51
-109.4712206344857
  0
ARC
  5
296
330
1F
100
AcDbEntity
  8
1
  6
Continuous
 62
     3
100
AcDbCircle
 10
382.1094281780368
 20
-569.8117441447715
 30
0.0
 40
1.0
100
AcDbArc
 50
-90.0
 51
0.0
  0
ARC
  5
297
330
1F
100
AcDbEntity
  8
1
  6
Continuous
 62
     3
100
AcDbCircle
 10
344.1094281780368
 20
-569.8117441447715
 30
0.0
 40
1.0
100
AcDbArc
 50
180.0
 51
-90.0
  0
ARC
  5
298
330
1F
100
AcDbEntity
  8
1
  6
Continuous
 62
     3
100
AcDbCircle
 10
376.1094281780368
 20
-582.184727490979
 30
0.0
 40
2.000000000000063
100
AcDbArc
 50
104.4775121859295
 51
180.0
  0
ARC
  5
299
330
1F
100
AcDbEntity
  8
1
  6
Continuous
 62
     3
100
AcDbCircle
 10
375.1094281780368
 20
-578.3117441447715
 30
0.0
 40
1.999999999999953
100
AcDbArc
 50
-75.52248781406973
 51
0.0
  0
ARC
  5
29A
330
1F
100
AcDbEntity
  8
1
  6
Continuous
 62
     3
100
AcDbCircle
 10
380.1094281780368
 20
-573.8117441447715
 30
0.0
 40
3.0
100
AcDbArc
 50
90.0
 51
180.0
  0
ARC
  5
29B
330
1F
100
AcDbEntity
  8
1
  6
Continuous
 62
     3
100
AcDbCircle
 10
346.1094281780368
 20
-573.8117441447715
 30
0.0
 40
3.0
100
AcDbArc
 50
0.0
 51
90.0
  0
ARC
  5
29C
330
1F
100
AcDbEntity
  8
1
  6
Continuous
 62
     3
100
AcDbCircle
 10
350.1094281780368
 20
-582.184727490979
 30
0.0
 40
2.0
100
AcDbArc
 50
0.0
 51
75.52248781407054
  0
ARC
  5
29D
330
1F
100
AcDbEntity
  8
1
  6
Continuous
 62
     3
100
AcDbCircle
 10
351.1094281780368
 20
-578.3117441447715
 30
0.0
 40
2.0
100
AcDbArc
 50
180.0
 51
-104.4775121859303
  0
ARC
  5
29E
330
1F
100
AcDbEntity
  8
1
  6
Continuous
 62
     3
100
AcDbCircle
 10
341.1094281780368
 20
-636.3117441447714
 30
0.0
 40
5.0
100
AcDbArc
 50
0.0
 51
36.86989764584402
  0
ARC
  5
29F
330
1F
100
AcDbEntity
  8
1
  6
Continuous
 62
     3
100
AcDbCircle
 10
385.1094281780368
 20
-636.3117441447715
 30
0.0
 40
5.0
100
AcDbArc
 50
143.130102354156
 51
180.0
  0
ARC
  5
2A0
330
1F
100
AcDbEntity
  8
1
  6
Continuous
 62
     3
100
AcDbCircle
 10
381.1094281780368
 20
-637.4816171258493
 30
0.0
 40
1.0
100
AcDbArc
 50
180.0
 51
-150.0000000000044
  0
ARC
  5
2A1
330
1F
100
AcDbEntity
  8
1
  6
Continuous
 62
     3
100
AcDbCircle
 10
381.1094281780368
 20
-637.4816171258493
 30
0.0
 40
1.0
100
AcDbArc
 50
180.0
 51
-150.0000000000044
  0
ARC
  5
2A2
330
1F
100
AcDbEntity
  8
1
  6
Continuous
 62
     3
100
AcDbCircle
 10
345.1094281780368
 20
-637.4816171258493
 30
0.0
 40
0.9999999999998851
100
AcDbArc
 50
-30.0000000000038
 51
0.0
  0
ARC
  5
2A3
330
1F
100
AcDbEntity
  8
1
  6
Continuous
 62
     3
100
AcDbCircle
 10
347.1094281780368
 20
-597.4454748984265
 30
0.0
 40
4.999999999999957
100
AcDbArc
 50
-54.42147426754141
 51
0.0
  0
ARC
  5
2A4
330
1F
100
AcDbEntity
  8
1
  6
Continuous
 62
     3
100
AcDbCircle
 10
379.1094281780368
 20
-597.4454748984265
 30
0.0
 40
5.0
100
AcDbArc
 50
180.0
 51
-125.5785257324573
  0
ARC
  5
2A5
330
1F
100
AcDbEntity
  8
1
  6
Continuous
 62
     3
100
AcDbCircle
 10
558.1905092591177
 20
-578.3117441447715
 30
0.0
 40
2.0
100
AcDbArc
 50
180.0
 51
-104.4775121859303
  0
ARC
  5
2A6
330
1F
100
AcDbEntity
  8
1
  6
Continuous
 62
     3
100
AcDbCircle
 10
557.1905092591177
 20
-582.184727490979
 30
0.0
 40
2.0
100
AcDbArc
 50
0.0
 51
75.52248781407054
  0
ARC
  5
2A7
330
1F
100
AcDbEntity
  8
1
  6
Continuous
 62
     3
100
AcDbCircle
 10
553.1905092591177
 20
-573.8117441447715
 30
0.0
 40
3.0
100
AcDbArc
 50
0.0
 51
90.0
  0
ARC
  5
2A8
330
1F
100
AcDbEntity
  8
1
  6
Continuous
 62
     3
100
AcDbCircle
 10
587.1905092591177
 20
-573.8117441447715
 30
0.0
 40
3.0
100
AcDbArc
 50
90.0
 51
180.0
  0
ARC
  5
2A9
330
1F
100
AcDbEntity
  8
1
  6
Continuous
 62
     3
100
AcDbCircle
 10
582.1905092591177
 20
-578.3117441447715
 30
0.0
 40
1.999999999999953
100
AcDbArc
 50
-75.52248781406973
 51
0.0
  0
ARC
  5
2AA
330
1F
100
AcDbEntity
  8
1
  6
Continuous
 62
     3
100
AcDbCircle
 10
583.1905092591177
 20
-582.184727490979
 30
0.0
 40
2.000000000000063
100
AcDbArc
 50
104.4775121859295
 51
180.0
  0
ARC
  5
2AB
330
1F
100
AcDbEntity
  8
1
  6
Continuous
 62
     3
100
AcDbCircle
 10
551.1905092591177
 20
-569.8117441447715
 30
0.0
 40
1.0
100
AcDbArc
 50
180.0
 51
-90.0
  0
ARC
  5
2AC
330
1F
100
AcDbEntity
  8
1
  6
Continuous
 62
     3
100
AcDbCircle
 10
589.1905092591177
 20
-569.8117441447715
 30
0.0
 40
1.0
100
AcDbArc
 50
-90.0
 51
0.0
  0
ARC
  5
2AD
330
1F
100
AcDbEntity
  8
1
  6
Continuous
 62
     3
100
AcDbCircle
 10
554.1905092591177
 20
-597.4454748984265
 30
0.0
 40
4.999999999999982
100
AcDbArc
 50
-20.80139695148315
 51
0.0
  0
ARC
  5
2AE
330
1F
100
AcDbEntity
  8
1
  6
Continuous
 62
     3
100
AcDbCircle
 10
592.1905092591177
 20
-636.3117441447715
 30
0.0
 40
4.999999999999984
100
AcDbArc
 50
176.7501796702141
 51
180.0
  0
ARC
  5
2AF
330
1F
100
AcDbEntity
  8
1
  6
Continuous
 62
     3
100
AcDbCircle
 10
588.1905092591177
 20
-637.4816171258493
 30
0.0
 40
1.0
100
AcDbArc
 50
180.0
 51
-150.0000000000027
  0
ARC
  5
2B0
330
1F
100
AcDbEntity
  8
1
  6
Continuous
 62
     3
100
AcDbCircle
 10
588.1905092591177
 20
-637.4816171258493
 30
0.0
 40
1.0
100
AcDbArc
 50
180.0
 51
-150.0000000000027
  0
ARC
  5
2B1
330
1F
100
AcDbEntity
  8
1
  6
Continuous
 62
     3
100
AcDbCircle
 10
552.1905092591177
 20
-637.4816171258493
 30
0.0
 40
0.9999999999998851
100
AcDbArc
 50
-30.0000000000038
 51
0.0
  0
ARC
  5
2B2
330
1F
100
AcDbEntity
  8
1
  6
Continuous
 62
     3
100
AcDbCircle
 10
586.1905092591177
 20
-597.4454748984265
 30
0.0
 40
5.0
100
AcDbArc
 50
180.0
 51
-159.1986030485157
  0
ARC
  5
2B3
330
1F
100
AcDbEntity
  8
1
  6
Continuous
 62
     3
100
AcDbCircle
 10
548.1905092591177
 20
-636.3117441447714
 30
0.0
 40
5.0
100
AcDbArc
 50
0.0
 51
3.24982032978463
  0
MTEXT
  5
2B4
330
1F
100
AcDbEntity
  8
1
 62
     3
100
AcDbMText
 10
478.5136121649567
 20
-649.8117441447715
 30
0.0
 40
8.0
 41
0.0
 71
     3
 72
     1
  1
AB
  7
CONVERTER_1
 73
     1
 44
0.84033613445378
  0
MTEXT
  5
2B5
330
1F
100
AcDbEntity
  8
1
 62
     3
100
AcDbMText
 10
441.6499113387613
 20
-615.8117441447715
 30
0.0
 40
8.0
 41
0.0
 71
     3
 72
     1
  1
A
  7
CONVERTER_1
 73
     1
 44
0.84033613445378
  0
TEXT
  5
2B7
330
1F
100
AcDbEntity
  8
1
 62
     3
100
AcDbText
 10
333.8258170790466
 20
-687.919353600074
 30
0.0
 40
5.0
  1
VY5303A0023
 41
1.08
  7
CONVERTER_2
100
AcDbText
  0
TEXT
  5
2B9
330
1F
100
AcDbEntity
  8
1
 62
     1
100
AcDbText
 10
644.949748265548
 20
-621.6485699570064
 30
0.0
 40
4.0
  1
VY5303A0023
 41
0.855
  7
CONVERTER_3
100
AcDbText
  0
MTEXT
  5
2BB
330
1F
100
AcDbEntity
  8
1
 62
     3
100
AcDbMText
 10
471.649968718577
 20
-613.8117441447715
 30
0.0
 40
5.0
 41
0.0
 71
     8
 72
     1
  1
25
  7
CONVERTER_4
 73
     1
 44
0.84033613445378
  0
MTEXT
  5
2BD
330
1F
100
AcDbEntity
  8
1
 62
     3
100
AcDbMText
 10
471.649968718577
 20
-625.8117441447715
 30
0.0
 40
5.0
 41
0.0
 71
     2
 72
     1
  1
PN16
  7
CONVERTER_5
 73
     1
 44
0.84033613445378
  0
MTEXT
  5
2BE
330
1F
100
AcDbEntity
  8
1
 62
     3
100
AcDbMText
 10
486.149968718577
 20
-615.8117441447715
 30
0.0
 40
8.0
 41
0.0
 71
     1
 72
     1
  1
B
  7
CONVERTER_1
 73
     1
 44
0.84033613445378
  0
DIMENSION
  5
2D1
330
1F
100
AcDbEntity
  8
1
100
AcDbDimension
  2
*D06
 10
418.6499687185773
 20
-619.8117441447715
 30
0.0
 11
415.2999687185773
 21
-641.111410424691
 31
0.0
 70
    32
  1
<>
 71
     5
 42
-1.0
 53
90.0
  3
ME10_DIM_0
100
AcDbAlignedDimension
 13
451.167917911008
 23
-661.8117441447715
 33
0.0
 14
426.6499687185773
 24
-619.8117441447715
 34
0.0
 50
90.0
100
AcDbRotatedDimension
  0
DIMENSION
  5
2DE
330
1F
100
AcDbEntity
  8
1
100
AcDbDimension
  2
*D18
 10
418.6499687185773
 20
-619.8117441447715
 30
0.0
 11
415.2999687185773
 21
-596.3117441447715
 31
0.0
 70
    32
  1
<>
 71
     5
 42
-1.0
 53
90.0
  3
ME10_DIM_1
100
AcDbAlignedDimension
 13
451.649968718577
 23
-566.3117441447715
 33
0.0
 14
426.6499687185773
 24
-619.8117441447715
 34
0.0
 50
90.0
100
AcDbRotatedDimension
  0
DIMENSION
  5
2EB
330
1F
100
AcDbEntity
  8
1
100
AcDbDimension
  2
*D29
 10
418.544570532415
 20
-566.3117441447715
 30
0.0
 11
415.194570532415
 21
-551.365802456471
 31
0.0
 70
    32
  1
<>
 71
     5
 42
-1.0
 53
90.0
  3
ME10_DIM_2
100
AcDbAlignedDimension
 13
467.399968718577
 23
-541.3117441447715
 33
0.0
 14
451.649968718577
 24
-566.3117441447715
 34
0.0
 50
90.0
100
AcDbRotatedDimension
  0
DIMENSION
  5
2F8
330
1F
100
AcDbEntity
  8
1
100
AcDbDimension
  2
*D310
 10
471.649968718577
 20
-674.3117441447715
 30
0.0
 11
450.021224370829
 21
-670.9617441447715
 31
0.0
 70
    32
  1
<>
 71
     5
 42
-1.0
 53
0.00013888888889
  3
ME10_DIM_3
100
AcDbAlignedDimension
 13
429.6499687185773
 23
-640.3117441447715
 33
0.0
 14
471.649968718577
 24
-666.3117441447715
 34
0.0
100
AcDbRotatedDimension
  0
DIMENSION
  5
305
330
1F
100
AcDbEntity
  8
1
100
AcDbDimension
  2
*D411
 10
429.6499687185773
 20
-685.9854976935691
 30
0.0
 11
471.453011348314
 21
-682.6354976935691
 31
0.0
 70
    32
  1
<>
 71
     5
 42
-1.0
 53
0.00013888888889
  3
ME10_DIM_4
100
AcDbAlignedDimension
 13
514.6499687185772
 23
-637.2376688937059
 33
0.0
 14
429.6499687185773
 24
-640.3117441447715
 34
0.0
100
AcDbRotatedDimension
  0
ENDSEC
  0
SECTION
  2
OBJECTS
  0
DICTIONARY
  5
C
330
0
100
AcDbDictionary
281
     1
  3
ACAD_GROUP
350
D
  3
ACAD_LAYOUT
350
1A
  3
ACAD_MLINESTYLE
350
17
  3
ACAD_PLOTSETTINGS
350
19
  3
ACAD_PLOTSTYLENAME
350
E
  0
DICTIONARY
  5
D
102
{ACAD_REACTORS
330
C
102
}
330
C
100
AcDbDictionary
281
     1
  0
DICTIONARY
  5
1A
102
{ACAD_REACTORS
330
C
102
}
330
C
100
AcDbDictionary
281
     1
  3
Layout1
350
1E
  3
Layout2
350
26
  3
Model
350
22
  0
DICTIONARY
  5
17
102
{ACAD_REACTORS
330
C
102
}
330
C
100
AcDbDictionary
281
     1
  3
Standard
350
18
  0
DICTIONARY
  5
19
102
{ACAD_REACTORS
330
C
102
}
330
C
100
AcDbDictionary
281
     1
  0
ACDBDICTIONARYWDFLT
  5
E
102
{ACAD_REACTORS
330
C
102
}
330
C
100
AcDbDictionary
281
     1
  3
Normal
350
F
100
AcDbDictionaryWithDefault
340
F
  0
LAYOUT
  5
1E
102
{ACAD_REACTORS
330
1A
102
}
330
1A
100
AcDbPlotSettings
  1

  2

  4

  6

 40
0.0
 41
0.0
 42
0.0
 43
0.0
 44
0.0
 45
0.0
 46
0.0
 47
0.0
 48
0.0
 49
0.0
140
0.0
141
0.0
142
1.0
143
1.0
 70
   688
 72
     0
 73
     0
 74
     5
  7

 75
    16
147
1.0
148
0.0
149
0.0
100
AcDbLayout
  1
Layout1
 70
     1
 71
     1
 10
0.0
 20
0.0
 11
0.0
 21
0.0
 12
0.0
 22
0.0
 32
0.0
 14
0.0
 24
0.0
 34
0.0
 15
0.0
 25
0.0
 35
0.0
146
0.0
 13
0.0
 23
0.0
 33
0.0
 16
1.0
 26
0.0
 36
0.0
 17
0.0
 27
1.0
 37
0.0
 76
     0
330
1B
  0
LAYOUT
  5
26
102
{ACAD_REACTORS
330
1A
102
}
330
1A
100
AcDbPlotSettings
  1

  2

  4

  6

 40
0.0
 41
0.0
 42
0.0
 43
0.0
 44
0.0
 45
0.0
 46
0.0
 47
0.0
 48
0.0
 49
0.0
140
0.0
141
0.0
142
1.0
143
1.0
 70
   688
 72
     0
 73
     0
 74
     5
  7

 75
    16
147
1.0
148
0.0
149
0.0
100
AcDbLayout
  1
Layout2
 70
     1
 71
     2
 10
0.0
 20
0.0
 11
0.0
 21
0.0
 12
0.0
 22
0.0
 32
0.0
 14
0.0
 24
0.0
 34
0.0
 15
0.0
 25
0.0
 35
0.0
146
0.0
 13
0.0
 23
0.0
 33
0.0
 16
1.0
 26
0.0
 36
0.0
 17
0.0
 27
1.0
 37
0.0
 76
     0
330
23
  0
LAYOUT
  5
22
102
{ACAD_REACTORS
330
1A
102
}
330
1A
100
AcDbPlotSettings
  1

  2

  4

  6

 40
0.0
 41
0.0
 42
0.0
 43
0.0
 44
0.0
 45
0.0
 46
0.0
 47
0.0
 48
0.0
 49
0.0
140
0.0
141
0.0
142
1.0
143
1.0
 70
  1712
 72
     0
 73
     0
 74
     0
  7

 75
     0
147
1.0
148
0.0
149
0.0
100
AcDbLayout
  1
Model
 70
     1
 71
     0
 10
0.0
 20
0.0
 11
0.0
 21
0.0
 12
0.0
 22
0.0
 32
0.0
 14
333.8258170790466
 24
-687.919353600074
 34
0.0
 15
708.6905092591177
 25
-462.2442816248986
 35
0.0
146
0.0
 13
0.0
 23
0.0
 33
0.0
 16
1.0
 26
0.0
 36
0.0
 17
0.0
 27
1.0
 37
0.0
 76
     0
330
1F
  0
MLINESTYLE
  5
18
102
{ACAD_REACTORS
330
17
102
}
330
17
100
AcDbMlineStyle
  2
Standard
 70
     0
  3

 62
   256
 51
90.0
 52
90.0
 71
     2
 49
0.5
 62
   256
  6
BYLAYER
 49
-0.5
 62
   256
  6
BYLAYER
  0
ACDBPLACEHOLDER
  5
F
102
{ACAD_REACTORS
330
E
102
}
330
E
  0
ENDSEC
  0
EOF
