  0
SECTION
  2
HEADER
  9
$ACADVER
  1
AC1015
  9
$ACADMAINTVER
 70
     6
  9
$DWGCODEPAGE
  3
ANSI_1252
  9
$INSBASE
 10
0.0
 20
0.0
 30
0.0
  9
$EXTMIN
 10
-359.556989416077
 20
-680.763405609809
 30
0.0
  9
$EXTMAX
 10
-52.01735106520997
 20
-502.318579632739
 30
0.0
  9
$LIMMIN
 10
0.0
 20
0.0
  9
$LIMMAX
 10
12.0
 20
9.0
  9
$ORTHOMODE
 70
     0
  9
$REGENMODE
 70
     1
  9
$FILLMODE
 70
     1
  9
$QTEXTMODE
 70
     0
  9
$MIRRTEXT
 70
     1
  9
$LTSCALE
 40
1.0
  9
$ATTMODE
 70
     1
  9
$TEXTSIZE
 40
0.2
  9
$TRACEWID
 40
0.05
  9
$TEXTSTYLE
  7
Standard
  9
$CLAYER
  8
0
  9
$CELTYPE
  6
ByLayer
  9
$CECOLOR
 62
   256
  9
$CELTSCALE
 40
1.0
  9
$DISPSILH
 70
     0
  9
$DIMSCALE
 40
1.0
  9
$DIMASZ
 40
0.18
  9
$DIMEXO
 40
0.0625
  9
$DIMDLI
 40
0.38
  9
$DIMRND
 40
0.0
  9
$DIMDLE
 40
0.0
  9
$DIMEXE
 40
0.18
  9
$DIMTP
 40
0.0
  9
$DIMTM
 40
0.0
  9
$DIMTXT
 40
0.18
  9
$DIMCEN
 40
0.09
  9
$DIMTSZ
 40
0.0
  9
$DIMTOL
 70
     0
  9
$DIMLIM
 70
     0
  9
$DIMTIH
 70
     1
  9
$DIMTOH
 70
     1
  9
$DIMSE1
 70
     0
  9
$DIMSE2
 70
     0
  9
$DIMTAD
 70
     0
  9
$DIMZIN
 70
     0
  9
$DIMBLK
  1

  9
$DIMASO
 70
     1
  9
$DIMSHO
 70
     1
  9
$DIMPOST
  1

  9
$DIMAPOST
  1

  9
$DIMALT
 70
     0
  9
$DIMALTD
 70
     2
  9
$DIMALTF
 40
25.4
  9
$DIMLFAC
 40
1.0
  9
$DIMTOFL
 70
     0
  9
$DIMTVP
 40
0.0
  9
$DIMTIX
 70
     0
  9
$DIMSOXD
 70
     0
  9
$DIMSAH
 70
     0
  9
$DIMBLK1
  1

  9
$DIMBLK2
  1

  9
$DIMSTYLE
  2
Standard
  9
$DIMCLRD
 70
     0
  9
$DIMCLRE
 70
     0
  9
$DIMCLRT
 70
     0
  9
$DIMTFAC
 40
1.0
  9
$DIMGAP
 40
0.09
  9
$DIMJUST
 70
     0
  9
$DIMSD1
 70
     0
  9
$DIMSD2
 70
     0
  9
$DIMTOLJ
 70
     1
  9
$DIMTZIN
 70
     0
  9
$DIMALTZ
 70
     0
  9
$DIMALTTZ
 70
     0
  9
$DIMUPT
 70
     0
  9
$DIMDEC
 70
     4
  9
$DIMTDEC
 70
     4
  9
$DIMALTU
 70
     2
  9
$DIMALTTD
 70
     2
  9
$DIMTXSTY
  7
Standard
  9
$DIMAUNIT
 70
     0
  9
$DIMADEC
 70
     0
  9
$DIMALTRND
 40
0.0
  9
$DIMAZIN
 70
     0
  9
$DIMDSEP
 70
    46
  9
$DIMATFIT
 70
     3
  9
$DIMFRAC
 70
     0
  9
$DIMLDRBLK
  1

  9
$DIMLUNIT
 70
     2
  9
$DIMLWD
 70
    -2
  9
$DIMLWE
 70
    -2
  9
$DIMTMOVE
 70
     0
  9
$LUNITS
 70
     2
  9
$LUPREC
 70
     4
  9
$SKETCHINC
 40
0.1
  9
$FILLETRAD
 40
0.5
  9
$AUNITS
 70
     0
  9
$AUPREC
 70
     0
  9
$MENU
  1
.
  9
$ELEVATION
 40
0.0
  9
$PELEVATION
 40
0.0
  9
$THICKNESS
 40
0.0
  9
$LIMCHECK
 70
     0
  9
$CHAMFERA
 40
0.5
  9
$CHAMFERB
 40
0.5
  9
$CHAMFERC
 40
1.0
  9
$CHAMFERD
 40
0.0
  9
$SKPOLY
 70
     0
  9
$TDCREATE
 40
2455063.684135011
  9
$TDUCREATE
 40
2455063.309135011
  9
$TDUPDATE
 40
2455063.684135023
  9
$TDUUPDATE
 40
2455063.309135023
  9
$TDINDWG
 40
0.0000000116
  9
$TDUSRTIMER
 40
0.0000000116
  9
$USRTIMER
 70
     1
  9
$ANGBASE
 50
0.0
  9
$ANGDIR
 70
     0
  9
$PDMODE
 70
     0
  9
$PDSIZE
 40
0.0
  9
$PLINEWID
 40
0.0
  9
$SPLFRAME
 70
     0
  9
$SPLINETYPE
 70
     6
  9
$SPLINESEGS
 70
     8
  9
$HANDSEED
  5
27E
  9
$SURFTAB1
 70
     6
  9
$SURFTAB2
 70
     6
  9
$SURFTYPE
 70
     6
  9
$SURFU
 70
     6
  9
$SURFV
 70
     6
  9
$UCSBASE
  2

  9
$UCSNAME
  2

  9
$UCSORG
 10
0.0
 20
0.0
 30
0.0
  9
$UCSXDIR
 10
1.0
 20
0.0
 30
0.0
  9
$UCSYDIR
 10
0.0
 20
1.0
 30
0.0
  9
$UCSORTHOREF
  2

  9
$UCSORTHOVIEW
 70
     0
  9
$UCSORGTOP
 10
0.0
 20
0.0
 30
0.0
  9
$UCSORGBOTTOM
 10
0.0
 20
0.0
 30
0.0
  9
$UCSORGLEFT
 10
0.0
 20
0.0
 30
0.0
  9
$UCSORGRIGHT
 10
0.0
 20
0.0
 30
0.0
  9
$UCSORGFRONT
 10
0.0
 20
0.0
 30
0.0
  9
$UCSORGBACK
 10
0.0
 20
0.0
 30
0.0
  9
$PUCSBASE
  2

  9
$PUCSNAME
  2

  9
$PUCSORG
 10
0.0
 20
0.0
 30
0.0
  9
$PUCSXDIR
 10
1.0
 20
0.0
 30
0.0
  9
$PUCSYDIR
 10
0.0
 20
1.0
 30
0.0
  9
$PUCSORTHOREF
  2

  9
$PUCSORTHOVIEW
 70
     0
  9
$PUCSORGTOP
 10
0.0
 20
0.0
 30
0.0
  9
$PUCSORGBOTTOM
 10
0.0
 20
0.0
 30
0.0
  9
$PUCSORGLEFT
 10
0.0
 20
0.0
 30
0.0
  9
$PUCSORGRIGHT
 10
0.0
 20
0.0
 30
0.0
  9
$PUCSORGFRONT
 10
0.0
 20
0.0
 30
0.0
  9
$PUCSORGBACK
 10
0.0
 20
0.0
 30
0.0
  9
$USERI1
 70
     0
  9
$USERI2
 70
     0
  9
$USERI3
 70
     0
  9
$USERI4
 70
     0
  9
$USERI5
 70
     0
  9
$USERR1
 40
14.0
  9
$USERR2
 40
0.0
  9
$USERR3
 40
0.0
  9
$USERR4
 40
0.0
  9
$USERR5
 40
0.0
  9
$WORLDVIEW
 70
     1
  9
$SHADEDGE
 70
     3
  9
$SHADEDIF
 70
    70
  9
$TILEMODE
 70
     1
  9
$MAXACTVP
 70
    64
  9
$PINSBASE
 10
0.0
 20
0.0
 30
0.0
  9
$PLIMCHECK
 70
     0
  9
$PEXTMIN
 10
1.00000000000000E+20
 20
1.00000000000000E+20
 30
1.00000000000000E+20
  9
$PEXTMAX
 10
-1.00000000000000E+20
 20
-1.00000000000000E+20
 30
-1.00000000000000E+20
  9
$PLIMMIN
 10
0.0
 20
0.0
  9
$PLIMMAX
 10
12.0
 20
9.0
  9
$UNITMODE
 70
     0
  9
$VISRETAIN
 70
     1
  9
$PLINEGEN
 70
     0
  9
$PSLTSCALE
 70
     1
  9
$TREEDEPTH
 70
  3020
  9
$CMLSTYLE
  2
Standard
  9
$CMLJUST
 70
     0
  9
$CMLSCALE
 40
1.0
  9
$PROXYGRAPHICS
 70
     1
  9
$MEASUREMENT
 70
     1
  9
$CELWEIGHT
370
    -1
  9
$ENDCAPS
280
     0
  9
$JOINSTYLE
280
     0
  9
$LWDISPLAY
290
     0
  9
$INSUNITS
 70
     1
  9
$HYPERLINKBASE
  1

  9
$STYLESHEET
  1

  9
$XEDIT
290
     1
  9
$CEPSNTYPE
380
     0
  9
$PSTYLEMODE
290
     1
  9
$FINGERPRINTGUID
  2
{5FBCFAD6-7873-44FF-A8BB-1F1F6C969367}
  9
$VERSIONGUID
  2
{FAEB1C32-E019-11D5-929B-00C0DF256EC4}
  9
$EXTNAMES
290
     1
  9
$PSVPSCALE
 40
0.0
  9
$OLESTARTUP
290
     0
  0
ENDSEC
  0
SECTION
  2
CLASSES
  0
CLASS
  1
ACDBDICTIONARYWDFLT
  2
AcDbDictionaryWithDefault
  3
ObjectDBX Classes
 90
        0
280
     0
281
     0
  0
CLASS
  1

  2
exOdDbCircle
  3

 90
        0
280
     0
281
     1
  0
CLASS
  1

  2
exOdDbPolyline
  3

 90
        0
280
     0
281
     1
  0
CLASS
  1
ACDBPLACEHOLDER
  2
AcDbPlaceHolder
  3
ObjectDBX Classes
 90
        0
280
     0
281
     0
  0
CLASS
  1
LAYOUT
  2
AcDbLayout
  3
ObjectDBX Classes
 90
        0
280
     0
281
     0
  0
ENDSEC
  0
SECTION
  2
TABLES
  0
TABLE
  2
VPORT
  5
8
330
0
100
AcDbSymbolTable
 70
     1
  0
VPORT
  5
29
330
8
100
AcDbSymbolTableRecord
100
AcDbViewportTableRecord
  2
*Active
 70
     0
 10
0.0
 20
0.0
 11
1.0
 21
1.0
 12
-205.7871702406435
 22
-591.540992621274
 13
0.0
 23
0.0
 14
0.5
 24
0.5
 15
0.5
 25
0.5
 16
0.0
 26
0.0
 36
1.0
 17
0.0
 27
0.0
 37
0.0
 40
211.0801306118487
 41
1.60267857142857
 42
50.0
 43
0.0
 44
0.0
 50
0.0
 51
0.0
 71
     0
 72
   100
 73
     1
 74
     3
 75
     0
 76
     0
 77
     0
 78
     0
281
     0
 65
     1
110
0.0
120
0.0
130
0.0
111
1.0
121
0.0
131
0.0
112
0.0
122
1.0
132
0.0
 79
     0
146
0.0
  0
ENDTAB
  0
TABLE
  2
LTYPE
  5
5
330
0
100
AcDbSymbolTable
 70
     8
  0
LTYPE
  5
14
330
5
100
AcDbSymbolTableRecord
100
AcDbLinetypeTableRecord
  2
ByBlock
 70
     0
  3

 72
    65
 73
     0
 40
0.0
  0
LTYPE
  5
15
330
5
100
AcDbSymbolTableRecord
100
AcDbLinetypeTableRecord
  2
ByLayer
 70
     0
  3

 72
    65
 73
     0
 40
0.0
  0
LTYPE
  5
16
330
5
100
AcDbSymbolTableRecord
100
AcDbLinetypeTableRecord
  2
Continuous
 70
     0
  3
Solid line
 72
    65
 73
     0
 40
0.0
  0
LTYPE
  5
2A
330
5
100
AcDbSymbolTableRecord
100
AcDbLinetypeTableRecord
  2
DASHED
 70
     0
  3
Dashed
 72
    65
 73
     2
 40
15.0
 49
7.0
 74
     0
 49
-8.0
 74
     0
  0
LTYPE
  5
2B
330
5
100
AcDbSymbolTableRecord
100
AcDbLinetypeTableRecord
  2
DOTTED
 70
     0
  3
Dotted
 72
    65
 73
     2
 40
1.0
 49
0.0
 74
     0
 49
-1.0
 74
     0
  0
LTYPE
  5
2C
330
5
100
AcDbSymbolTableRecord
100
AcDbLinetypeTableRecord
  2
DOT_CENTER
 70
     0
  3
Dot_Center
 72
    65
 73
     4
 40
14.0
 49
12.0
 74
     0
 49
-1.0
 74
     0
 49
0.0
 74
     0
 49
-1.0
 74
     0
  0
LTYPE
  5
2D
330
5
100
AcDbSymbolTableRecord
100
AcDbLinetypeTableRecord
  2
LONG_DASHED
 70
     0
  3
Long_Dashed
 72
    65
 73
     2
 40
15.0
 49
10.0
 74
     0
 49
-5.0
 74
     0
  0
LTYPE
  5
2E
330
5
100
AcDbSymbolTableRecord
100
AcDbLinetypeTableRecord
  2
DASH_CENTER
 70
     0
  3
Dash_Center
 72
    65
 73
     4
 40
14.0
 49
11.0
 74
     0
 49
-1.0
 74
     0
 49
1.0
 74
     0
 49
-1.0
 74
     0
  0
LTYPE
  5
2F
330
5
100
AcDbSymbolTableRecord
100
AcDbLinetypeTableRecord
  2
PHANTOM
 70
     0
  3
Phantom
 72
    65
 73
     6
 40
13.0
 49
10.0
 74
     0
 49
-1.0
 74
     0
 49
0.0
 74
     0
 49
-1.0
 74
     0
 49
0.0
 74
     0
 49
-1.0
 74
     0
  0
LTYPE
  5
30
330
5
100
AcDbSymbolTableRecord
100
AcDbLinetypeTableRecord
  2
CENTER_DASH_DASH
 70
     0
  3
Center_Dash_Dash
 72
    65
 73
     6
 40
14.0
 49
9.0
 74
     0
 49
-1.0
 74
     0
 49
1.0
 74
     0
 49
-1.0
 74
     0
 49
1.0
 74
     0
 49
-1.0
 74
     0
  0
ENDTAB
  0
TABLE
  2
LAYER
  5
2
330
0
100
AcDbSymbolTable
 70
     3
  0
LAYER
  5
10
330
2
100
AcDbSymbolTableRecord
100
AcDbLayerTableRecord
  2
0
 70
     0
 62
     7
  6
Continuous
370
    -3
390
F
  0
LAYER
  5
31
330
2
100
AcDbSymbolTableRecord
100
AcDbLayerTableRecord
  2
1
 70
     0
 62
     7
  6
Continuous
370
    -3
390
F
  0
LAYER
  5
32
330
2
100
AcDbSymbolTableRecord
100
AcDbLayerTableRecord
  2
6_ALL_DRFT_GEOM
 70
     0
 62
     7
  6
Continuous
370
    -3
390
F
  0
ENDTAB
  0
TABLE
  2
STYLE
  5
3
330
0
100
AcDbSymbolTable
 70
     6
  0
STYLE
  5
11
330
3
100
AcDbSymbolTableRecord
100
AcDbTextStyleTableRecord
  2
Standard
 70
     0
 40
0.0
 41
1.0
 50
0.0
 71
     0
 42
0.2
  3
txt
  4

  0
STYLE
  5
13F
330
3
100
AcDbSymbolTableRecord
100
AcDbTextStyleTableRecord
  2
CONVERTER_1
 70
     0
 40
0.0
 41
0.76
 50
0.0
 71
     0
 42
0.2
  3
complex.shx
  4

  0
STYLE
  5
141
330
3
100
AcDbSymbolTableRecord
100
AcDbTextStyleTableRecord
  2
CONVERTER_2
 70
     0
 40
0.0
 41
0.95
 50
0.0
 71
     0
 42
0.2
  3
complex.shx
  4

  0
STYLE
  5
143
330
3
100
AcDbSymbolTableRecord
100
AcDbTextStyleTableRecord
  2
CONVERTER_3
 70
     0
 40
0.0
 41
0.9975
 50
0.0
 71
     0
 42
0.2
  3
complex.shx
  4

  0
STYLE
  5
1DA
330
3
100
AcDbSymbolTableRecord
100
AcDbTextStyleTableRecord
  2
CONVERTER_4
 70
     0
 40
0.0
 41
0.9
 50
0.0
 71
     0
 42
0.2
  3
txt.shx
  4

  0
STYLE
  5
242
330
3
100
AcDbSymbolTableRecord
100
AcDbTextStyleTableRecord
  2
CONVERTER_5
 70
     0
 40
0.0
 41
1.08
 50
0.0
 71
     0
 42
0.2
  3
txt.shx
  4

  0
ENDTAB
  0
TABLE
  2
VIEW
  5
6
330
0
100
AcDbSymbolTable
 70
     0
  0
ENDTAB
  0
TABLE
  2
UCS
  5
7
330
0
100
AcDbSymbolTable
 70
     0
  0
ENDTAB
  0
TABLE
  2
APPID
  5
9
330
0
100
AcDbSymbolTable
 70
     1
  0
APPID
  5
12
330
9
100
AcDbSymbolTableRecord
100
AcDbRegAppTableRecord
  2
ACAD
 70
     0
  0
ENDTAB
  0
TABLE
  2
DIMSTYLE
  5
A
330
0
100
AcDbSymbolTable
 70
     5
100
AcDbDimStyleTable
  0
DIMSTYLE
105
27
330
A
100
AcDbSymbolTableRecord
100
AcDbDimStyleTableRecord
  2
Standard
 70
     0
340
11
  0
DIMSTYLE
105
255
102
{ACAD_REACTORS
330
256
102
}
330
A
100
AcDbSymbolTableRecord
100
AcDbDimStyleTableRecord
  2
ME10_DIM_0
 70
     0
 41
3.5
 42
1.0
 44
1.0
 73
     0
 74
     0
 77
     1
 78
     8
140
3.5
147
1.6
172
     1
173
     1
176
     2
177
     2
178
     2
271
     3
340
1DA
343
24F
344
24F
  0
DIMSTYLE
105
262
102
{ACAD_REACTORS
330
263
102
}
330
A
100
AcDbSymbolTableRecord
100
AcDbDimStyleTableRecord
  2
ME10_DIM_1
 70
     0
 41
3.5
 42
1.0
 44
1.0
 73
     0
 74
     0
 77
     1
 78
     8
140
3.5
147
1.6
172
     1
173
     1
176
     2
177
     2
178
     2
271
     3
340
1DA
343
24F
344
24F
  0
DIMSTYLE
105
26F
102
{ACAD_REACTORS
330
270
102
}
330
A
100
AcDbSymbolTableRecord
100
AcDbDimStyleTableRecord
  2
ME10_DIM_2
 70
     0
 41
3.5
 42
1.0
 44
1.0
 73
     0
 74
     0
 77
     1
 78
     8
140
3.5
147
1.6
172
     1
173
     1
176
     2
177
     2
178
     2
271
     3
340
1DA
343
24F
344
24F
  0
DIMSTYLE
105
27C
102
{ACAD_REACTORS
330
27D
102
}
330
A
100
AcDbSymbolTableRecord
100
AcDbDimStyleTableRecord
  2
ME10_DIM_3
 70
     0
 41
3.5
 42
1.0
 44
1.0
 73
     0
 74
     0
 77
     1
 78
     8
140
3.5
147
1.6
172
     1
173
     1
176
     2
177
     2
178
     2
271
     3
340
1DA
343
24F
344
24F
  0
ENDTAB
  0
TABLE
  2
BLOCK_RECORD
  5
1
330
0
100
AcDbSymbolTable
 70
    10
  0
BLOCK_RECORD
  5
1F
330
1
100
AcDbSymbolTableRecord
100
AcDbBlockTableRecord
  2
*Model_Space
340
22
  0
BLOCK_RECORD
  5
1B
330
1
100
AcDbSymbolTableRecord
100
AcDbBlockTableRecord
  2
*Paper_Space
340
1E
  0
BLOCK_RECORD
  5
23
330
1
100
AcDbSymbolTableRecord
100
AcDbBlockTableRecord
  2
*Paper_Space0
340
26
  0
BLOCK_RECORD
  5
33
330
1
100
AcDbSymbolTableRecord
100
AcDbBlockTableRecord
  2
Top__1
340
0
102
{BLKREFS
331
3F
102
}
  0
BLOCK_RECORD
  5
36
330
1
100
AcDbSymbolTableRecord
100
AcDbBlockTableRecord
  2
Top__2
340
0
102
{BLKREFS
331
40
102
}
  0
BLOCK_RECORD
  5
39
330
1
100
AcDbSymbolTableRecord
100
AcDbBlockTableRecord
  2
_2
340
0
102
{BLKREFS
331
41
102
}
  0
BLOCK_RECORD
  5
3C
330
1
100
AcDbSymbolTableRecord
100
AcDbBlockTableRecord
  2
_3
340
0
102
{BLKREFS
331
42
102
}
  0
BLOCK_RECORD
  5
244
330
1
100
AcDbSymbolTableRecord
100
AcDbBlockTableRecord
  2
*D05
340
0
  0
BLOCK_RECORD
  5
24F
330
1
100
AcDbSymbolTableRecord
100
AcDbBlockTableRecord
  2
_Open30
340
0
  0
BLOCK_RECORD
  5
257
330
1
100
AcDbSymbolTableRecord
100
AcDbBlockTableRecord
  2
*D17
340
0
  0
BLOCK_RECORD
  5
264
330
1
100
AcDbSymbolTableRecord
100
AcDbBlockTableRecord
  2
*D28
340
0
  0
BLOCK_RECORD
  5
271
330
1
100
AcDbSymbolTableRecord
100
AcDbBlockTableRecord
  2
*D39
340
0
  0
ENDTAB
  0
ENDSEC
  0
SECTION
  2
BLOCKS
  0
BLOCK
  5
20
330
1F
100
AcDbEntity
  8
0
100
AcDbBlockBegin
  2
*Model_Space
 70
     0
 71
     0
 10
0.0
 20
0.0
 30
0.0
  3
*Model_Space
  1

  0
ENDBLK
  5
21
330
1F
100
AcDbEntity
  8
0
100
AcDbBlockEnd
  0
BLOCK
  5
1C
330
1B
100
AcDbEntity
 67
     1
  8
0
100
AcDbBlockBegin
  2
*Paper_Space
 70
     0
 71
     0
 10
0.0
 20
0.0
 30
0.0
  3
*Paper_Space
  1

  0
ENDBLK
  5
1D
330
1B
100
AcDbEntity
 67
     1
  8
0
100
AcDbBlockEnd
  0
BLOCK
  5
24
330
23
100
AcDbEntity
  8
0
100
AcDbBlockBegin
  2
*Paper_Space0
 70
     0
 71
     0
 10
0.0
 20
0.0
 30
0.0
  3
*Paper_Space0
  1

  0
ENDBLK
  5
25
330
23
100
AcDbEntity
  8
0
100
AcDbBlockEnd
  0
BLOCK
  5
34
330
33
100
AcDbEntity
  8
0
100
AcDbBlockBegin
  2
Top__1
 70
     0
 71
     0
 10
214.937044601524
 20
-705.2917467707
 30
0.0
  3
Top__1
  1

  0
POINT
  5
43
330
33
100
AcDbEntity
  8
1
 62
     3
 60
     1
100
AcDbPoint
 10
310.082833566548
 20
-705.2521927048458
 30
0.0
  0
LINE
  5
44
330
33
100
AcDbEntity
  8
1
  6
Continuous
 62
     3
100
AcDbLine
 10
-281.4400007960203
 20
-538.8185796327392
 30
0.0
 11
-272.5173510652099
 21
-538.818579632739
 31
0.0
  0
LINE
  5
45
330
33
100
AcDbEntity
  8
1
  6
Continuous
 62
     3
100
AcDbLine
 10
-281.4400007960203
 20
-538.8185796327392
 30
0.0
 11
-282.0173510652099
 21
-537.8185796327392
 31
0.0
  0
LINE
  5
46
330
33
100
AcDbEntity
  8
1
  6
Continuous
 62
     3
100
AcDbLine
 10
-282.0173510652099
 20
-512.818579632739
 30
0.0
 11
-282.0173510652099
 21
-537.8185796327392
 31
0.0
  0
LINE
  5
47
330
33
100
AcDbEntity
  8
1
  6
Continuous
 62
     3
100
AcDbLine
 10
-281.4400007960203
 20
-511.818579632739
 30
0.0
 11
-272.5173510652099
 21
-511.818579632739
 31
0.0
  0
LINE
  5
48
330
33
100
AcDbEntity
  8
1
  6
Continuous
 62
     3
100
AcDbLine
 10
-282.0173510652099
 20
-512.818579632739
 30
0.0
 11
-281.4400007960203
 21
-511.818579632739
 31
0.0
  0
LINE
  5
49
330
33
100
AcDbEntity
  8
1
  6
Continuous
 62
     3
100
AcDbLine
 10
-240.5173510652099
 20
-628.6845466930641
 30
0.0
 11
-240.5173510652099
 21
-659.6193529016481
 31
0.0
  0
LINE
  5
4A
330
33
100
AcDbEntity
  8
1
  6
Continuous
 62
     3
100
AcDbLine
 10
-240.0173510652099
 20
-660.6193529016481
 30
0.0
 11
-240.0173510652099
 21
-628.6845466930641
 31
0.0
  0
LINE
  5
4B
330
33
100
AcDbEntity
  8
1
  6
Continuous
 62
     3
100
AcDbLine
 10
-266.5173510652099
 20
-604.1193529016481
 30
0.0
 11
-266.5173510652099
 21
-608.6193529016481
 31
0.0
  0
LINE
  5
4C
330
33
100
AcDbEntity
  8
1
  6
Continuous
 62
     3
100
AcDbLine
 10
-238.5173510652099
 20
-608.6193529016481
 30
0.0
 11
-238.5173510652099
 21
-604.1193529016481
 31
0.0
  0
LINE
  5
4D
330
33
100
AcDbEntity
  8
1
  6
Continuous
 62
     3
100
AcDbLine
 10
-233.5173510652099
 20
-601.1193529016481
 30
0.0
 11
-232.51735106521
 21
-601.1193529016481
 31
0.0
  0
LINE
  5
4E
330
33
100
AcDbEntity
  8
1
  6
Continuous
 62
     3
100
AcDbLine
 10
-230.51735106521
 20
-596.6193529016481
 30
0.0
 11
-232.5173510652099
 21
-596.6193529016481
 31
0.0
  0
LINE
  5
4F
330
33
100
AcDbEntity
  8
1
  6
Continuous
 62
     3
100
AcDbLine
 10
-230.51735106521
 20
-599.1193529016481
 30
0.0
 11
-230.51735106521
 21
-596.6193529016481
 31
0.0
  0
LINE
  5
50
330
33
100
AcDbEntity
  8
1
  6
Continuous
 62
     3
100
AcDbLine
 10
-264.71735106521
 20
-596.6193529016481
 30
0.0
 11
-239.5173510652099
 21
-596.6193529016481
 31
0.0
  0
LINE
  5
51
330
33
100
AcDbEntity
  8
1
  6
Continuous
 62
     3
100
AcDbLine
 10
-232.5173510652099
 20
-596.6193529016481
 30
0.0
 11
-239.5173510652099
 21
-596.6193529016481
 31
0.0
  0
LINE
  5
52
330
33
100
AcDbEntity
  8
1
  6
Continuous
 62
     3
100
AcDbLine
 10
-272.5173510652099
 20
-596.6193529016481
 30
0.0
 11
-264.71735106521
 21
-596.6193529016481
 31
0.0
  0
LINE
  5
53
330
33
100
AcDbEntity
  8
1
  6
Continuous
 62
     3
100
AcDbLine
 10
-263.5173510652099
 20
-612.4923362478554
 30
0.0
 11
-263.5173510652099
 21
-624.6193529016481
 31
0.0
  0
LINE
  5
54
330
33
100
AcDbEntity
  8
1
  6
Continuous
 62
     3
100
AcDbLine
 10
-241.5173510652099
 20
-623.6193529016481
 30
0.0
 11
-241.5173510652099
 21
-612.4923362478554
 31
0.0
  0
LINE
  5
55
330
33
100
AcDbEntity
  8
1
  6
DOT_CENTER
 62
     1
100
AcDbLine
 10
-286.0173510652099
 20
-644.1193529016481
 30
0.0
 11
-232.886071664544
 21
-644.1193529016481
 31
0.0
  0
LINE
  5
56
330
33
100
AcDbEntity
  8
1
  6
DOT_CENTER
 62
     1
100
AcDbLine
 10
-252.5173510652099
 20
-594.619352901648
 30
0.0
 11
-252.5173510652099
 21
-661.6193529016481
 31
0.0
  0
LINE
  5
57
330
33
100
AcDbEntity
  8
1
  6
Continuous
 62
     3
100
AcDbLine
 10
-240.0173510652099
 20
-660.6193529016481
 30
0.0
 11
-236.5173510652099
 21
-660.6193529016481
 31
0.0
  0
LINE
  5
58
330
33
100
AcDbEntity
  8
1
  6
Continuous
 62
     3
100
AcDbLine
 10
-240.5173510652099
 20
-659.6193529016481
 30
0.0
 11
-240.0173510652099
 21
-660.6193529016481
 31
0.0
  0
LINE
  5
59
330
33
100
AcDbEntity
  8
1
  6
Continuous
 62
     3
100
AcDbLine
 10
-252.5173510652099
 20
-659.6193529016481
 30
0.0
 11
-240.5173510652099
 21
-659.6193529016481
 31
0.0
  0
LINE
  5
5A
330
33
100
AcDbEntity
  8
1
  6
Continuous
 62
     3
100
AcDbLine
 10
-268.7494018727788
 20
-658.6193529016481
 30
0.0
 11
-266.5017273535665
 21
-657.3216574129301
 31
0.0
  0
LINE
  5
5B
330
33
100
AcDbEntity
  8
1
  6
Continuous
 62
     3
100
AcDbLine
 10
-281.4400007960203
 20
-658.6193529016481
 30
0.0
 11
-268.7494018727788
 21
-658.6193529016481
 31
0.0
  0
LINE
  5
5C
330
33
100
AcDbEntity
  8
1
  6
Continuous
 62
     3
100
AcDbLine
 10
-281.4400007960203
 20
-629.6193529016481
 30
0.0
 11
-268.5173510652099
 21
-629.6193529016481
 31
0.0
  0
LINE
  5
5D
330
33
100
AcDbEntity
  8
1
  6
Continuous
 62
     3
100
AcDbLine
 10
-282.0173510652099
 20
-657.6193529016481
 30
0.0
 11
-281.4400007960203
 21
-658.6193529016481
 31
0.0
  0
LINE
  5
5E
330
33
100
AcDbEntity
  8
1
  6
Continuous
 62
     3
100
AcDbLine
 10
-282.0173510652099
 20
-630.6193529016481
 30
0.0
 11
-281.4400007960203
 21
-629.6193529016481
 31
0.0
  0
LINE
  5
5F
330
33
100
AcDbEntity
  8
1
  6
Continuous
 62
     3
100
AcDbLine
 10
-272.5173510652099
 20
-596.6193529016481
 30
0.0
 11
-272.5173510652099
 21
-600.1193529016481
 31
0.0
  0
LINE
  5
60
330
33
100
AcDbEntity
  8
1
  6
Continuous
 62
     3
100
AcDbLine
 10
-232.5173510652099
 20
-600.1193529016481
 30
0.0
 11
-232.5173510652099
 21
-596.6193529016481
 31
0.0
  0
LINE
  5
61
330
33
100
AcDbEntity
  8
1
  6
Continuous
 62
     3
100
AcDbLine
 10
-235.5173510652099
 20
-601.1193529016481
 30
0.0
 11
-235.122685018774
 21
-601.1193529016481
 31
0.0
  0
LINE
  5
62
330
33
100
AcDbEntity
  8
1
  6
Continuous
 62
     3
100
AcDbLine
 10
-271.5173510652099
 20
-601.1193529016481
 30
0.0
 11
-269.5173510652099
 21
-601.1193529016481
 31
0.0
  0
LINE
  5
63
330
33
100
AcDbEntity
  8
1
  6
Continuous
 62
     3
100
AcDbLine
 10
-237.5173510652099
 20
-627.6193529016481
 30
0.0
 11
-236.5173510652099
 21
-627.6193529016481
 31
0.0
  0
LINE
  5
64
330
33
100
AcDbEntity
  8
1
  6
Continuous
 62
     3
100
AcDbLine
 10
-236.5173510652099
 20
-627.6193529016481
 30
0.0
 11
-236.5173510652099
 21
-660.6193529016481
 31
0.0
  0
LINE
  5
65
330
33
100
AcDbEntity
  8
1
  6
Continuous
 62
     3
100
AcDbLine
 10
-282.0173510652099
 20
-630.6193529016481
 30
0.0
 11
-282.0173510652099
 21
-657.6193529016481
 31
0.0
  0
LINE
  5
66
330
33
100
AcDbEntity
  8
1
  6
Continuous
 62
     3
100
AcDbLine
 10
-280.1506450903125
 20
-651.6193529016481
 30
0.0
 11
-267.8840570401073
 21
-651.6193529016481
 31
0.0
  0
LINE
  5
67
330
33
100
AcDbEntity
  8
1
  6
Continuous
 62
     3
100
AcDbLine
 10
-280.1506450903125
 20
-636.6193529016481
 30
0.0
 11
-267.8840570401073
 21
-636.6193529016481
 31
0.0
  0
LINE
  5
68
330
33
100
AcDbEntity
  8
1
  6
Continuous
 62
     3
100
AcDbLine
 10
-250.9417302063011
 20
-627.1150648977838
 30
0.0
 11
-242.9417302063011
 21
-627.1150648977838
 31
0.0
  0
LINE
  5
69
330
33
100
AcDbEntity
  8
1
  6
Continuous
 62
     3
100
AcDbLine
 10
-262.4008536008473
 20
-628.1990360297008
 30
0.0
 11
-253.4008536008473
 21
-627.1990360297008
 31
0.0
  0
LINE
  5
6A
330
33
100
AcDbEntity
  8
1
  6
Continuous
 62
     3
100
AcDbLine
 10
-262.5136564861397
 20
-643.1193529016481
 30
0.0
 11
-262.5136564861397
 21
-645.1193529016481
 31
0.0
  0
LINE
  5
6B
330
33
100
AcDbEntity
  8
1
  6
Continuous
 62
     3
100
AcDbLine
 10
-262.5136564861397
 20
-645.1193529016481
 30
0.0
 11
-257.5136564861397
 21
-645.1193529016481
 31
0.0
  0
LINE
  5
6C
330
33
100
AcDbEntity
  8
1
  6
Continuous
 62
     3
100
AcDbLine
 10
-257.5136564861397
 20
-643.1193529016481
 30
0.0
 11
-262.5136564861397
 21
-643.1193529016481
 31
0.0
  0
LINE
  5
6D
330
33
100
AcDbEntity
  8
1
  6
Continuous
 62
     3
100
AcDbLine
 10
-241.6909186253581
 20
-644.1193529016481
 30
0.0
 11
-246.0210456442802
 21
-646.6193529016481
 31
0.0
  0
LINE
  5
6E
330
33
100
AcDbEntity
  8
1
  6
Continuous
 62
     3
100
AcDbLine
 10
-246.0210456442802
 20
-641.6193529016481
 30
0.0
 11
-241.6909186253581
 21
-644.1193529016481
 31
0.0
  0
LINE
  5
6F
330
33
100
AcDbEntity
  8
1
  6
Continuous
 62
     3
100
AcDbLine
 10
-251.3522271930908
 20
-642.1182740413755
 30
0.0
 11
-251.3522271930908
 21
-640.1193529016481
 31
0.0
  0
LINE
  5
70
330
33
100
AcDbEntity
  8
1
  6
Continuous
 62
     3
100
AcDbLine
 10
-253.7744170826317
 20
-644.1193529016481
 30
0.0
 11
-257.5136564861397
 21
-648.1193529016481
 31
0.0
  0
LINE
  5
71
330
33
100
AcDbEntity
  8
1
  6
Continuous
 62
     3
100
AcDbLine
 10
-257.5136564861397
 20
-648.1193529016481
 30
0.0
 11
-253.7744170826317
 21
-648.1193529016481
 31
0.0
  0
LINE
  5
72
330
33
100
AcDbEntity
  8
1
  6
Continuous
 62
     3
100
AcDbLine
 10
-251.3522271930908
 20
-640.1193529016481
 30
0.0
 11
-247.5210456442802
 21
-640.1193529016481
 31
0.0
  0
LINE
  5
73
330
33
100
AcDbEntity
  8
1
  6
Continuous
 62
     3
100
AcDbLine
 10
-247.5210456442802
 20
-640.1193529016481
 30
0.0
 11
-253.7744170826317
 21
-648.1193529016481
 31
0.0
  0
LINE
  5
74
330
33
100
AcDbEntity
  8
1
  6
Continuous
 62
     3
100
AcDbLine
 10
-253.7744170826317
 20
-640.1193529016481
 30
0.0
 11
-253.7744170826317
 21
-643.9047808283868
 31
0.0
  0
LINE
  5
75
330
33
100
AcDbEntity
  8
1
  6
Continuous
 62
     3
100
AcDbLine
 10
-253.7744170826317
 20
-643.9047808283868
 30
0.0
 11
-257.5136564861397
 21
-640.1193529016481
 31
0.0
  0
LINE
  5
76
330
33
100
AcDbEntity
  8
1
  6
Continuous
 62
     3
100
AcDbLine
 10
-253.7744170826317
 20
-644.1193529016481
 30
0.0
 11
-253.3533060533634
 21
-644.1193529016481
 31
0.0
  0
LINE
  5
77
330
33
100
AcDbEntity
  8
1
  6
Continuous
 62
     3
100
AcDbLine
 10
-247.5210456442802
 20
-643.1193529016481
 30
0.0
 11
-246.0210456442802
 21
-643.1193529016481
 31
0.0
  0
LINE
  5
78
330
33
100
AcDbEntity
  8
1
  6
Continuous
 62
     3
100
AcDbLine
 10
-246.0210456442802
 20
-643.1193529016481
 30
0.0
 11
-246.0210456442802
 21
-641.6193529016481
 31
0.0
  0
LINE
  5
79
330
33
100
AcDbEntity
  8
1
  6
Continuous
 62
     3
100
AcDbLine
 10
-246.0210456442802
 20
-646.6193529016481
 30
0.0
 11
-246.0210456442802
 21
-645.1193529016481
 31
0.0
  0
LINE
  5
7A
330
33
100
AcDbEntity
  8
1
  6
Continuous
 62
     3
100
AcDbLine
 10
-246.0210456442802
 20
-645.1193529016481
 30
0.0
 11
-247.5210456442802
 21
-645.1193529016481
 31
0.0
  0
LINE
  5
7B
330
33
100
AcDbEntity
  8
1
  6
Continuous
 62
     3
100
AcDbLine
 10
-247.5210456442802
 20
-645.1193529016481
 30
0.0
 11
-247.5210456442802
 21
-643.1193529016481
 31
0.0
  0
LINE
  5
7C
330
33
100
AcDbEntity
  8
1
  6
Continuous
 62
     3
100
AcDbLine
 10
-257.5136564861397
 20
-645.1193529016481
 30
0.0
 11
-257.5136564861397
 21
-643.1193529016481
 31
0.0
  0
LINE
  5
7D
330
33
100
AcDbEntity
  8
1
  6
Continuous
 62
     3
100
AcDbLine
 10
-257.5136564861397
 20
-640.1193529016481
 30
0.0
 11
-253.7744170826317
 21
-640.1193529016481
 31
0.0
  0
LINE
  5
7E
330
33
100
AcDbEntity
  8
1
  6
Continuous
 62
     3
100
AcDbLine
 10
-266.0173510652099
 20
-644.1193529016481
 30
0.0
 11
-266.0173510652099
 21
-630.6193529016481
 31
0.0
  0
LINE
  5
7F
330
33
100
AcDbEntity
  8
1
  6
Continuous
 62
     3
100
AcDbLine
 10
-267.7494018727789
 20
-629.6193529016481
 30
0.0
 11
-266.0173510652099
 21
-630.6193529016481
 31
0.0
  0
LINE
  5
80
330
33
100
AcDbEntity
  8
1
  6
Continuous
 62
     3
100
AcDbLine
 10
-266.0173510652099
 20
-657.0760592376279
 30
0.0
 11
-266.0173510652099
 21
-644.1193529016481
 31
0.0
  0
LINE
  5
81
330
33
100
AcDbEntity
  8
1
  6
Continuous
 62
     3
100
AcDbLine
 10
-240.0173510652099
 20
-610.5558445747518
 30
0.0
 11
-265.0173510652099
 21
-610.5558445747518
 31
0.0
  0
LINE
  5
82
330
33
100
AcDbEntity
  8
1
  6
Continuous
 62
     3
100
AcDbLine
 10
-269.5173510652099
 20
-601.1193529016481
 30
0.0
 11
-235.122685018774
 21
-601.1193529016481
 31
0.0
  0
LINE
  5
83
330
33
100
AcDbEntity
  8
1
  6
Continuous
 62
     3
100
AcDbLine
 10
-235.122685018774
 20
-601.1193529016481
 30
0.0
 11
-233.5173510652099
 21
-601.1193529016481
 31
0.0
  0
LINE
  5
84
330
33
100
AcDbEntity
  8
1
  6
Continuous
 62
     3
100
AcDbLine
 10
-104.51735106521
 20
-600.6845466930641
 30
0.0
 11
-102.9120171116459
 21
-600.6845466930641
 31
0.0
  0
LINE
  5
85
330
33
100
AcDbEntity
  8
1
  6
Continuous
 62
     3
100
AcDbLine
 10
-102.9120171116459
 20
-600.6845466930641
 30
0.0
 11
-68.51735106520997
 21
-600.6845466930641
 31
0.0
  0
LINE
  5
86
330
33
100
AcDbEntity
  8
1
  6
Continuous
 62
     3
100
AcDbLine
 10
-73.01735106520997
 20
-610.1210383661678
 30
0.0
 11
-98.01735106520997
 21
-610.1210383661678
 31
0.0
  0
LINE
  5
87
330
33
100
AcDbEntity
  8
1
  6
Continuous
 62
     3
100
AcDbLine
 10
-72.01735106520997
 20
-630.1845466930641
 30
0.0
 11
-70.28530025764101
 21
-629.1845466930641
 31
0.0
  0
LINE
  5
88
330
33
100
AcDbEntity
  8
1
  6
Continuous
 62
     3
100
AcDbLine
 10
-84.63384852957265
 20
-626.7642298211168
 30
0.0
 11
-75.63384852957265
 21
-627.7642298211168
 31
0.0
  0
LINE
  5
89
330
33
100
AcDbEntity
  8
1
  6
Continuous
 62
     3
100
AcDbLine
 10
-95.09297192411884
 20
-626.6802586891998
 30
0.0
 11
-87.09297192411884
 21
-626.6802586891998
 31
0.0
  0
LINE
  5
8A
330
33
100
AcDbEntity
  8
1
  6
Continuous
 62
     3
100
AcDbLine
 10
-70.15064509031257
 20
-636.1845466930641
 30
0.0
 11
-57.88405704010737
 21
-636.1845466930641
 31
0.0
  0
LINE
  5
8B
330
33
100
AcDbEntity
  8
1
  6
Continuous
 62
     3
100
AcDbLine
 10
-70.15064509031257
 20
-651.1845466930641
 30
0.0
 11
-57.88405704010737
 21
-651.1845466930641
 31
0.0
  0
LINE
  5
8C
330
33
100
AcDbEntity
  8
1
  6
Continuous
 62
     3
100
AcDbLine
 10
-56.01735106520997
 20
-657.1845466930641
 30
0.0
 11
-56.01735106520997
 21
-630.1845466930641
 31
0.0
  0
LINE
  5
8D
330
33
100
AcDbEntity
  8
1
  6
Continuous
 62
     3
100
AcDbLine
 10
-101.51735106521
 20
-660.1845466930641
 30
0.0
 11
-101.51735106521
 21
-627.1845466930641
 31
0.0
  0
LINE
  5
8E
330
33
100
AcDbEntity
  8
1
  6
Continuous
 62
     3
100
AcDbLine
 10
-101.51735106521
 20
-627.1845466930641
 30
0.0
 11
-100.51735106521
 21
-627.1845466930641
 31
0.0
  0
LINE
  5
8F
330
33
100
AcDbEntity
  8
1
  6
Continuous
 62
     3
100
AcDbLine
 10
-68.51735106520997
 20
-600.6845466930641
 30
0.0
 11
-66.51735106520997
 21
-600.6845466930641
 31
0.0
  0
LINE
  5
90
330
33
100
AcDbEntity
  8
1
  6
Continuous
 62
     3
100
AcDbLine
 10
-102.9120171116459
 20
-600.6845466930641
 30
0.0
 11
-102.51735106521
 21
-600.6845466930641
 31
0.0
  0
LINE
  5
91
330
33
100
AcDbEntity
  8
1
  6
Continuous
 62
     3
100
AcDbLine
 10
-105.51735106521
 20
-596.1845466930641
 30
0.0
 11
-105.51735106521
 21
-599.6845466930641
 31
0.0
  0
LINE
  5
92
330
33
100
AcDbEntity
  8
1
  6
Continuous
 62
     3
100
AcDbLine
 10
-65.51735106520997
 20
-599.6845466930641
 30
0.0
 11
-65.51735106520997
 21
-596.1845466930641
 31
0.0
  0
LINE
  5
93
330
33
100
AcDbEntity
  8
1
  6
Continuous
 62
     3
100
AcDbLine
 10
-56.59470133439956
 20
-629.1845466930641
 30
0.0
 11
-56.01735106520997
 21
-630.1845466930641
 31
0.0
  0
LINE
  5
94
330
33
100
AcDbEntity
  8
1
  6
Continuous
 62
     3
100
AcDbLine
 10
-56.59470133439956
 20
-658.1845466930641
 30
0.0
 11
-56.01735106520997
 21
-657.1845466930641
 31
0.0
  0
LINE
  5
95
330
33
100
AcDbEntity
  8
1
  6
Continuous
 62
     3
100
AcDbLine
 10
-69.51735106520997
 20
-629.1845466930641
 30
0.0
 11
-56.59470133439956
 21
-629.1845466930641
 31
0.0
  0
LINE
  5
96
330
33
100
AcDbEntity
  8
1
  6
Continuous
 62
     3
100
AcDbLine
 10
-69.28530025764107
 20
-658.1845466930641
 30
0.0
 11
-56.59470133439956
 21
-658.1845466930641
 31
0.0
  0
LINE
  5
97
330
33
100
AcDbEntity
  8
1
  6
Continuous
 62
     3
100
AcDbLine
 10
-71.53297477685342
 20
-656.8868512043462
 30
0.0
 11
-69.28530025764107
 21
-658.1845466930641
 31
0.0
  0
LINE
  5
98
330
33
100
AcDbEntity
  8
1
  6
Continuous
 62
     3
100
AcDbLine
 10
-97.51735106520997
 20
-659.1845466930641
 30
0.0
 11
-85.51735106520997
 21
-659.1845466930641
 31
0.0
  0
LINE
  5
99
330
33
100
AcDbEntity
  8
1
  6
Continuous
 62
     3
100
AcDbLine
 10
-98.01735106520997
 20
-660.1845466930641
 30
0.0
 11
-97.51735106520997
 21
-659.1845466930641
 31
0.0
  0
LINE
  5
9A
330
33
100
AcDbEntity
  8
1
  6
Continuous
 62
     3
100
AcDbLine
 10
-101.51735106521
 20
-660.1845466930641
 30
0.0
 11
-98.01735106520997
 21
-660.1845466930641
 31
0.0
  0
LINE
  5
9B
330
33
100
AcDbEntity
  8
1
  6
DOT_CENTER
 62
     1
100
AcDbLine
 10
-85.51735106520997
 20
-661.1845466930641
 30
0.0
 11
-85.51735106520997
 21
-594.184546693064
 31
0.0
  0
LINE
  5
9C
330
33
100
AcDbEntity
  8
1
  6
DOT_CENTER
 62
     1
100
AcDbLine
 10
-105.1486304658759
 20
-643.6845466930641
 30
0.0
 11
-52.01735106520997
 21
-643.6845466930641
 31
0.0
  0
LINE
  5
9D
330
33
100
AcDbEntity
  8
1
  6
Continuous
 62
     3
100
AcDbLine
 10
-96.51735106520997
 20
-612.0575300392715
 30
0.0
 11
-96.51735106520997
 21
-623.1845466930641
 31
0.0
  0
LINE
  5
9E
330
33
100
AcDbEntity
  8
1
  6
Continuous
 62
     3
100
AcDbLine
 10
-74.51735106520997
 20
-624.1845466930641
 30
0.0
 11
-74.51735106520997
 21
-612.0575300392715
 31
0.0
  0
LINE
  5
9F
330
33
100
AcDbEntity
  8
1
  6
Continuous
 62
     3
100
AcDbLine
 10
-73.31735106520992
 20
-596.1845466930641
 30
0.0
 11
-65.51735106520997
 21
-596.1845466930641
 31
0.0
  0
LINE
  5
A0
330
33
100
AcDbEntity
  8
1
  6
Continuous
 62
     3
100
AcDbLine
 10
-98.51735106520997
 20
-596.1845466930641
 30
0.0
 11
-105.51735106521
 21
-596.1845466930641
 31
0.0
  0
LINE
  5
A1
330
33
100
AcDbEntity
  8
1
  6
Continuous
 62
     3
100
AcDbLine
 10
-98.51735106520997
 20
-596.1845466930641
 30
0.0
 11
-73.31735106520992
 21
-596.1845466930641
 31
0.0
  0
LINE
  5
A2
330
33
100
AcDbEntity
  8
1
  6
Continuous
 62
     3
100
AcDbLine
 10
-107.5173510652099
 20
-596.1845466930641
 30
0.0
 11
-107.5173510652099
 21
-598.6845466930641
 31
0.0
  0
LINE
  5
A3
330
33
100
AcDbEntity
  8
1
  6
Continuous
 62
     3
100
AcDbLine
 10
-105.51735106521
 20
-596.1845466930641
 30
0.0
 11
-107.5173510652099
 21
-596.1845466930641
 31
0.0
  0
LINE
  5
A4
330
33
100
AcDbEntity
  8
1
  6
Continuous
 62
     3
100
AcDbLine
 10
-105.5173510652099
 20
-600.6845466930641
 30
0.0
 11
-104.51735106521
 21
-600.6845466930641
 31
0.0
  0
LINE
  5
A5
330
33
100
AcDbEntity
  8
1
  6
Continuous
 62
     3
100
AcDbLine
 10
-99.51735106520997
 20
-603.6845466930641
 30
0.0
 11
-99.51735106520997
 21
-608.1845466930641
 31
0.0
  0
LINE
  5
A6
330
33
100
AcDbEntity
  8
1
  6
Continuous
 62
     3
100
AcDbLine
 10
-71.51735106520997
 20
-608.1845466930641
 30
0.0
 11
-71.51735106520997
 21
-603.6845466930641
 31
0.0
  0
LINE
  5
A7
330
33
100
AcDbEntity
  8
1
  6
Continuous
 62
     3
100
AcDbLine
 10
-97.51735106520997
 20
-628.6845466930641
 30
0.0
 11
-97.51735106520997
 21
-640.1845466930641
 31
0.0
  0
LINE
  5
A8
330
33
100
AcDbEntity
  8
1
  6
Continuous
 62
     3
100
AcDbLine
 10
-98.01735106520997
 20
-628.6845466930641
 30
0.0
 11
-98.01735106520997
 21
-640.1845466930641
 31
0.0
  0
LINE
  5
A9
330
33
100
AcDbEntity
  8
1
  6
Continuous
 62
     3
100
AcDbLine
 10
-98.01735106520997
 20
-640.1845466930641
 30
0.0
 11
-72.01735106520997
 21
-640.1845466930641
 31
0.0
  0
LINE
  5
AA
330
33
100
AcDbEntity
  8
1
  6
Continuous
 62
     3
100
AcDbLine
 10
-71.629846061206
 20
-647.1845466930641
 30
0.0
 11
-72.01735106520997
 21
-647.1845466930641
 31
0.0
  0
LINE
  5
AB
330
33
100
AcDbEntity
  8
1
  6
Continuous
 62
     3
100
AcDbLine
 10
-97.51735106520997
 20
-647.1845466930641
 30
0.0
 11
-97.51735106520991
 21
-658.1845466930641
 31
0.0
  0
LINE
  5
AC
330
33
100
AcDbEntity
  8
1
  6
Continuous
 62
     3
100
AcDbLine
 10
-98.01735106520997
 20
-647.1845466930641
 30
0.0
 11
-98.01735106520991
 21
-658.6845466930641
 31
0.0
  0
LINE
  5
AD
330
33
100
AcDbEntity
  8
1
  6
Continuous
 62
     3
100
AcDbLine
 10
-72.01735106520997
 20
-640.1845466930641
 30
0.0
 11
-71.629846061206
 21
-640.1845466930641
 31
0.0
  0
LINE
  5
AE
330
33
100
AcDbEntity
  8
1
  6
Continuous
 62
     3
100
AcDbLine
 10
-72.01735106520997
 20
-647.1845466930641
 30
0.0
 11
-98.01735106520997
 21
-647.1845466930641
 31
0.0
  0
LINE
  5
AF
330
33
100
AcDbEntity
  8
1
  6
Continuous
 62
     3
100
AcDbLine
 10
-72.01735106520997
 20
-630.1845466930641
 30
0.0
 11
-72.01735106520997
 21
-640.1845466930641
 31
0.0
  0
LINE
  5
B0
330
33
100
AcDbEntity
  8
1
  6
Continuous
 62
     3
100
AcDbLine
 10
-72.01735106520997
 20
-647.1845466930641
 30
0.0
 11
-72.01735106520997
 21
-656.6412530290439
 31
0.0
  0
LINE
  5
B1
330
33
100
AcDbEntity
  8
1
  6
Continuous
 62
     3
100
AcDbLine
 10
-312.0173510652099
 20
-596.6193529016481
 30
0.0
 11
-332.0173510652099
 21
-596.6193529016481
 31
0.0
  0
LINE
  5
B2
330
33
100
AcDbEntity
  8
1
  6
Continuous
 62
     3
100
AcDbLine
 10
-352.0173510652099
 20
-596.6193529016481
 30
0.0
 11
-352.0173510652099
 21
-600.1193529016481
 31
0.0
  0
LINE
  5
B3
330
33
100
AcDbEntity
  8
1
  6
Continuous
 62
     3
100
AcDbLine
 10
-351.0173510652099
 20
-601.1193529016481
 30
0.0
 11
-349.0173510652099
 21
-601.1193529016481
 31
0.0
  0
LINE
  5
B4
330
33
100
AcDbEntity
  8
1
  6
Continuous
 62
     3
100
AcDbLine
 10
-315.0173510652099
 20
-601.1193529016481
 30
0.0
 11
-313.0173510652099
 21
-601.1193529016481
 31
0.0
  0
LINE
  5
B5
330
33
100
AcDbEntity
  8
1
  6
Continuous
 62
     3
100
AcDbLine
 10
-312.0173510652099
 20
-600.1193529016481
 30
0.0
 11
-312.0173510652099
 21
-596.6193529016481
 31
0.0
  0
LINE
  5
B6
330
33
100
AcDbEntity
  8
1
  6
Continuous
 62
     3
100
AcDbLine
 10
-343.0173510652099
 20
-612.4923362478556
 30
0.0
 11
-343.01735106521
 21
-631.3033472836719
 31
0.0
  0
LINE
  5
B7
330
33
100
AcDbEntity
  8
1
  6
Continuous
 62
     3
100
AcDbLine
 10
-352.0173510652099
 20
-596.6193529016481
 30
0.0
 11
-332.0173510652099
 21
-596.6193529016481
 31
0.0
  0
LINE
  5
B8
330
33
100
AcDbEntity
  8
1
  6
Continuous
 62
     3
100
AcDbLine
 10
-349.0173510652099
 20
-601.1193529016481
 30
0.0
 11
-315.0173510652099
 21
-601.1193529016481
 31
0.0
  0
LINE
  5
B9
330
33
100
AcDbEntity
  8
1
  6
Continuous
 62
     3
100
AcDbLine
 10
-318.0173510652099
 20
-608.6193529016481
 30
0.0
 11
-318.0173510652099
 21
-604.1193529016481
 31
0.0
  0
LINE
  5
BA
330
33
100
AcDbEntity
  8
1
  6
Continuous
 62
     3
100
AcDbLine
 10
-346.0173510652099
 20
-604.1193529016481
 30
0.0
 11
-346.0173510652099
 21
-608.6193529016481
 31
0.0
  0
LINE
  5
BB
330
33
100
AcDbEntity
  8
1
  6
Continuous
 62
     3
100
AcDbLine
 10
-344.5173510652099
 20
-610.5558445747519
 30
0.0
 11
-319.5173510652099
 21
-610.5558445747519
 31
0.0
  0
LINE
  5
BC
330
33
100
AcDbEntity
  8
1
  6
Continuous
 62
     3
100
AcDbLine
 10
-345.5173510652096
 20
-649.4108555237776
 30
0.0
 11
-345.5173510652099
 21
-638.8278502795188
 31
0.0
  0
LINE
  5
BD
330
33
100
AcDbEntity
  8
1
  6
DOT_CENTER
 62
     1
100
AcDbLine
 10
-332.0173510652099
 20
-594.619352901648
 30
0.0
 11
-332.0173510652099
 21
-662.1193529016481
 31
0.0
  0
LINE
  5
BE
330
33
100
AcDbEntity
  8
1
  6
Continuous
 62
     3
100
AcDbLine
 10
-329.8499267601654
 20
-629.7822586394934
 30
0.0
 11
-320.6847753702545
 21
-635.0737612616222
 31
0.0
  0
LINE
  5
BF
330
33
100
AcDbEntity
  8
1
  6
Continuous
 62
     3
100
AcDbLine
 10
-343.3499267601655
 20
-635.0737612616222
 30
0.0
 11
-334.1847753702547
 21
-629.7822586394935
 31
0.0
  0
LINE
  5
C0
330
33
100
AcDbEntity
  8
1
  6
Continuous
 62
     3
100
AcDbLine
 10
-334.1847753702537
 20
-658.4564471638025
 30
0.0
 11
-343.3499267601657
 21
-653.1649445416732
 31
0.0
  0
LINE
  5
C1
330
33
100
AcDbEntity
  8
1
  6
Continuous
 62
     3
100
AcDbLine
 10
-320.6847753702537
 20
-653.1649445416729
 30
0.0
 11
-329.8499267601659
 21
-658.4564471638024
 31
0.0
  0
LINE
  5
C2
330
33
100
AcDbEntity
  8
1
  6
Continuous
 62
     3
100
AcDbLine
 10
-318.5173510652099
 20
-638.8278502795189
 30
0.0
 11
-318.5173510652099
 21
-644.1193529016481
 31
0.0
  0
LINE
  5
C3
330
33
100
AcDbEntity
  8
1
  6
Continuous
 62
     3
100
AcDbLine
 10
-318.5173510652099
 20
-644.1193529016481
 30
0.0
 11
-318.5173510652099
 21
-649.4108555237771
 31
0.0
  0
LINE
  5
C4
330
33
100
AcDbEntity
  8
1
  6
DOT_CENTER
 62
     1
100
AcDbLine
 10
-314.0173510652099
 20
-644.1193529016481
 30
0.0
 11
-350.0173510652099
 21
-644.1193529016481
 31
0.0
  0
LINE
  5
C5
330
33
100
AcDbEntity
  8
1
  6
Continuous
 62
     3
100
AcDbLine
 10
-321.0173510652101
 20
-631.3033472836715
 30
0.0
 11
-321.0173510652099
 21
-612.4923362478556
 31
0.0
  0
LINE
  5
C6
330
33
100
AcDbEntity
  8
1
  6
Continuous
 62
     3
100
AcDbLine
 10
-181.5173510652099
 20
-610.5558445747519
 30
0.0
 11
-156.5173510652099
 21
-610.5558445747519
 31
0.0
  0
LINE
  5
C7
330
33
100
AcDbEntity
  8
1
  6
Continuous
 62
     3
100
AcDbLine
 10
-183.0173510652099
 20
-604.1193529016481
 30
0.0
 11
-183.0173510652099
 21
-608.6193529016481
 31
0.0
  0
LINE
  5
C8
330
33
100
AcDbEntity
  8
1
  6
Continuous
 62
     3
100
AcDbLine
 10
-155.0173510652099
 20
-608.6193529016481
 30
0.0
 11
-155.0173510652099
 21
-604.1193529016481
 31
0.0
  0
LINE
  5
C9
330
33
100
AcDbEntity
  8
1
  6
Continuous
 62
     3
100
AcDbLine
 10
-186.0173510652099
 20
-601.1193529016481
 30
0.0
 11
-171.0173510652099
 21
-601.1193529016481
 31
0.0
  0
LINE
  5
CA
330
33
100
AcDbEntity
  8
1
  6
Continuous
 62
     3
100
AcDbLine
 10
-189.0173510652099
 20
-596.6193529016481
 30
0.0
 11
-171.0173510652099
 21
-596.6193529016481
 31
0.0
  0
LINE
  5
CB
330
33
100
AcDbEntity
  8
1
  6
Continuous
 62
     3
100
AcDbLine
 10
-149.0173510652099
 20
-600.1193529016481
 30
0.0
 11
-149.0173510652099
 21
-596.6193529016481
 31
0.0
  0
LINE
  5
CC
330
33
100
AcDbEntity
  8
1
  6
Continuous
 62
     3
100
AcDbLine
 10
-152.0173510652099
 20
-601.1193529016481
 30
0.0
 11
-150.0173510652099
 21
-601.1193529016481
 31
0.0
  0
LINE
  5
CD
330
33
100
AcDbEntity
  8
1
  6
Continuous
 62
     3
100
AcDbLine
 10
-188.0173510652099
 20
-601.1193529016481
 30
0.0
 11
-186.0173510652099
 21
-601.1193529016481
 31
0.0
  0
LINE
  5
CE
330
33
100
AcDbEntity
  8
1
  6
Continuous
 62
     3
100
AcDbLine
 10
-189.0173510652099
 20
-596.6193529016481
 30
0.0
 11
-189.0173510652099
 21
-600.1193529016481
 31
0.0
  0
LINE
  5
CF
330
33
100
AcDbEntity
  8
1
  6
Continuous
 62
     3
100
AcDbLine
 10
-149.0173510652099
 20
-596.6193529016481
 30
0.0
 11
-167.0173510652099
 21
-596.6193529016481
 31
0.0
  0
LINE
  5
D0
330
33
100
AcDbEntity
  8
1
  6
Continuous
 62
     3
100
AcDbLine
 10
-180.0173510652099
 20
-612.4923362478556
 30
0.0
 11
-180.01735106521
 21
-629.7579462853031
 31
0.0
  0
LINE
  5
D1
330
33
100
AcDbEntity
  8
1
  6
DOT_CENTER
 62
     1
100
AcDbLine
 10
-169.0173510652099
 20
-594.619352901648
 30
0.0
 11
-169.0173510652099
 21
-662.1193529016481
 31
0.0
  0
LINE
  5
D2
330
33
100
AcDbEntity
  8
1
  6
Continuous
 62
     3
100
AcDbLine
 10
-158.0173510652101
 20
-629.7579462853029
 30
0.0
 11
-158.0173510652099
 21
-612.4923362478556
 31
0.0
  0
LINE
  5
D3
330
33
100
AcDbEntity
  8
1
  6
Continuous
 62
     3
100
AcDbLine
 10
-232.51735106521
 20
-528.1470067574852
 30
0.0
 11
-232.51735106521
 21
-539.318579632739
 31
0.0
  0
LINE
  5
D4
330
33
100
AcDbEntity
  8
1
  6
DOT_CENTER
 62
     1
100
AcDbLine
 10
-252.5173510652099
 20
-502.318579632739
 30
0.0
 11
-252.5173510652099
 21
-548.318579632739
 31
0.0
  0
LINE
  5
D5
330
33
100
AcDbEntity
  8
1
  6
Continuous
 62
     3
100
AcDbLine
 10
-272.5173510652099
 20
-539.318579632739
 30
0.0
 11
-272.5173510652099
 21
-525.318579632739
 31
0.0
  0
LINE
  5
D6
330
33
100
AcDbEntity
  8
1
  6
Continuous
 62
     3
100
AcDbLine
 10
-232.51735106521
 20
-511.3185796327391
 30
0.0
 11
-232.51735106521
 21
-522.4901525079928
 31
0.0
  0
LINE
  5
D7
330
33
100
AcDbEntity
  8
1
  6
Continuous
 62
     3
100
AcDbLine
 10
-272.5173510652099
 20
-525.318579632739
 30
0.0
 11
-272.5173510652099
 21
-511.3185796327391
 31
0.0
  0
LINE
  5
D8
330
33
100
AcDbEntity
  8
1
  6
DOT_CENTER
 62
     1
100
AcDbLine
 10
-285.0173510652101
 20
-525.318579632739
 30
0.0
 11
-216.28477644134
 21
-525.318579632739
 31
0.0
  0
LINE
  5
D9
330
33
100
AcDbEntity
  8
1
  6
Continuous
 62
     3
100
AcDbLine
 10
-272.5173510652099
 20
-525.318579632739
 30
0.0
 11
-280.1506450903125
 21
-525.318579632739
 31
0.0
  0
LINE
  5
DA
330
33
100
AcDbEntity
  8
1
  6
Continuous
 62
     3
100
AcDbLine
 10
-171.0173510652099
 20
-596.6193529016481
 30
0.0
 11
-171.0173510652099
 21
-601.1193529016481
 31
0.0
  0
LINE
  5
DB
330
33
100
AcDbEntity
  8
1
  6
Continuous
 62
     3
100
AcDbLine
 10
-171.0173510652099
 20
-601.1193529016481
 30
0.0
 11
-167.0173510652099
 21
-601.1193529016481
 31
0.0
  0
LINE
  5
DC
330
33
100
AcDbEntity
  8
1
  6
Continuous
 62
     3
100
AcDbLine
 10
-171.0173510652099
 20
-596.6193529016481
 30
0.0
 11
-169.0173510652099
 21
-596.6193529016481
 31
0.0
  0
LINE
  5
DD
330
33
100
AcDbEntity
  8
1
  6
Continuous
 62
     3
100
AcDbLine
 10
-167.0173510652099
 20
-601.1193529016481
 30
0.0
 11
-167.0173510652099
 21
-596.6193529016481
 31
0.0
  0
LINE
  5
DE
330
33
100
AcDbEntity
  8
1
  6
Continuous
 62
     3
100
AcDbLine
 10
-167.0173510652099
 20
-596.6193529016481
 30
0.0
 11
-169.0173510652099
 21
-596.6193529016481
 31
0.0
  0
LINE
  5
DF
330
33
100
AcDbEntity
  8
1
  6
Continuous
 62
     3
100
AcDbLine
 10
-167.0173510652099
 20
-601.1193529016481
 30
0.0
 11
-152.0173510652099
 21
-601.1193529016481
 31
0.0
  0
ARC
  5
E0
330
33
100
AcDbEntity
  8
1
  6
Continuous
 62
     3
100
AcDbCircle
 10
-252.5173510652099
 20
-630.1193529016481
 30
0.0
 40
29.49999999999998
100
AcDbArc
 50
-101.5408004010328
 51
-90.0
  0
ARC
  5
E1
330
33
100
AcDbEntity
  8
1
  6
Continuous
 62
     3
100
AcDbCircle
 10
-264.0017273535665
 20
-661.6517844318523
 30
0.0
 40
4.999999999999913
100
AcDbArc
 50
48.83142459744474
 51
119.4553171519052
  0
ARC
  5
E2
330
33
100
AcDbEntity
  8
1
  6
Continuous
 62
     3
100
AcDbCircle
 10
-264.0017273535665
 20
-661.6517844318523
 30
0.0
 40
4.999999999999986
100
AcDbArc
 50
119.4553171519052
 51
119.9999999999999
  0
ARC
  5
E3
330
33
100
AcDbEntity
  8
1
  6
Continuous
 62
     3
100
AcDbCircle
 10
-270.6305959966641
 20
-655.3628303220852
 30
0.0
 40
4.642962355781561
100
AcDbArc
 50
-6.48600900008761
 51
53.73300481091506
  0
ARC
  5
E4
330
33
100
AcDbEntity
  8
1
  6
Continuous
 62
     3
100
AcDbCircle
 10
-282.0173510652099
 20
-644.1193529016481
 30
0.0
 40
16.00000000000003
100
AcDbArc
 50
-27.95318688338108
 51
0.0
  0
ARC
  5
E5
330
33
100
AcDbEntity
  8
1
  6
Continuous
 62
     3
100
AcDbCircle
 10
-277.4041061337559
 20
-655.3628303220852
 30
0.0
 40
4.642962355781648
100
AcDbArc
 50
126.2669951890827
 51
-173.5139909999124
  0
ARC
  5
E6
330
33
100
AcDbEntity
  8
1
  6
Continuous
 62
     3
100
AcDbCircle
 10
-266.0173510652099
 20
-644.1193529016481
 30
0.0
 40
16.00000000000003
100
AcDbArc
 50
152.0468131166189
 51
-152.0468131166189
  0
ARC
  5
E7
330
33
100
AcDbEntity
  8
1
  6
Continuous
 62
     3
100
AcDbCircle
 10
-282.0173510652099
 20
-644.1193529016481
 30
0.0
 40
16.0
100
AcDbArc
 50
0.0
 51
27.95318688338108
  0
ARC
  5
E8
330
33
100
AcDbEntity
  8
1
  6
Continuous
 62
     3
100
AcDbCircle
 10
-270.6305959966641
 20
-632.875875481211
 30
0.0
 40
4.642962355781783
100
AcDbArc
 50
-53.73300481091506
 51
6.48600900008761
  0
ARC
  5
E9
330
33
100
AcDbEntity
  8
1
  6
Continuous
 62
     3
100
AcDbCircle
 10
-277.4041061337559
 20
-632.875875481211
 30
0.0
 40
4.642962355781561
100
AcDbArc
 50
173.5139909999124
 51
-126.2669951890827
  0
ARC
  5
EA
330
33
100
AcDbEntity
  8
1
  6
Continuous
 62
     3
100
AcDbCircle
 10
-60.63059599666403
 20
-632.441069272627
 30
0.0
 40
4.642962355781678
100
AcDbArc
 50
-53.73300481091682
 51
6.48600900008754
  0
ARC
  5
EB
330
33
100
AcDbEntity
  8
1
  6
Continuous
 62
     3
100
AcDbCircle
 10
-67.40410613375585
 20
-632.441069272627
 30
0.0
 40
4.642962355781561
100
AcDbArc
 50
173.5139909999124
 51
-126.2669951890838
  0
ARC
  5
EC
330
33
100
AcDbEntity
  8
1
  6
Continuous
 62
     3
100
AcDbCircle
 10
-72.01735106520997
 20
-643.6845466930641
 30
0.0
 40
16.00000000000002
100
AcDbArc
 50
-27.95318688338109
 51
27.95318688338109
  0
ARC
  5
ED
330
33
100
AcDbEntity
  8
1
  6
Continuous
 62
     3
100
AcDbCircle
 10
-60.63059599666403
 20
-654.9280241135012
 30
0.0
 40
4.64296235578161
100
AcDbArc
 50
-6.48600900008754
 51
53.73300481091682
  0
ARC
  5
EE
330
33
100
AcDbEntity
  8
1
  6
Continuous
 62
     3
100
AcDbCircle
 10
-56.01735106520997
 20
-643.6845466930641
 30
0.0
 40
16.00000000000003
100
AcDbArc
 50
-167.3643749069789
 51
-152.0468131166189
  0
ARC
  5
EF
330
33
100
AcDbEntity
  8
1
  6
Continuous
 62
     3
100
AcDbCircle
 10
-67.40410613375585
 20
-654.9280241135012
 30
0.0
 40
4.642962355781715
100
AcDbArc
 50
126.2669951890838
 51
-173.5139909999124
  0
ARC
  5
F0
330
33
100
AcDbEntity
  8
1
  6
Continuous
 62
     3
100
AcDbCircle
 10
-74.03297477685337
 20
-661.2169782232684
 30
0.0
 40
4.999999999999988
100
AcDbArc
 50
60.00000000000067
 51
60.54468284809539
  0
ARC
  5
F1
330
33
100
AcDbEntity
  8
1
  6
Continuous
 62
     3
100
AcDbCircle
 10
-74.03297477685337
 20
-661.2169782232684
 30
0.0
 40
4.999999999999958
100
AcDbArc
 50
60.54468284809539
 51
131.1685754025553
  0
ARC
  5
F2
330
33
100
AcDbEntity
  8
1
  6
Continuous
 62
     3
100
AcDbCircle
 10
-85.51735106520997
 20
-629.6845466930641
 30
0.0
 40
29.5
100
AcDbArc
 50
-90.0
 51
-78.45919959896729
  0
ARC
  5
F3
330
33
100
AcDbEntity
  8
1
  6
Continuous
 62
     3
100
AcDbCircle
 10
-56.01735106520997
 20
-643.6845466930641
 30
0.0
 40
16.00000000000002
100
AcDbArc
 50
152.0468131166189
 51
167.3643749069789
  0
ARC
  5
F4
330
33
100
AcDbEntity
  8
1
  6
Continuous
 62
     3
100
AcDbCircle
 10
-332.0173510652099
 20
-644.1193529016481
 30
0.0
 40
14.5000000000002
100
AcDbArc
 50
81.40334963940539
 51
98.596650360596
  0
ARC
  5
F5
330
33
100
AcDbEntity
  8
1
  6
Continuous
 62
     3
100
AcDbCircle
 10
-332.0173510652099
 20
-644.1193529016481
 30
0.0
 40
14.50000000000019
100
AcDbArc
 50
141.4033496394043
 51
158.5966503605929
  0
ARC
  5
F6
330
33
100
AcDbEntity
  8
1
  6
Continuous
 62
     3
100
AcDbCircle
 10
-332.0173510652099
 20
-644.1193529016481
 30
0.0
 40
14.49999999999987
100
AcDbArc
 50
-158.5966503605916
 51
-141.4033496394073
  0
ARC
  5
F7
330
33
100
AcDbEntity
  8
1
  6
Continuous
 62
     3
100
AcDbCircle
 10
-332.0173510652099
 20
-644.1193529016481
 30
0.0
 40
14.49999999999987
100
AcDbArc
 50
-98.59665036059208
 51
-81.4033496394072
  0
ARC
  5
F8
330
33
100
AcDbEntity
  8
1
  6
Continuous
 62
     3
100
AcDbCircle
 10
-332.0173510652099
 20
-644.1193529016481
 30
0.0
 40
14.49999999999992
100
AcDbArc
 50
-38.59665036059082
 51
-21.40334963940589
  0
ARC
  5
F9
330
33
100
AcDbEntity
  8
1
  6
Continuous
 62
     3
100
AcDbCircle
 10
-332.0173510652099
 20
-644.1193529016481
 30
0.0
 40
14.50000000000001
100
AcDbArc
 50
21.40334963940673
 51
38.59665036059629
  0
ARC
  5
FA
330
33
100
AcDbEntity
  8
1
  6
Continuous
 62
     3
100
AcDbCircle
 10
-316.0173510652101
 20
-631.3033472836715
 30
0.0
 40
5.0
100
AcDbArc
 50
180.0
 51
-141.3052600781287
  0
ARC
  5
FB
330
33
100
AcDbEntity
  8
1
  6
Continuous
 62
     3
100
AcDbCircle
 10
-332.0173510652099
 20
-644.1193529016481
 30
0.0
 40
15.5
100
AcDbArc
 50
180.0
 51
38.69473992187226
  0
ARC
  5
FC
330
33
100
AcDbEntity
  8
1
  6
Continuous
 62
     3
100
AcDbCircle
 10
-332.0173510652099
 20
-644.1193529016481
 30
0.0
 40
15.5
100
AcDbArc
 50
141.3052600781294
 51
180.0
  0
ARC
  5
FD
330
33
100
AcDbEntity
  8
1
  6
Continuous
 62
     3
100
AcDbCircle
 10
-348.01735106521
 20
-631.3033472836719
 30
0.0
 40
5.000000000000027
100
AcDbArc
 50
-38.69473992187088
 51
0.0
  0
ARC
  5
FE
330
33
100
AcDbEntity
  8
1
  6
Continuous
 62
     3
100
AcDbCircle
 10
-332.0173510652099
 20
-644.1193529016481
 30
0.0
 40
15.5
100
AcDbArc
 50
38.69473992187226
 51
141.3052600781294
  0
ARC
  5
FF
330
33
100
AcDbEntity
  8
1
  6
Continuous
 62
     3
100
AcDbCircle
 10
-153.0173510652101
 20
-629.7579462853029
 30
0.0
 40
5.0
100
AcDbArc
 50
180.0
 51
-138.0892340506673
  0
ARC
  5
100
330
33
100
AcDbEntity
  8
1
  6
Continuous
 62
     3
100
AcDbCircle
 10
-185.01735106521
 20
-629.7579462853031
 30
0.0
 40
4.999999999999949
100
AcDbArc
 50
-41.9107659493317
 51
0.0
  0
ARC
  5
101
330
33
100
AcDbEntity
  8
1
  6
Continuous
 62
     3
100
AcDbCircle
 10
-232.51735106521
 20
-525.318579632739
 30
0.0
 40
1.999999999999985
100
AcDbArc
 50
-70.52877936550858
 51
70.52877936550858
  0
ARC
  5
102
330
33
100
AcDbEntity
  8
1
  6
Continuous
 62
     3
100
AcDbCircle
 10
-252.5173510652099
 20
-553.318579632739
 30
0.0
 40
13.99999999999991
100
AcDbArc
 50
50.30180115945469
 51
129.6981988405456
  0
ARC
  5
103
330
33
100
AcDbEntity
  8
1
  6
Continuous
 62
     3
100
AcDbCircle
 10
-252.5173510652099
 20
-497.3185796327391
 30
0.0
 40
14.00000000000003
100
AcDbArc
 50
-129.6981988405452
 51
-50.30180115945469
  0
ARC
  5
104
330
33
100
AcDbEntity
  8
1
  6
Continuous
 62
     3
100
AcDbCircle
 10
-277.4041061337559
 20
-521.5751022123019
 30
0.0
 40
4.642962355781561
100
AcDbArc
 50
173.5139909999124
 51
-126.2669951890827
  0
ARC
  5
105
330
33
100
AcDbEntity
  8
1
  6
Continuous
 62
     3
100
AcDbCircle
 10
-277.4041061337559
 20
-529.0620570531761
 30
0.0
 40
4.642962355781648
100
AcDbArc
 50
126.2669951890827
 51
-173.5139909999124
  0
CIRCLE
  5
106
330
33
100
AcDbEntity
  8
1
  6
Continuous
 62
     3
100
AcDbCircle
 10
-332.0173510652099
 20
-644.1193529016481
 30
0.0
 40
13.5
  0
CIRCLE
  5
107
330
33
100
AcDbEntity
  8
1
  6
Continuous
 62
     1
100
AcDbCircle
 10
-332.0173510652099
 20
-644.1193529016481
 30
0.0
 40
10.44999999999999
  0
CIRCLE
  5
108
330
33
100
AcDbEntity
  8
1
  6
Continuous
 62
     3
100
AcDbCircle
 10
-332.0173510652099
 20
-644.1193529016481
 30
0.0
 40
9.315499999999986
  0
CIRCLE
  5
109
330
33
100
AcDbEntity
  8
1
  6
Continuous
 62
     3
100
AcDbCircle
 10
-266.659486688941
 20
-539.4607152564699
 30
0.0
 40
2.5
  0
CIRCLE
  5
10A
330
33
100
AcDbEntity
  8
1
  6
Continuous
 62
     3
100
AcDbCircle
 10
-266.659486688941
 20
-511.176444009008
 30
0.0
 40
2.5
  0
CIRCLE
  5
10B
330
33
100
AcDbEntity
  8
1
  6
Continuous
 62
     3
100
AcDbCircle
 10
-238.375215441479
 20
-539.4607152564699
 30
0.0
 40
2.5
  0
CIRCLE
  5
10C
330
33
100
AcDbEntity
  8
1
  6
Continuous
 62
     3
100
AcDbCircle
 10
-238.375215441479
 20
-511.176444009008
 30
0.0
 40
2.5
  0
XLINE
  5
10D
330
33
100
AcDbEntity
  8
1
  6
DOT_CENTER
 62
     3
 60
     1
100
AcDbXline
 10
302.1757597891744
 20
-691.6582270640091
 30
0.0
 11
0.0
 21
1.0
 31
0.0
  0
ARC
  5
10E
330
33
100
AcDbEntity
  8
1
  6
Continuous
 62
     3
100
AcDbCircle
 10
-232.51735106521
 20
-599.1193529016481
 30
0.0
 40
2.0
100
AcDbArc
 50
-90.0
 51
0.0
  0
ARC
  5
10F
330
33
100
AcDbEntity
  8
1
  6
Continuous
 62
     3
100
AcDbCircle
 10
-268.5173510652099
 20
-624.6193529016481
 30
0.0
 40
5.0
100
AcDbArc
 50
-90.0
 51
0.0
  0
ARC
  5
110
330
33
100
AcDbEntity
  8
1
  6
Continuous
 62
     3
100
AcDbCircle
 10
-271.5173510652099
 20
-600.1193529016481
 30
0.0
 40
1.0
100
AcDbArc
 50
180.0
 51
-90.0
  0
ARC
  5
111
330
33
100
AcDbEntity
  8
1
  6
Continuous
 62
     3
100
AcDbCircle
 10
-233.5173510652099
 20
-600.1193529016481
 30
0.0
 40
1.0
100
AcDbArc
 50
-90.0
 51
0.0
  0
ARC
  5
112
330
33
100
AcDbEntity
  8
1
  6
Continuous
 62
     3
100
AcDbCircle
 10
-237.5173510652099
 20
-623.6193529016481
 30
0.0
 40
4.0
100
AcDbArc
 50
180.0
 51
-90.0
  0
ARC
  5
113
330
33
100
AcDbEntity
  8
1
  6
Continuous
 62
     3
100
AcDbCircle
 10
-269.5173510652099
 20
-604.1193529016481
 30
0.0
 40
3.0
100
AcDbArc
 50
0.0
 51
90.0
  0
ARC
  5
114
330
33
100
AcDbEntity
  8
1
  6
Continuous
 62
     3
100
AcDbCircle
 10
-264.5173510652099
 20
-608.6193529016481
 30
0.0
 40
2.0
100
AcDbArc
 50
180.0
 51
-104.4775121859303
  0
ARC
  5
115
330
33
100
AcDbEntity
  8
1
  6
Continuous
 62
     3
100
AcDbCircle
 10
-240.5173510652099
 20
-608.6193529016481
 30
0.0
 40
1.999999999999953
100
AcDbArc
 50
-75.52248781406973
 51
0.0
  0
ARC
  5
116
330
33
100
AcDbEntity
  8
1
  6
Continuous
 62
     3
100
AcDbCircle
 10
-239.5173510652099
 20
-612.4923362478554
 30
0.0
 40
1.999999999999953
100
AcDbArc
 50
104.4775121859303
 51
180.0
  0
ARC
  5
117
330
33
100
AcDbEntity
  8
1
  6
Continuous
 62
     3
100
AcDbCircle
 10
-265.5173510652099
 20
-612.4923362478554
 30
0.0
 40
2.0
100
AcDbArc
 50
0.0
 51
75.52248781406973
  0
ARC
  5
118
330
33
100
AcDbEntity
  8
1
  6
Continuous
 62
     3
100
AcDbCircle
 10
-257.4189604579399
 20
-654.1240238088091
 30
0.0
 40
4.999999999999998
100
AcDbArc
 50
-131.1685754025544
 51
-101.5408004010328
  0
ARC
  5
119
330
33
100
AcDbEntity
  8
1
  6
Continuous
 62
     3
100
AcDbCircle
 10
-253.3533060533634
 20
-642.1182740413755
 30
0.0
 40
2.001078860272628
100
AcDbArc
 50
-90.0
 51
0.0
  0
ARC
  5
11A
330
33
100
AcDbEntity
  8
1
  6
Continuous
 62
     3
100
AcDbCircle
 10
-235.5173510652099
 20
-604.1193529016481
 30
0.0
 40
3.0
100
AcDbArc
 50
90.0
 51
180.0
  0
ARC
  5
11B
330
33
100
AcDbEntity
  8
1
  6
Continuous
 62
     3
100
AcDbCircle
 10
-102.51735106521
 20
-603.6845466930641
 30
0.0
 40
3.000000000000028
100
AcDbArc
 50
0.0
 51
90.0
  0
ARC
  5
11C
330
33
100
AcDbEntity
  8
1
  6
Continuous
 62
     3
100
AcDbCircle
 10
-80.61574167248003
 20
-653.6892176002251
 30
0.0
 40
4.999999999999996
100
AcDbArc
 50
-78.45919959896719
 51
-48.83142459744511
  0
ARC
  5
11D
330
33
100
AcDbEntity
  8
1
  6
Continuous
 62
     3
100
AcDbCircle
 10
-72.51735106520997
 20
-612.0575300392715
 30
0.0
 40
1.999999999999953
100
AcDbArc
 50
104.4775121859303
 51
180.0
  0
ARC
  5
11E
330
33
100
AcDbEntity
  8
1
  6
Continuous
 62
     3
100
AcDbCircle
 10
-98.51735106520997
 20
-612.0575300392715
 30
0.0
 40
2.0
100
AcDbArc
 50
0.0
 51
75.52248781406973
  0
ARC
  5
11F
330
33
100
AcDbEntity
  8
1
  6
Continuous
 62
     3
100
AcDbCircle
 10
-97.51735106520997
 20
-608.1845466930641
 30
0.0
 40
2.0
100
AcDbArc
 50
180.0
 51
-104.4775121859303
  0
ARC
  5
120
330
33
100
AcDbEntity
  8
1
  6
Continuous
 62
     3
100
AcDbCircle
 10
-73.51735106520997
 20
-608.1845466930641
 30
0.0
 40
1.999999999999953
100
AcDbArc
 50
-75.52248781406973
 51
0.0
  0
ARC
  5
121
330
33
100
AcDbEntity
  8
1
  6
Continuous
 62
     3
100
AcDbCircle
 10
-68.51735106520997
 20
-603.6845466930641
 30
0.0
 40
3.0
100
AcDbArc
 50
90.0
 51
180.0
  0
ARC
  5
122
330
33
100
AcDbEntity
  8
1
  6
Continuous
 62
     3
100
AcDbCircle
 10
-100.51735106521
 20
-623.1845466930641
 30
0.0
 40
4.0
100
AcDbArc
 50
-90.0
 51
0.0
  0
ARC
  5
123
330
33
100
AcDbEntity
  8
1
  6
Continuous
 62
     3
100
AcDbCircle
 10
-104.51735106521
 20
-599.6845466930641
 30
0.0
 40
1.0
100
AcDbArc
 50
180.0
 51
-90.0
  0
ARC
  5
124
330
33
100
AcDbEntity
  8
1
  6
Continuous
 62
     3
100
AcDbCircle
 10
-66.51735106520997
 20
-599.6845466930641
 30
0.0
 40
1.0
100
AcDbArc
 50
-90.0
 51
0.0
  0
ARC
  5
125
330
33
100
AcDbEntity
  8
1
  6
Continuous
 62
     3
100
AcDbCircle
 10
-69.51735106520997
 20
-624.1845466930641
 30
0.0
 40
5.0
100
AcDbArc
 50
180.0
 51
-90.0
  0
ARC
  5
126
330
33
100
AcDbEntity
  8
1
  6
Continuous
 62
     3
100
AcDbCircle
 10
-105.5173510652099
 20
-598.6845466930641
 30
0.0
 40
2.0
100
AcDbArc
 50
180.0
 51
-90.0
  0
ARC
  5
127
330
33
100
AcDbEntity
  8
1
  6
Continuous
 62
     3
100
AcDbCircle
 10
-351.0173510652099
 20
-600.1193529016481
 30
0.0
 40
1.0
100
AcDbArc
 50
180.0
 51
-90.0
  0
ARC
  5
128
330
33
100
AcDbEntity
  8
1
  6
Continuous
 62
     3
100
AcDbCircle
 10
-313.0173510652099
 20
-600.1193529016481
 30
0.0
 40
1.0
100
AcDbArc
 50
-90.0
 51
0.0
  0
ARC
  5
129
330
33
100
AcDbEntity
  8
1
  6
Continuous
 62
     3
100
AcDbCircle
 10
-319.0173510652099
 20
-612.4923362478556
 30
0.0
 40
2.000000000000063
100
AcDbArc
 50
104.4775121859295
 51
180.0
  0
ARC
  5
12A
330
33
100
AcDbEntity
  8
1
  6
Continuous
 62
     3
100
AcDbCircle
 10
-320.0173510652099
 20
-608.6193529016481
 30
0.0
 40
2.000000000000063
100
AcDbArc
 50
-75.52248781407054
 51
0.0
  0
ARC
  5
12B
330
33
100
AcDbEntity
  8
1
  6
Continuous
 62
     3
100
AcDbCircle
 10
-315.0173510652099
 20
-604.1193529016481
 30
0.0
 40
3.0
100
AcDbArc
 50
90.0
 51
180.0
  0
ARC
  5
12C
330
33
100
AcDbEntity
  8
1
  6
Continuous
 62
     3
100
AcDbCircle
 10
-349.0173510652099
 20
-604.1193529016481
 30
0.0
 40
3.0
100
AcDbArc
 50
0.0
 51
90.0
  0
ARC
  5
12D
330
33
100
AcDbEntity
  8
1
  6
Continuous
 62
     3
100
AcDbCircle
 10
-345.0173510652099
 20
-612.4923362478556
 30
0.0
 40
2.0
100
AcDbArc
 50
0.0
 51
75.52248781407054
  0
ARC
  5
12E
330
33
100
AcDbEntity
  8
1
  6
Continuous
 62
     3
100
AcDbCircle
 10
-344.0173510652099
 20
-608.6193529016481
 30
0.0
 40
2.0
100
AcDbArc
 50
180.0
 51
-104.4775121859295
  0
ARC
  5
12F
330
33
100
AcDbEntity
  8
1
  6
Continuous
 62
     3
100
AcDbCircle
 10
-181.0173510652099
 20
-608.6193529016481
 30
0.0
 40
2.0
100
AcDbArc
 50
180.0
 51
-104.4775121859295
  0
ARC
  5
130
330
33
100
AcDbEntity
  8
1
  6
Continuous
 62
     3
100
AcDbCircle
 10
-182.0173510652099
 20
-612.4923362478556
 30
0.0
 40
2.0
100
AcDbArc
 50
0.0
 51
75.52248781407054
  0
ARC
  5
131
330
33
100
AcDbEntity
  8
1
  6
Continuous
 62
     3
100
AcDbCircle
 10
-186.0173510652099
 20
-604.1193529016481
 30
0.0
 40
3.0
100
AcDbArc
 50
0.0
 51
90.0
  0
ARC
  5
132
330
33
100
AcDbEntity
  8
1
  6
Continuous
 62
     3
100
AcDbCircle
 10
-152.0173510652099
 20
-604.1193529016481
 30
0.0
 40
3.0
100
AcDbArc
 50
90.0
 51
180.0
  0
ARC
  5
133
330
33
100
AcDbEntity
  8
1
  6
Continuous
 62
     3
100
AcDbCircle
 10
-157.0173510652099
 20
-608.6193529016481
 30
0.0
 40
2.000000000000063
100
AcDbArc
 50
-75.52248781407054
 51
0.0
  0
ARC
  5
134
330
33
100
AcDbEntity
  8
1
  6
Continuous
 62
     3
100
AcDbCircle
 10
-156.0173510652099
 20
-612.4923362478556
 30
0.0
 40
2.000000000000063
100
AcDbArc
 50
104.4775121859295
 51
180.0
  0
ARC
  5
135
330
33
100
AcDbEntity
  8
1
  6
Continuous
 62
     3
100
AcDbCircle
 10
-150.0173510652099
 20
-600.1193529016481
 30
0.0
 40
1.0
100
AcDbArc
 50
-90.0
 51
0.0
  0
ARC
  5
136
330
33
100
AcDbEntity
  8
1
  6
Continuous
 62
     3
100
AcDbCircle
 10
-188.0173510652099
 20
-600.1193529016481
 30
0.0
 40
1.0
100
AcDbArc
 50
180.0
 51
-90.0
  0
ARC
  5
137
330
33
100
AcDbEntity
  8
1
  6
Continuous
 62
     3
100
AcDbCircle
 10
-231.51735106521
 20
-528.1470067574852
 30
0.0
 40
1.000000000000036
100
AcDbArc
 50
109.4712206344888
 51
180.0
  0
ARC
  5
138
330
33
100
AcDbEntity
  8
1
  6
Continuous
 62
     3
100
AcDbCircle
 10
-231.51735106521
 20
-522.4901525079928
 30
0.0
 40
1.0
100
AcDbArc
 50
180.0
 51
-109.4712206344888
  0
ARC
  5
139
330
33
100
AcDbEntity
  8
1
  6
Continuous
 62
     3
100
AcDbCircle
 10
-238.51735106521
 20
-511.3185796327391
 30
0.0
 40
6.0
100
AcDbArc
 50
0.0
 51
147.4509890024914
  0
ARC
  5
13A
330
33
100
AcDbEntity
  8
1
  6
Continuous
 62
     3
100
AcDbCircle
 10
-266.5173510652099
 20
-511.3185796327391
 30
0.0
 40
6.0
100
AcDbArc
 50
90.0
 51
180.0
  0
ARC
  5
13B
330
33
100
AcDbEntity
  8
1
  6
Continuous
 62
     3
100
AcDbCircle
 10
-266.5173510652099
 20
-539.318579632739
 30
0.0
 40
6.0
100
AcDbArc
 50
-90.0
 51
-32.54901099750824
  0
ARC
  5
13C
330
33
100
AcDbEntity
  8
1
  6
Continuous
 62
     3
100
AcDbCircle
 10
-238.51735106521
 20
-539.318579632739
 30
0.0
 40
6.000000000000021
100
AcDbArc
 50
-147.4509890024914
 51
0.0
  0
ARC
  5
13D
330
33
100
AcDbEntity
  8
1
  6
Continuous
 62
     3
100
AcDbCircle
 10
-266.5173510652099
 20
-511.3185796327391
 30
0.0
 40
5.99999999999996
100
AcDbArc
 50
32.54901099750765
 51
90.0
  0
ARC
  5
13E
330
33
100
AcDbEntity
  8
1
  6
Continuous
 62
     3
100
AcDbCircle
 10
-266.5173510652099
 20
-539.318579632739
 30
0.0
 40
6.0
100
AcDbArc
 50
180.0
 51
-90.0
  0
TEXT
  5
140
330
33
100
AcDbEntity
  8
1
 62
     1
100
AcDbText
 10
-99.75811205877992
 20
-645.5213725052989
 30
0.0
 40
4.0
  1
VY5302A001X
 41
0.76
  7
CONVERTER_1
100
AcDbText
  0
MTEXT
  5
142
330
33
100
AcDbEntity
  8
1
 62
     3
100
AcDbMText
 10
-252.3636564861396
 20
-650.1193529016481
 30
0.0
 40
5.0
 41
0.0
 71
     2
 72
     1
  1
PN16
  7
CONVERTER_2
 73
     1
 44
0.84033613445378
  0
MTEXT
  5
144
330
33
100
AcDbEntity
  8
1
 62
     3
100
AcDbMText
 10
-252.3636564861396
 20
-638.1193529016481
 30
0.0
 40
5.0
 41
0.0
 71
     8
 72
     1
  1
15
  7
CONVERTER_3
 73
     1
 44
0.84033613445378
  0
ENDBLK
  5
35
330
33
100
AcDbEntity
  8
0
100
AcDbBlockEnd
  0
BLOCK
  5
37
330
36
100
AcDbEntity
  8
0
100
AcDbBlockBegin
  2
Top__2
 70
     0
 71
     0
 10
607.9856240437593
 20
-574.4444534166655
 30
0.0
  3
Top__2
  1

  0
LINE
  5
145
330
36
100
AcDbEntity
  8
1
  6
Continuous
 62
     3
100
AcDbLine
 10
-219.0173510652099
 20
-537.818579632739
 30
0.0
 11
-219.0173510652101
 21
-525.318579632739
 31
0.0
  0
LINE
  5
146
330
36
100
AcDbEntity
  8
1
  6
Continuous
 62
     3
100
AcDbLine
 10
-219.0173510652099
 20
-537.818579632739
 30
0.0
 11
-219.5947013343995
 21
-538.818579632739
 31
0.0
  0
LINE
  5
147
330
36
100
AcDbEntity
  8
1
  6
Continuous
 62
     3
100
AcDbLine
 10
-219.5947013343995
 20
-511.818579632739
 30
0.0
 11
-219.0173510652099
 21
-512.818579632739
 31
0.0
  0
LINE
  5
148
330
36
100
AcDbEntity
  8
1
  6
Continuous
 62
     3
100
AcDbLine
 10
-233.5173510652099
 20
-660.6193529016481
 30
0.0
 11
-236.5173510652099
 21
-660.6193529016481
 31
0.0
  0
LINE
  5
149
330
36
100
AcDbEntity
  8
1
  6
Continuous
 62
     3
100
AcDbLine
 10
-236.5173510652099
 20
-627.6193529016481
 30
0.0
 11
-233.5173510652099
 21
-627.6193529016481
 31
0.0
  0
LINE
  5
14A
330
36
100
AcDbEntity
  8
1
  6
DOT_CENTER
 62
     1
100
AcDbLine
 10
-249.5173510652099
 20
-644.1193529016481
 30
0.0
 11
-215.0173510652099
 21
-644.1193529016481
 31
0.0
  0
LINE
  5
14B
330
36
100
AcDbEntity
  8
1
  6
Continuous
 62
     3
100
AcDbLine
 10
-219.5947013343995
 20
-658.6193529016481
 30
0.0
 11
-219.0173510652099
 21
-657.6193529016481
 31
0.0
  0
LINE
  5
14C
330
36
100
AcDbEntity
  8
1
  6
Continuous
 62
     3
100
AcDbLine
 10
-219.5947013343995
 20
-629.6193529016481
 30
0.0
 11
-219.0173510652099
 21
-630.6193529016481
 31
0.0
  0
LINE
  5
14D
330
36
100
AcDbEntity
  8
1
  6
Continuous
 62
     3
100
AcDbLine
 10
-232.5193656896466
 20
-629.6193529016481
 30
0.0
 11
-232.5173510652099
 21
-628.6193529016481
 31
0.0
  0
LINE
  5
14E
330
36
100
AcDbEntity
  8
1
  6
Continuous
 62
     3
100
AcDbLine
 10
-232.5173510652099
 20
-659.6193529016481
 30
0.0
 11
-232.5193656896466
 21
-658.6193529016481
 31
0.0
  0
LINE
  5
14F
330
36
100
AcDbEntity
  8
1
  6
Continuous
 62
     3
100
AcDbLine
 10
-231.5808593921063
 20
-538.818579632739
 30
0.0
 11
-219.5947013343995
 21
-538.818579632739
 31
0.0
  0
LINE
  5
150
330
36
100
AcDbEntity
  8
1
  6
Continuous
 62
     3
100
AcDbLine
 10
-231.5808593921063
 20
-511.818579632739
 30
0.0
 11
-219.5947013343995
 21
-511.818579632739
 31
0.0
  0
LINE
  5
151
330
36
100
AcDbEntity
  8
1
  6
Continuous
 62
     3
100
AcDbLine
 10
-219.0173510652099
 20
-657.6193529016481
 30
0.0
 11
-219.0173510652099
 21
-630.6193529016481
 31
0.0
  0
LINE
  5
152
330
36
100
AcDbEntity
  8
1
  6
Continuous
 62
     3
100
AcDbLine
 10
-231.5173510652099
 20
-658.6193529016481
 30
0.0
 11
-219.5947013343995
 21
-658.6193529016481
 31
0.0
  0
LINE
  5
153
330
36
100
AcDbEntity
  8
1
  6
Continuous
 62
     3
100
AcDbLine
 10
-231.5173510652099
 20
-629.6193529016481
 30
0.0
 11
-219.5947013343995
 21
-629.6193529016481
 31
0.0
  0
LINE
  5
154
330
36
100
AcDbEntity
  8
1
  6
Continuous
 62
     3
100
AcDbLine
 10
-232.5193656896466
 20
-629.6193529016481
 30
0.0
 11
-232.5193656896466
 21
-658.6193529016481
 31
0.0
  0
LINE
  5
155
330
36
100
AcDbEntity
  8
1
  6
Continuous
 62
     3
100
AcDbLine
 10
-232.5193656896466
 20
-636.6193529016481
 30
0.0
 11
-220.8840570401074
 21
-636.6193529016481
 31
0.0
  0
LINE
  5
156
330
36
100
AcDbEntity
  8
1
  6
Continuous
 62
     3
100
AcDbLine
 10
-232.5193656896466
 20
-651.6193529016481
 30
0.0
 11
-220.8840570401074
 21
-651.6193529016481
 31
0.0
  0
LINE
  5
157
330
36
100
AcDbEntity
  8
1
  6
Continuous
 62
     3
100
AcDbLine
 10
-117.1506450903125
 20
-651.1845466930641
 30
0.0
 11
-105.5153364407733
 21
-651.1845466930641
 31
0.0
  0
LINE
  5
158
330
36
100
AcDbEntity
  8
1
  6
Continuous
 62
     3
100
AcDbLine
 10
-117.1506450903125
 20
-636.1845466930641
 30
0.0
 11
-105.5153364407733
 21
-636.1845466930641
 31
0.0
  0
LINE
  5
159
330
36
100
AcDbEntity
  8
1
  6
Continuous
 62
     3
100
AcDbLine
 10
-105.5153364407733
 20
-658.1845466930641
 30
0.0
 11
-105.5153364407733
 21
-629.1845466930641
 31
0.0
  0
LINE
  5
15A
330
36
100
AcDbEntity
  8
1
  6
Continuous
 62
     3
100
AcDbLine
 10
-118.4400007960204
 20
-629.1845466930641
 30
0.0
 11
-106.51735106521
 21
-629.1845466930641
 31
0.0
  0
LINE
  5
15B
330
36
100
AcDbEntity
  8
1
  6
Continuous
 62
     3
100
AcDbLine
 10
-118.4400007960204
 20
-658.1845466930641
 30
0.0
 11
-106.51735106521
 21
-658.1845466930641
 31
0.0
  0
LINE
  5
15C
330
36
100
AcDbEntity
  8
1
  6
Continuous
 62
     3
100
AcDbLine
 10
-119.01735106521
 20
-630.1845466930641
 30
0.0
 11
-119.01735106521
 21
-657.1845466930641
 31
0.0
  0
LINE
  5
15D
330
36
100
AcDbEntity
  8
1
  6
Continuous
 62
     3
100
AcDbLine
 10
-105.5153364407733
 20
-658.1845466930641
 30
0.0
 11
-105.51735106521
 21
-659.1845466930641
 31
0.0
  0
LINE
  5
15E
330
36
100
AcDbEntity
  8
1
  6
Continuous
 62
     3
100
AcDbLine
 10
-105.51735106521
 20
-628.1845466930641
 30
0.0
 11
-105.5153364407733
 21
-629.1845466930641
 31
0.0
  0
LINE
  5
15F
330
36
100
AcDbEntity
  8
1
  6
Continuous
 62
     3
100
AcDbLine
 10
-119.01735106521
 20
-630.1845466930641
 30
0.0
 11
-118.4400007960204
 21
-629.1845466930641
 31
0.0
  0
LINE
  5
160
330
36
100
AcDbEntity
  8
1
  6
Continuous
 62
     3
100
AcDbLine
 10
-119.01735106521
 20
-657.1845466930641
 30
0.0
 11
-118.4400007960204
 21
-658.1845466930641
 31
0.0
  0
LINE
  5
161
330
36
100
AcDbEntity
  8
1
  6
DOT_CENTER
 62
     1
100
AcDbLine
 10
-123.01735106521
 20
-643.6845466930641
 30
0.0
 11
-88.51735106520997
 21
-643.6845466930641
 31
0.0
  0
LINE
  5
162
330
36
100
AcDbEntity
  8
1
  6
Continuous
 62
     3
100
AcDbLine
 10
-104.51735106521
 20
-627.1845466930641
 30
0.0
 11
-101.51735106521
 21
-627.1845466930641
 31
0.0
  0
LINE
  5
163
330
36
100
AcDbEntity
  8
1
  6
Continuous
 62
     3
100
AcDbLine
 10
-101.51735106521
 20
-660.1845466930641
 30
0.0
 11
-104.51735106521
 21
-660.1845466930641
 31
0.0
  0
LINE
  5
164
330
36
100
AcDbEntity
  8
1
  6
Continuous
 62
     3
100
AcDbLine
 10
-155.5173510652099
 20
-644.1193529016481
 30
0.0
 11
-155.5173510652099
 21
-649.4108555237771
 31
0.0
  0
LINE
  5
165
330
36
100
AcDbEntity
  8
1
  6
Continuous
 62
     3
100
AcDbLine
 10
-155.5173510652099
 20
-638.8278502795189
 30
0.0
 11
-155.5173510652099
 21
-644.1193529016481
 31
0.0
  0
LINE
  5
166
330
36
100
AcDbEntity
  8
1
  6
Continuous
 62
     3
100
AcDbLine
 10
-157.6847753702537
 20
-653.1649445416729
 30
0.0
 11
-166.8499267601659
 21
-658.4564471638024
 31
0.0
  0
LINE
  5
167
330
36
100
AcDbEntity
  8
1
  6
Continuous
 62
     3
100
AcDbLine
 10
-171.1847753702537
 20
-658.4564471638025
 30
0.0
 11
-180.3499267601657
 21
-653.1649445416732
 31
0.0
  0
LINE
  5
168
330
36
100
AcDbEntity
  8
1
  6
Continuous
 62
     3
100
AcDbLine
 10
-180.3499267601655
 20
-635.0737612616222
 30
0.0
 11
-171.1847753702547
 21
-629.7822586394935
 31
0.0
  0
LINE
  5
169
330
36
100
AcDbEntity
  8
1
  6
Continuous
 62
     3
100
AcDbLine
 10
-166.8499267601654
 20
-629.7822586394934
 30
0.0
 11
-157.6847753702545
 21
-635.0737612616222
 31
0.0
  0
LINE
  5
16A
330
36
100
AcDbEntity
  8
1
  6
Continuous
 62
     3
100
AcDbLine
 10
-182.5173510652096
 20
-649.4108555237776
 30
0.0
 11
-182.5173510652099
 21
-638.8278502795188
 31
0.0
  0
LINE
  5
16B
330
36
100
AcDbEntity
  8
1
  6
DASH_CENTER
 62
     1
100
AcDbLine
 10
-149.2173510652099
 20
-644.1193529016481
 30
0.0
 11
-188.81735106521
 21
-644.1193529016481
 31
0.0
  0
LINE
  5
16C
330
36
100
AcDbEntity
  8
1
  6
DASH_CENTER
 62
     1
100
AcDbLine
 10
-169.0173510652099
 20
-624.3193529016481
 30
0.0
 11
-169.0173510652099
 21
-663.919352901648
 31
0.0
  0
LINE
  5
16D
330
36
100
AcDbEntity
  8
1
  6
Continuous
 62
     3
100
AcDbLine
 10
-219.0173510652101
 20
-525.318579632739
 30
0.0
 11
-219.0173510652099
 21
-512.818579632739
 31
0.0
  0
LINE
  5
16E
330
36
100
AcDbEntity
  8
1
  6
Continuous
 62
     3
100
AcDbLine
 10
-230.51735106521
 20
-525.318579632739
 30
0.0
 11
-220.8840570401074
 21
-525.318579632739
 31
0.0
  0
ARC
  5
16F
330
36
100
AcDbEntity
  8
1
  6
Continuous
 62
     3
100
AcDbCircle
 10
-233.5173510652099
 20
-628.6193529016481
 30
0.0
 40
1.0
100
AcDbArc
 50
0.0
 51
90.0
  0
ARC
  5
170
330
36
100
AcDbEntity
  8
1
  6
Continuous
 62
     3
100
AcDbCircle
 10
-233.5173510652099
 20
-659.6193529016481
 30
0.0
 40
1.0
100
AcDbArc
 50
-90.0
 51
0.0
  0
ARC
  5
171
330
36
100
AcDbEntity
  8
1
  6
Continuous
 62
     3
100
AcDbCircle
 10
-231.5173510652101
 20
-510.818579632739
 30
0.0
 40
1.002014624436697
100
AcDbArc
 50
180.0
 51
-93.63387882162341
  0
ARC
  5
172
330
36
100
AcDbEntity
  8
1
  6
Continuous
 62
     3
100
AcDbCircle
 10
-231.5173510652101
 20
-539.818579632739
 30
0.0
 40
1.002014624436767
100
AcDbArc
 50
93.63387882162341
 51
180.0
  0
ARC
  5
173
330
36
100
AcDbEntity
  8
1
  6
Continuous
 62
     3
100
AcDbCircle
 10
-231.5173510652099
 20
-659.6193529016481
 30
0.0
 40
1.0
100
AcDbArc
 50
90.0
 51
180.0
  0
ARC
  5
174
330
36
100
AcDbEntity
  8
1
  6
Continuous
 62
     3
100
AcDbCircle
 10
-231.5173510652099
 20
-628.6193529016481
 30
0.0
 40
1.0
100
AcDbArc
 50
180.0
 51
-90.0
  0
ARC
  5
175
330
36
100
AcDbEntity
  8
1
  6
Continuous
 62
     3
100
AcDbCircle
 10
-235.01735106521
 20
-644.1193529016481
 30
0.0
 40
16.00000000000003
100
AcDbArc
 50
-27.95318688338108
 51
27.95318688338108
  0
ARC
  5
176
330
36
100
AcDbEntity
  8
1
  6
Continuous
 62
     3
100
AcDbCircle
 10
-223.630595996664
 20
-632.875875481211
 30
0.0
 40
4.642962355781648
100
AcDbArc
 50
-53.73300481091732
 51
6.48600900008761
  0
ARC
  5
177
330
36
100
AcDbEntity
  8
1
  6
Continuous
 62
     3
100
AcDbCircle
 10
-223.630595996664
 20
-655.3628303220852
 30
0.0
 40
4.642962355781561
100
AcDbArc
 50
-6.48600900008761
 51
53.73300481091732
  0
ARC
  5
178
330
36
100
AcDbEntity
  8
1
  6
Continuous
 62
     3
100
AcDbCircle
 10
-114.4041061337559
 20
-654.9280241135012
 30
0.0
 40
4.64296235578164
100
AcDbArc
 50
126.2669951890826
 51
-173.5139909999124
  0
ARC
  5
179
330
36
100
AcDbEntity
  8
1
  6
Continuous
 62
     3
100
AcDbCircle
 10
-114.4041061337559
 20
-632.441069272627
 30
0.0
 40
4.642962355781546
100
AcDbArc
 50
173.5139909999124
 51
-126.2669951890826
  0
ARC
  5
17A
330
36
100
AcDbEntity
  8
1
  6
Continuous
 62
     3
100
AcDbCircle
 10
-103.0173510652099
 20
-643.6845466930641
 30
0.0
 40
16.00000000000003
100
AcDbArc
 50
152.0468131166189
 51
-152.0468131166189
  0
ARC
  5
17B
330
36
100
AcDbEntity
  8
1
  6
Continuous
 62
     3
100
AcDbCircle
 10
-106.51735106521
 20
-628.1845466930641
 30
0.0
 40
1.0
100
AcDbArc
 50
-90.0
 51
0.0
  0
ARC
  5
17C
330
36
100
AcDbEntity
  8
1
  6
Continuous
 62
     3
100
AcDbCircle
 10
-106.51735106521
 20
-659.1845466930641
 30
0.0
 40
1.0
100
AcDbArc
 50
0.0
 51
90.0
  0
ARC
  5
17D
330
36
100
AcDbEntity
  8
1
  6
Continuous
 62
     3
100
AcDbCircle
 10
-104.51735106521
 20
-659.1845466930641
 30
0.0
 40
1.0
100
AcDbArc
 50
180.0
 51
-90.0
  0
ARC
  5
17E
330
36
100
AcDbEntity
  8
1
  6
Continuous
 62
     3
100
AcDbCircle
 10
-104.51735106521
 20
-628.1845466930641
 30
0.0
 40
1.0
100
AcDbArc
 50
90.0
 51
180.0
  0
ARC
  5
17F
330
36
100
AcDbEntity
  8
1
  6
Continuous
 62
     3
100
AcDbCircle
 10
-169.0173510652099
 20
-644.1193529016481
 30
0.0
 40
14.50000000000001
100
AcDbArc
 50
21.40334963940673
 51
38.59665036059622
  0
ARC
  5
180
330
36
100
AcDbEntity
  8
1
  6
Continuous
 62
     3
100
AcDbCircle
 10
-169.0173510652099
 20
-644.1193529016481
 30
0.0
 40
14.49999999999994
100
AcDbArc
 50
-38.59665036059075
 51
-21.40334963940589
  0
ARC
  5
181
330
36
100
AcDbEntity
  8
1
  6
Continuous
 62
     3
100
AcDbCircle
 10
-169.0173510652099
 20
-644.1193529016481
 30
0.0
 40
14.49999999999987
100
AcDbArc
 50
-98.59665036059197
 51
-81.4033496394072
  0
ARC
  5
182
330
36
100
AcDbEntity
  8
1
  6
Continuous
 62
     3
100
AcDbCircle
 10
-169.0173510652099
 20
-644.1193529016481
 30
0.0
 40
14.49999999999984
100
AcDbArc
 50
-158.5966503605916
 51
-141.4033496394072
  0
ARC
  5
183
330
36
100
AcDbEntity
  8
1
  6
Continuous
 62
     3
100
AcDbCircle
 10
-169.0173510652099
 20
-644.1193529016481
 30
0.0
 40
14.50000000000016
100
AcDbArc
 50
141.4033496394042
 51
158.5966503605929
  0
ARC
  5
184
330
36
100
AcDbEntity
  8
1
  6
Continuous
 62
     3
100
AcDbCircle
 10
-169.0173510652099
 20
-644.1193529016481
 30
0.0
 40
14.5000000000002
100
AcDbArc
 50
81.40334963940539
 51
98.59665036059579
  0
ARC
  5
185
330
36
100
AcDbEntity
  8
1
  6
Continuous
 62
     3
100
AcDbCircle
 10
-223.630595996664
 20
-529.0620570531761
 30
0.0
 40
4.642962355781561
100
AcDbArc
 50
-6.48600900008761
 51
53.73300481091732
  0
ARC
  5
186
330
36
100
AcDbEntity
  8
1
  6
Continuous
 62
     3
100
AcDbCircle
 10
-223.630595996664
 20
-521.5751022123019
 30
0.0
 40
4.642962355781648
100
AcDbArc
 50
-53.73300481091732
 51
6.48600900008761
  0
CIRCLE
  5
187
330
36
100
AcDbEntity
  8
1
  6
Continuous
 62
     3
100
AcDbCircle
 10
-169.0173510652099
 20
-644.1193529016481
 30
0.0
 40
9.315500000000014
  0
CIRCLE
  5
188
330
36
100
AcDbEntity
  8
1
  6
Continuous
 62
     1
100
AcDbCircle
 10
-169.0173510652099
 20
-644.1193529016481
 30
0.0
 40
10.45000000000002
  0
CIRCLE
  5
189
330
36
100
AcDbEntity
  8
1
  6
Continuous
 62
     3
100
AcDbCircle
 10
-169.0173510652099
 20
-644.1193529016481
 30
0.0
 40
13.5
  0
CIRCLE
  5
18A
330
36
100
AcDbEntity
  8
1
  6
Continuous
 62
     3
100
AcDbCircle
 10
-169.0173510652099
 20
-644.1193529016481
 30
0.0
 40
16.5
  0
ENDBLK
  5
38
330
36
100
AcDbEntity
  8
0
100
AcDbBlockEnd
  0
BLOCK
  5
3A
330
39
100
AcDbEntity
  8
0
100
AcDbBlockBegin
  2
_2
 70
     0
 71
     0
 10
-422.5699444074461
 20
-596.6193529016481
 30
0.0
  3
_2
  1

  0
LINE
  5
18B
330
39
100
AcDbEntity
  8
6_ALL_DRFT_GEOM
  6
Continuous
 62
     3
100
AcDbLine
 10
-240.1173510652099
 20
-525.318579632739
 30
0.0
 11
-245.0173510652099
 21
-525.318579632739
 31
0.0
  0
LINE
  5
18C
330
39
100
AcDbEntity
  8
6_ALL_DRFT_GEOM
  6
Continuous
 62
     3
100
AcDbLine
 10
-249.0173510652099
 20
-525.318579632739
 30
0.0
 11
-255.0173510652099
 21
-527.318579632739
 31
0.0
  0
LINE
  5
18D
330
39
100
AcDbEntity
  8
6_ALL_DRFT_GEOM
  6
Continuous
 62
     3
100
AcDbLine
 10
-255.0173510652099
 20
-523.318579632739
 30
0.0
 11
-249.0173510652099
 21
-525.318579632739
 31
0.0
  0
LINE
  5
18E
330
39
100
AcDbEntity
  8
6_ALL_DRFT_GEOM
  6
Continuous
 62
     3
100
AcDbLine
 10
-255.0173510652099
 20
-527.318579632739
 30
0.0
 11
-255.0173510652099
 21
-523.318579632739
 31
0.0
  0
LINE
  5
18F
330
39
100
AcDbEntity
  8
1
  6
DASH_CENTER
 62
     1
100
AcDbLine
 10
-332.0173510652099
 20
-581.5831482427337
 30
0.0
 11
-332.0173510652099
 21
-599.343484600756
 31
0.0
  0
LINE
  5
190
330
39
100
AcDbEntity
  8
1
  6
Continuous
 62
     3
100
AcDbLine
 10
-318.5173510652099
 20
-591.6193529016481
 30
0.0
 11
-318.5173510652099
 21
-596.6193529016481
 31
0.0
  0
LINE
  5
191
330
39
100
AcDbEntity
  8
1
  6
Continuous
 62
     3
100
AcDbLine
 10
-318.107570198654
 20
-591.6193529016481
 30
0.0
 11
-326.6858110456585
 21
-591.6193529016481
 31
0.0
  0
LINE
  5
192
330
39
100
AcDbEntity
  8
1
  6
Continuous
 62
     3
100
AcDbLine
 10
-325.1786380105195
 20
-591.6193529016481
 30
0.0
 11
-325.1786380105195
 21
-585.1193529016481
 31
0.0
  0
LINE
  5
193
330
39
100
AcDbEntity
  8
1
  6
Continuous
 62
     3
100
AcDbLine
 10
-326.6858110456585
 20
-591.6193529016481
 30
0.0
 11
-326.6858110456585
 21
-585.1193529016481
 31
0.0
  0
LINE
  5
194
330
39
100
AcDbEntity
  8
1
  6
Continuous
 62
     3
100
AcDbLine
 10
-337.3488910847614
 20
-585.1193529016481
 30
0.0
 11
-337.3488910847614
 21
-591.6193529016481
 31
0.0
  0
LINE
  5
195
330
39
100
AcDbEntity
  8
1
  6
Continuous
 62
     3
100
AcDbLine
 10
-338.8560641199005
 20
-585.1193529016481
 30
0.0
 11
-338.8560641199005
 21
-591.6193529016481
 31
0.0
  0
LINE
  5
196
330
39
100
AcDbEntity
  8
1
  6
Continuous
 62
     3
100
AcDbLine
 10
-345.5173510652099
 20
-596.6193529016481
 30
0.0
 11
-345.5173510652099
 21
-591.6193529016481
 31
0.0
  0
LINE
  5
197
330
39
100
AcDbEntity
  8
1
  6
Continuous
 62
     3
100
AcDbLine
 10
-337.3488910847614
 20
-591.6193529016481
 30
0.0
 11
-345.927131931766
 21
-591.6193529016481
 31
0.0
  0
LINE
  5
198
330
39
100
AcDbEntity
  8
1
  6
Continuous
 62
     3
100
AcDbLine
 10
-318.107570198654
 20
-585.1193529016481
 30
0.0
 11
-318.107570198654
 21
-591.6193529016481
 31
0.0
  0
LINE
  5
199
330
39
100
AcDbEntity
  8
1
  6
Continuous
 62
     3
100
AcDbLine
 10
-318.107570198654
 20
-585.1193529016481
 30
0.0
 11
-332.0173510652099
 21
-585.1193529016481
 31
0.0
  0
LINE
  5
19A
330
39
100
AcDbEntity
  8
1
  6
Continuous
 62
     3
100
AcDbLine
 10
-332.0173510652099
 20
-585.1193529016481
 30
0.0
 11
-345.927131931766
 21
-585.1193529016481
 31
0.0
  0
LINE
  5
19B
330
39
100
AcDbEntity
  8
1
  6
Continuous
 62
     3
100
AcDbLine
 10
-345.927131931766
 20
-591.6193529016481
 30
0.0
 11
-345.927131931766
 21
-585.1193529016481
 31
0.0
  0
LINE
  5
19C
330
39
100
AcDbEntity
  8
1
  6
Continuous
 62
     3
100
AcDbLine
 10
-266.427131931766
 20
-591.6193529016481
 30
0.0
 11
-266.427131931766
 21
-585.1193529016481
 31
0.0
  0
LINE
  5
19D
330
39
100
AcDbEntity
  8
1
  6
Continuous
 62
     3
100
AcDbLine
 10
-252.5173510652099
 20
-585.1193529016481
 30
0.0
 11
-266.427131931766
 21
-585.1193529016481
 31
0.0
  0
LINE
  5
19E
330
39
100
AcDbEntity
  8
1
  6
Continuous
 62
     3
100
AcDbLine
 10
-238.607570198654
 20
-585.1193529016481
 30
0.0
 11
-252.5173510652099
 21
-585.1193529016481
 31
0.0
  0
LINE
  5
19F
330
39
100
AcDbEntity
  8
1
  6
Continuous
 62
     3
100
AcDbLine
 10
-238.607570198654
 20
-585.1193529016481
 30
0.0
 11
-238.607570198654
 21
-591.6193529016481
 31
0.0
  0
LINE
  5
1A0
330
39
100
AcDbEntity
  8
1
  6
Continuous
 62
     3
100
AcDbLine
 10
-257.8488910847614
 20
-591.6193529016481
 30
0.0
 11
-266.427131931766
 21
-591.6193529016481
 31
0.0
  0
LINE
  5
1A1
330
39
100
AcDbEntity
  8
1
  6
Continuous
 62
     3
100
AcDbLine
 10
-266.0173510652099
 20
-596.6193529016481
 30
0.0
 11
-266.0173510652099
 21
-591.6193529016481
 31
0.0
  0
LINE
  5
1A2
330
39
100
AcDbEntity
  8
1
  6
Continuous
 62
     3
100
AcDbLine
 10
-259.3560641199005
 20
-585.1193529016481
 30
0.0
 11
-259.3560641199005
 21
-591.6193529016481
 31
0.0
  0
LINE
  5
1A3
330
39
100
AcDbEntity
  8
1
  6
Continuous
 62
     3
100
AcDbLine
 10
-257.8488910847614
 20
-585.1193529016481
 30
0.0
 11
-257.8488910847614
 21
-591.6193529016481
 31
0.0
  0
LINE
  5
1A4
330
39
100
AcDbEntity
  8
1
  6
Continuous
 62
     3
100
AcDbLine
 10
-247.1858110456585
 20
-591.6193529016481
 30
0.0
 11
-247.1858110456585
 21
-585.1193529016481
 31
0.0
  0
LINE
  5
1A5
330
39
100
AcDbEntity
  8
1
  6
Continuous
 62
     3
100
AcDbLine
 10
-245.6786380105195
 20
-591.6193529016481
 30
0.0
 11
-245.6786380105195
 21
-585.1193529016481
 31
0.0
  0
LINE
  5
1A6
330
39
100
AcDbEntity
  8
1
  6
Continuous
 62
     3
100
AcDbLine
 10
-238.607570198654
 20
-591.6193529016481
 30
0.0
 11
-247.1858110456585
 21
-591.6193529016481
 31
0.0
  0
LINE
  5
1A7
330
39
100
AcDbEntity
  8
1
  6
Continuous
 62
     3
100
AcDbLine
 10
-239.0173510652099
 20
-591.6193529016481
 30
0.0
 11
-239.0173510652099
 21
-596.6193529016481
 31
0.0
  0
LINE
  5
1A8
330
39
100
AcDbEntity
  8
1
  6
DASH_CENTER
 62
     1
100
AcDbLine
 10
-252.5173510652099
 20
-581.5831482427337
 30
0.0
 11
-252.5173510652099
 21
-599.343484600756
 31
0.0
  0
LINE
  5
1A9
330
39
100
AcDbEntity
  8
1
  6
DASH_CENTER
 62
     1
100
AcDbLine
 10
-169.0173510652099
 20
-581.5831482427337
 30
0.0
 11
-169.0173510652099
 21
-599.343484600756
 31
0.0
  0
LINE
  5
1AA
330
39
100
AcDbEntity
  8
1
  6
Continuous
 62
     3
100
AcDbLine
 10
-155.5173510652099
 20
-591.6193529016481
 30
0.0
 11
-155.5173510652099
 21
-596.6193529016481
 31
0.0
  0
LINE
  5
1AB
330
39
100
AcDbEntity
  8
1
  6
Continuous
 62
     3
100
AcDbLine
 10
-155.107570198654
 20
-591.6193529016481
 30
0.0
 11
-163.6858110456585
 21
-591.6193529016481
 31
0.0
  0
LINE
  5
1AC
330
39
100
AcDbEntity
  8
1
  6
Continuous
 62
     3
100
AcDbLine
 10
-162.1786380105195
 20
-591.6193529016481
 30
0.0
 11
-162.1786380105195
 21
-585.1193529016481
 31
0.0
  0
LINE
  5
1AD
330
39
100
AcDbEntity
  8
1
  6
Continuous
 62
     3
100
AcDbLine
 10
-163.6858110456585
 20
-591.6193529016481
 30
0.0
 11
-163.6858110456585
 21
-585.1193529016481
 31
0.0
  0
LINE
  5
1AE
330
39
100
AcDbEntity
  8
1
  6
Continuous
 62
     3
100
AcDbLine
 10
-174.3488910847614
 20
-585.1193529016481
 30
0.0
 11
-174.3488910847614
 21
-591.6193529016481
 31
0.0
  0
LINE
  5
1AF
330
39
100
AcDbEntity
  8
1
  6
Continuous
 62
     3
100
AcDbLine
 10
-175.8560641199005
 20
-585.1193529016481
 30
0.0
 11
-175.8560641199005
 21
-591.6193529016481
 31
0.0
  0
LINE
  5
1B0
330
39
100
AcDbEntity
  8
1
  6
Continuous
 62
     3
100
AcDbLine
 10
-182.5173510652099
 20
-596.6193529016481
 30
0.0
 11
-182.5173510652099
 21
-591.6193529016481
 31
0.0
  0
LINE
  5
1B1
330
39
100
AcDbEntity
  8
1
  6
Continuous
 62
     3
100
AcDbLine
 10
-174.3488910847614
 20
-591.6193529016481
 30
0.0
 11
-182.927131931766
 21
-591.6193529016481
 31
0.0
  0
LINE
  5
1B2
330
39
100
AcDbEntity
  8
1
  6
Continuous
 62
     3
100
AcDbLine
 10
-155.107570198654
 20
-585.1193529016481
 30
0.0
 11
-155.107570198654
 21
-591.6193529016481
 31
0.0
  0
LINE
  5
1B3
330
39
100
AcDbEntity
  8
1
  6
Continuous
 62
     3
100
AcDbLine
 10
-155.107570198654
 20
-585.1193529016481
 30
0.0
 11
-169.0173510652099
 21
-585.1193529016481
 31
0.0
  0
LINE
  5
1B4
330
39
100
AcDbEntity
  8
1
  6
Continuous
 62
     3
100
AcDbLine
 10
-169.0173510652099
 20
-585.1193529016481
 30
0.0
 11
-182.927131931766
 21
-585.1193529016481
 31
0.0
  0
LINE
  5
1B5
330
39
100
AcDbEntity
  8
1
  6
Continuous
 62
     3
100
AcDbLine
 10
-182.927131931766
 20
-591.6193529016481
 30
0.0
 11
-182.927131931766
 21
-585.1193529016481
 31
0.0
  0
LINE
  5
1B6
330
39
100
AcDbEntity
  8
1
  6
Continuous
 62
     3
100
AcDbLine
 10
-246.2536067618426
 20
-511.2499795850429
 30
0.0
 11
-247.0060695515329
 21
-512.9400386816817
 31
0.0
  0
LINE
  5
1B7
330
39
100
AcDbEntity
  8
1
  6
Continuous
 62
     3
100
AcDbLine
 10
-257.5932704059956
 20
-512.755238403359
 30
0.0
 11
-258.286292603815
 21
-511.0399482724105
 31
0.0
  0
LINE
  5
1B8
330
39
100
AcDbEntity
  8
1
  6
Continuous
 62
     3
100
AcDbLine
 10
-265.0806922945899
 20
-530.3944989735246
 30
0.0
 11
-266.7959824255385
 21
-531.0875211713441
 31
0.0
  0
LINE
  5
1B9
330
39
100
AcDbEntity
  8
1
  6
Continuous
 62
     3
100
AcDbLine
 10
-266.5859511129061
 20
-519.0548353293716
 30
0.0
 11
-264.8958920162672
 21
-519.8072981190619
 31
0.0
  0
LINE
  5
1BA
330
39
100
AcDbEntity
  8
1
  6
Continuous
 62
     3
100
AcDbLine
 10
-247.4414317244244
 20
-537.8819208621189
 30
0.0
 11
-246.7484095266049
 21
-539.5972109930676
 31
0.0
  0
LINE
  5
1BB
330
39
100
AcDbEntity
  8
1
  6
Continuous
 62
     3
100
AcDbLine
 10
-258.7810953685773
 20
-539.3871796804351
 30
0.0
 11
-258.0286325788871
 21
-537.6971205837963
 31
0.0
  0
LINE
  5
1BC
330
39
100
AcDbEntity
  8
1
  6
Continuous
 62
     3
100
AcDbLine
 10
-239.95400983583
 20
-520.2426602919534
 30
0.0
 11
-238.2387197048814
 21
-519.549638094134
 31
0.0
  0
LINE
  5
1BD
330
39
100
AcDbEntity
  8
1
  6
Continuous
 62
     3
100
AcDbLine
 10
-238.4487510175139
 20
-531.5823239361064
 30
0.0
 11
-240.1388101141527
 21
-530.8298611464161
 31
0.0
  0
LINE
  5
1BE
330
39
100
AcDbEntity
  8
1
  6
Continuous
 62
     3
100
AcDbLine
 10
-99.42713193176601
 20
-591.1845466930641
 30
0.0
 11
-99.42713193176601
 21
-584.6845466930641
 31
0.0
  0
LINE
  5
1BF
330
39
100
AcDbEntity
  8
1
  6
Continuous
 62
     3
100
AcDbLine
 10
-85.51735106520997
 20
-584.6845466930641
 30
0.0
 11
-99.42713193176601
 21
-584.6845466930641
 31
0.0
  0
LINE
  5
1C0
330
39
100
AcDbEntity
  8
1
  6
Continuous
 62
     3
100
AcDbLine
 10
-71.60757019865403
 20
-584.6845466930641
 30
0.0
 11
-85.51735106520997
 21
-584.6845466930641
 31
0.0
  0
LINE
  5
1C1
330
39
100
AcDbEntity
  8
1
  6
Continuous
 62
     3
100
AcDbLine
 10
-71.60757019865403
 20
-584.6845466930641
 30
0.0
 11
-71.60757019865403
 21
-591.1845466930641
 31
0.0
  0
LINE
  5
1C2
330
39
100
AcDbEntity
  8
1
  6
Continuous
 62
     3
100
AcDbLine
 10
-90.84889108476139
 20
-591.1845466930641
 30
0.0
 11
-99.42713193176601
 21
-591.1845466930641
 31
0.0
  0
LINE
  5
1C3
330
39
100
AcDbEntity
  8
1
  6
Continuous
 62
     3
100
AcDbLine
 10
-99.01735106520997
 20
-596.1845466930641
 30
0.0
 11
-99.01735106520997
 21
-591.1845466930641
 31
0.0
  0
LINE
  5
1C4
330
39
100
AcDbEntity
  8
1
  6
Continuous
 62
     3
100
AcDbLine
 10
-92.35606411990048
 20
-584.6845466930641
 30
0.0
 11
-92.35606411990048
 21
-591.1845466930641
 31
0.0
  0
LINE
  5
1C5
330
39
100
AcDbEntity
  8
1
  6
Continuous
 62
     3
100
AcDbLine
 10
-90.84889108476139
 20
-584.6845466930641
 30
0.0
 11
-90.84889108476139
 21
-591.1845466930641
 31
0.0
  0
LINE
  5
1C6
330
39
100
AcDbEntity
  8
1
  6
Continuous
 62
     3
100
AcDbLine
 10
-80.18581104565854
 20
-591.1845466930641
 30
0.0
 11
-80.18581104565854
 21
-584.6845466930641
 31
0.0
  0
LINE
  5
1C7
330
39
100
AcDbEntity
  8
1
  6
Continuous
 62
     3
100
AcDbLine
 10
-78.67863801051956
 20
-591.1845466930641
 30
0.0
 11
-78.67863801051956
 21
-584.6845466930641
 31
0.0
  0
LINE
  5
1C8
330
39
100
AcDbEntity
  8
1
  6
Continuous
 62
     3
100
AcDbLine
 10
-71.60757019865403
 20
-591.1845466930641
 30
0.0
 11
-80.18581104565854
 21
-591.1845466930641
 31
0.0
  0
LINE
  5
1C9
330
39
100
AcDbEntity
  8
1
  6
Continuous
 62
     3
100
AcDbLine
 10
-72.01735106520997
 20
-591.1845466930641
 30
0.0
 11
-72.01735106520997
 21
-596.1845466930641
 31
0.0
  0
LINE
  5
1CA
330
39
100
AcDbEntity
  8
1
  6
DASH_CENTER
 62
     1
100
AcDbLine
 10
-85.51735106520997
 20
-581.1483420341498
 30
0.0
 11
-85.51735106520997
 21
-598.9086783921721
 31
0.0
  0
ARC
  5
1CB
330
39
100
AcDbEntity
  8
1
  6
Continuous
 62
     3
100
AcDbCircle
 10
-249.884133766223
 20
-523.1714989003973
 30
0.0
 40
10.00000000000014
100
AcDbArc
 50
-105.2672535353402
 51
-12.39840117245602
  0
ARC
  5
1CC
330
39
100
AcDbEntity
  8
6_ALL_DRFT_GEOM
  6
Continuous
 62
     3
100
AcDbCircle
 10
-252.5173510652099
 20
-525.318579632739
 30
0.0
 40
7.5
100
AcDbArc
 50
-90.00000000000065
 51
0.0
  0
ARC
  5
1CD
330
39
100
AcDbEntity
  8
1
  6
Continuous
 62
     3
100
AcDbCircle
 10
-252.5173510652099
 20
-525.318579632739
 30
0.0
 40
13.55000000000001
100
AcDbArc
 50
66.00000000000043
 51
112.0000000000004
  0
ARC
  5
1CE
330
39
100
AcDbEntity
  8
1
  6
Continuous
 62
     3
100
AcDbCircle
 10
-252.5173510652099
 20
-525.318579632739
 30
0.0
 40
15.39999999999996
100
AcDbArc
 50
21.99999999999973
 51
66.0000000000001
  0
ARC
  5
1CF
330
39
100
AcDbEntity
  8
1
  6
Continuous
 62
     3
100
AcDbCircle
 10
-252.5173510652099
 20
-525.318579632739
 30
0.0
 40
15.39999999999996
100
AcDbArc
 50
112.0000000000003
 51
156.0
  0
ARC
  5
1D0
330
39
100
AcDbEntity
  8
1
  6
Continuous
 62
     3
100
AcDbCircle
 10
-252.5173510652099
 20
-525.318579632739
 30
0.0
 40
15.40000000000008
100
AcDbArc
 50
-158.0
 51
-114.0000000000002
  0
ARC
  5
1D1
330
39
100
AcDbEntity
  8
1
  6
Continuous
 62
     3
100
AcDbCircle
 10
-252.5173510652099
 20
-525.318579632739
 30
0.0
 40
15.40000000000009
100
AcDbArc
 50
-68.00000000000024
 51
-24.00000000000029
  0
ARC
  5
1D2
330
39
100
AcDbEntity
  8
1
  6
Continuous
 62
     3
100
AcDbCircle
 10
-252.5173510652099
 20
-525.318579632739
 30
0.0
 40
13.5499999999999
100
AcDbArc
 50
0.0
 51
66.00000000000043
  0
ARC
  5
1D3
330
39
100
AcDbEntity
  8
1
  6
Continuous
 62
     3
100
AcDbCircle
 10
-252.5173510652099
 20
-525.318579632739
 30
0.0
 40
13.55000000000001
100
AcDbArc
 50
112.0000000000004
 51
156.0000000000001
  0
ARC
  5
1D4
330
39
100
AcDbEntity
  8
1
  6
Continuous
 62
     3
100
AcDbCircle
 10
-252.5173510652099
 20
-525.318579632739
 30
0.0
 40
13.55000000000007
100
AcDbArc
 50
156.0000000000001
 51
-158.0
  0
ARC
  5
1D5
330
39
100
AcDbEntity
  8
1
  6
Continuous
 62
     3
100
AcDbCircle
 10
-252.5173510652099
 20
-525.318579632739
 30
0.0
 40
13.55000000000001
100
AcDbArc
 50
-158.0
 51
-114.0000000000003
  0
ARC
  5
1D6
330
39
100
AcDbEntity
  8
1
  6
Continuous
 62
     3
100
AcDbCircle
 10
-252.5173510652099
 20
-525.318579632739
 30
0.0
 40
13.55000000000008
100
AcDbArc
 50
-114.0000000000003
 51
-68.00000000000037
  0
ARC
  5
1D7
330
39
100
AcDbEntity
  8
1
  6
Continuous
 62
     3
100
AcDbCircle
 10
-252.5173510652099
 20
-525.318579632739
 30
0.0
 40
13.54999999999994
100
AcDbArc
 50
-68.00000000000037
 51
-24.00000000000006
  0
ARC
  5
1D8
330
39
100
AcDbEntity
  8
1
  6
Continuous
 62
     3
100
AcDbCircle
 10
-252.5173510652099
 20
-525.318579632739
 30
0.0
 40
13.54999999999996
100
AcDbArc
 50
-24.00000000000006
 51
0.0
  0
LWPOLYLINE
  5
1D9
330
39
100
AcDbEntity
  8
6_ALL_DRFT_GEOM
  6
Continuous
 62
     3
 60
     1
100
AcDbPolyline
 90
        4
 70
     0
 43
0.0
 10
-255.0173509931099
 20
-523.318579632739
 10
-255.0173509931099
 20
-527.318579632739
 10
-249.0173510652099
 20
-525.318579632739
 10
-255.0173509931099
 20
-523.318579632739
  0
MTEXT
  5
1DB
330
39
100
AcDbEntity
  8
0
 62
     3
100
AcDbMText
 10
-253.3887449655099
 20
-534.187015948639
 30
0.0
 40
3.0
 41
0.0
 71
     7
 72
     1
  1
0
  7
CONVERTER_4
 11
-1.0
 21
3.673819061467132E-16
 31
0.0
 73
     1
 44
0.60024009603842
  0
MTEXT
  5
1DC
330
39
100
AcDbEntity
  8
0
 62
     3
100
AcDbMText
 10
-245.1511726564099
 20
-518.4296199333389
 30
0.0
 40
3.0
 41
0.0
 71
     7
 72
     1
  1
100
  7
CONVERTER_4
 11
-1.836909530733566E-16
 21
-1.0
 31
0.0
 73
     1
 44
0.60024009603842
  0
ENDBLK
  5
3B
330
39
100
AcDbEntity
  8
0
100
AcDbBlockEnd
  0
BLOCK
  5
3D
330
3C
100
AcDbEntity
  8
0
100
AcDbBlockBegin
  2
_3
 70
     0
 71
     0
 10
-338.0173510652099
 20
-589.479631922478
 30
0.0
  3
_3
  1

  0
LINE
  5
1DD
330
3C
100
AcDbEntity
  8
1
  6
DASH_CENTER
 62
     1
100
AcDbLine
 10
-332.0173510652099
 20
-568.6193529016481
 30
0.0
 11
-332.0173510652099
 21
-589.479631922478
 31
0.0
  0
LINE
  5
1DE
330
3C
100
AcDbEntity
  8
1
  6
Continuous
 62
     3
100
AcDbLine
 10
-338.0173510652099
 20
-585.1193529016481
 30
0.0
 11
-338.0173510652098
 21
-581.6193529016481
 31
0.0
  0
LINE
  5
1DF
330
3C
100
AcDbEntity
  8
1
  6
Continuous
 62
     3
100
AcDbLine
 10
-326.0173510652099
 20
-585.1193529016481
 30
0.0
 11
-326.0173510652099
 21
-581.6193529016481
 31
0.0
  0
LINE
  5
1E0
330
3C
100
AcDbEntity
  8
1
  6
Continuous
 62
     3
100
AcDbLine
 10
-328.3516314905562
 20
-581.6193529016481
 30
0.0
 11
-335.6830706398638
 21
-581.6193529016481
 31
0.0
  0
LINE
  5
1E1
330
3C
100
AcDbEntity
  8
1
  6
Continuous
 62
     2
100
AcDbLine
 10
-328.3516314905562
 20
-572.6293529016481
 30
0.0
 11
-335.6830706398638
 21
-581.6193529016481
 31
0.0
  0
LINE
  5
1E2
330
3C
100
AcDbEntity
  8
1
  6
Continuous
 62
     3
100
AcDbLine
 10
-327.2673510652099
 20
-581.6193529016481
 30
0.0
 11
-328.3516314905562
 21
-581.6193529016481
 31
0.0
  0
LINE
  5
1E3
330
3C
100
AcDbEntity
  8
1
  6
Continuous
 62
     2
100
AcDbLine
 10
-328.3516314905562
 20
-581.6193529016481
 30
0.0
 11
-335.6830706398638
 21
-572.6293529016481
 31
0.0
  0
LINE
  5
1E4
330
3C
100
AcDbEntity
  8
1
  6
Continuous
 62
     3
100
AcDbLine
 10
-336.7673510652098
 20
-573.1193529016481
 30
0.0
 11
-336.7673510652099
 21
-572.6293529016481
 31
0.0
  0
LINE
  5
1E5
330
3C
100
AcDbEntity
  8
1
  6
Continuous
 62
     3
100
AcDbLine
 10
-335.6830706398638
 20
-572.6293529016481
 30
0.0
 11
-336.7673510652099
 21
-572.6293529016481
 31
0.0
  0
LINE
  5
1E6
330
3C
100
AcDbEntity
  8
1
  6
Continuous
 62
     3
100
AcDbLine
 10
-327.2673510652098
 20
-571.9080280362429
 30
0.0
 11
-327.2673510652099
 21
-572.6293529016481
 31
0.0
  0
LINE
  5
1E7
330
3C
100
AcDbEntity
  8
1
  6
Continuous
 62
     3
100
AcDbLine
 10
-328.3516314905562
 20
-581.6193529016481
 30
0.0
 11
-328.3516314905562
 21
-572.6293529016481
 31
0.0
  0
LINE
  5
1E8
330
3C
100
AcDbEntity
  8
1
  6
Continuous
 62
     3
100
AcDbLine
 10
-327.2673510652099
 20
-572.6293529016481
 30
0.0
 11
-328.3516314905562
 21
-572.6293529016481
 31
0.0
  0
LINE
  5
1E9
330
3C
100
AcDbEntity
  8
1
  6
Continuous
 62
     3
100
AcDbLine
 10
-327.2673510652098
 20
-571.9080280362429
 30
0.0
 11
-327.7673510652099
 21
-571.6193529016481
 31
0.0
  0
LINE
  5
1EA
330
3C
100
AcDbEntity
  8
1
  6
Continuous
 62
     3
100
AcDbLine
 10
-336.2673510652099
 20
-571.6193529016481
 30
0.0
 11
-336.7673510652099
 21
-571.9080280362429
 31
0.0
  0
LINE
  5
1EB
330
3C
100
AcDbEntity
  8
1
  6
Continuous
 62
     3
100
AcDbLine
 10
-327.2673510652099
 20
-572.6293529016481
 30
0.0
 11
-327.2673510652099
 21
-581.6193529016481
 31
0.0
  0
LINE
  5
1EC
330
3C
100
AcDbEntity
  8
1
  6
Continuous
 62
     3
100
AcDbLine
 10
-335.6830706398638
 20
-572.6293529016481
 30
0.0
 11
-335.6830706398638
 21
-581.6193529016481
 31
0.0
  0
LINE
  5
1ED
330
3C
100
AcDbEntity
  8
1
  6
Continuous
 62
     3
100
AcDbLine
 10
-327.7673510652099
 20
-571.6193529016481
 30
0.0
 11
-336.2673510652099
 21
-571.6193529016481
 31
0.0
  0
LINE
  5
1EE
330
3C
100
AcDbEntity
  8
1
  6
Continuous
 62
     3
100
AcDbLine
 10
-336.7673510652099
 20
-572.6293529016481
 30
0.0
 11
-336.7673510652099
 21
-571.9080280362429
 31
0.0
  0
LINE
  5
1EF
330
3C
100
AcDbEntity
  8
1
  6
Continuous
 62
     3
100
AcDbLine
 10
-336.7673510652099
 20
-581.6193529016481
 30
0.0
 11
-338.0173510652098
 21
-581.6193529016481
 31
0.0
  0
LINE
  5
1F0
330
3C
100
AcDbEntity
  8
1
  6
Continuous
 62
     3
100
AcDbLine
 10
-335.6830706398638
 20
-581.6193529016481
 30
0.0
 11
-336.7673510652099
 21
-581.6193529016481
 31
0.0
  0
LINE
  5
1F1
330
3C
100
AcDbEntity
  8
1
  6
Continuous
 62
     3
100
AcDbLine
 10
-326.0173510652099
 20
-581.6193529016481
 30
0.0
 11
-327.2673510652099
 21
-581.6193529016481
 31
0.0
  0
LINE
  5
1F2
330
3C
100
AcDbEntity
  8
1
  6
Continuous
 62
     3
100
AcDbLine
 10
-336.7673510652099
 20
-581.6193529016481
 30
0.0
 11
-336.7673510652098
 21
-573.1193529016481
 31
0.0
  0
LINE
  5
1F3
330
3C
100
AcDbEntity
  8
1
  6
Continuous
 62
     3
100
AcDbLine
 10
-257.2673510652099
 20
-581.6193529016481
 30
0.0
 11
-257.2673510652098
 21
-573.1193529016481
 31
0.0
  0
LINE
  5
1F4
330
3C
100
AcDbEntity
  8
1
  6
Continuous
 62
     3
100
AcDbLine
 10
-246.5173510652099
 20
-581.6193529016481
 30
0.0
 11
-247.7673510652099
 21
-581.6193529016481
 31
0.0
  0
LINE
  5
1F5
330
3C
100
AcDbEntity
  8
1
  6
Continuous
 62
     3
100
AcDbLine
 10
-256.1830706398638
 20
-581.6193529016481
 30
0.0
 11
-257.2673510652099
 21
-581.6193529016481
 31
0.0
  0
LINE
  5
1F6
330
3C
100
AcDbEntity
  8
1
  6
Continuous
 62
     3
100
AcDbLine
 10
-257.2673510652099
 20
-581.6193529016481
 30
0.0
 11
-258.5173510652098
 21
-581.6193529016481
 31
0.0
  0
LINE
  5
1F7
330
3C
100
AcDbEntity
  8
1
  6
Continuous
 62
     3
100
AcDbLine
 10
-257.2673510652099
 20
-572.6293529016481
 30
0.0
 11
-257.2673510652099
 21
-571.9080280362429
 31
0.0
  0
LINE
  5
1F8
330
3C
100
AcDbEntity
  8
1
  6
Continuous
 62
     3
100
AcDbLine
 10
-248.2673510652099
 20
-571.6193529016481
 30
0.0
 11
-256.7673510652099
 21
-571.6193529016481
 31
0.0
  0
LINE
  5
1F9
330
3C
100
AcDbEntity
  8
1
  6
Continuous
 62
     3
100
AcDbLine
 10
-256.1830706398638
 20
-572.6293529016481
 30
0.0
 11
-256.1830706398638
 21
-581.6193529016481
 31
0.0
  0
LINE
  5
1FA
330
3C
100
AcDbEntity
  8
1
  6
Continuous
 62
     3
100
AcDbLine
 10
-247.7673510652099
 20
-572.6293529016481
 30
0.0
 11
-247.7673510652099
 21
-581.6193529016481
 31
0.0
  0
LINE
  5
1FB
330
3C
100
AcDbEntity
  8
1
  6
Continuous
 62
     3
100
AcDbLine
 10
-256.7673510652099
 20
-571.6193529016481
 30
0.0
 11
-257.2673510652099
 21
-571.9080280362429
 31
0.0
  0
LINE
  5
1FC
330
3C
100
AcDbEntity
  8
1
  6
Continuous
 62
     3
100
AcDbLine
 10
-247.7673510652098
 20
-571.9080280362429
 30
0.0
 11
-248.2673510652099
 21
-571.6193529016481
 31
0.0
  0
LINE
  5
1FD
330
3C
100
AcDbEntity
  8
1
  6
Continuous
 62
     3
100
AcDbLine
 10
-247.7673510652099
 20
-572.6293529016481
 30
0.0
 11
-248.8516314905562
 21
-572.6293529016481
 31
0.0
  0
LINE
  5
1FE
330
3C
100
AcDbEntity
  8
1
  6
Continuous
 62
     3
100
AcDbLine
 10
-248.8516314905562
 20
-581.6193529016481
 30
0.0
 11
-248.8516314905562
 21
-572.6293529016481
 31
0.0
  0
LINE
  5
1FF
330
3C
100
AcDbEntity
  8
1
  6
Continuous
 62
     3
100
AcDbLine
 10
-247.7673510652098
 20
-571.9080280362429
 30
0.0
 11
-247.7673510652099
 21
-572.6293529016481
 31
0.0
  0
LINE
  5
200
330
3C
100
AcDbEntity
  8
1
  6
Continuous
 62
     3
100
AcDbLine
 10
-256.1830706398638
 20
-572.6293529016481
 30
0.0
 11
-257.2673510652099
 21
-572.6293529016481
 31
0.0
  0
LINE
  5
201
330
3C
100
AcDbEntity
  8
1
  6
Continuous
 62
     3
100
AcDbLine
 10
-257.2673510652098
 20
-573.1193529016481
 30
0.0
 11
-257.2673510652099
 21
-572.6293529016481
 31
0.0
  0
LINE
  5
202
330
3C
100
AcDbEntity
  8
1
  6
Continuous
 62
     2
100
AcDbLine
 10
-248.8516314905562
 20
-581.6193529016481
 30
0.0
 11
-256.1830706398638
 21
-572.6293529016481
 31
0.0
  0
LINE
  5
203
330
3C
100
AcDbEntity
  8
1
  6
Continuous
 62
     3
100
AcDbLine
 10
-247.7673510652099
 20
-581.6193529016481
 30
0.0
 11
-248.8516314905562
 21
-581.6193529016481
 31
0.0
  0
LINE
  5
204
330
3C
100
AcDbEntity
  8
1
  6
Continuous
 62
     2
100
AcDbLine
 10
-248.8516314905562
 20
-572.6293529016481
 30
0.0
 11
-256.1830706398638
 21
-581.6193529016481
 31
0.0
  0
LINE
  5
205
330
3C
100
AcDbEntity
  8
1
  6
Continuous
 62
     3
100
AcDbLine
 10
-248.8516314905562
 20
-581.6193529016481
 30
0.0
 11
-256.1830706398638
 21
-581.6193529016481
 31
0.0
  0
LINE
  5
206
330
3C
100
AcDbEntity
  8
1
  6
Continuous
 62
     3
100
AcDbLine
 10
-246.5173510652099
 20
-585.1193529016481
 30
0.0
 11
-246.5173510652099
 21
-581.6193529016481
 31
0.0
  0
LINE
  5
207
330
3C
100
AcDbEntity
  8
1
  6
Continuous
 62
     3
100
AcDbLine
 10
-258.5173510652099
 20
-585.1193529016481
 30
0.0
 11
-258.5173510652098
 21
-581.6193529016481
 31
0.0
  0
LINE
  5
208
330
3C
100
AcDbEntity
  8
1
  6
DASH_CENTER
 62
     1
100
AcDbLine
 10
-252.5173510652099
 20
-568.6193529016481
 30
0.0
 11
-252.5173510652099
 21
-589.479631922478
 31
0.0
  0
LINE
  5
209
330
3C
100
AcDbEntity
  8
1
  6
DASH_CENTER
 62
     1
100
AcDbLine
 10
-169.0173510652099
 20
-568.6193529016481
 30
0.0
 11
-169.0173510652099
 21
-589.479631922478
 31
0.0
  0
LINE
  5
20A
330
3C
100
AcDbEntity
  8
1
  6
Continuous
 62
     3
100
AcDbLine
 10
-175.0173510652099
 20
-585.1193529016481
 30
0.0
 11
-175.0173510652098
 21
-581.6193529016481
 31
0.0
  0
LINE
  5
20B
330
3C
100
AcDbEntity
  8
1
  6
Continuous
 62
     3
100
AcDbLine
 10
-163.0173510652099
 20
-585.1193529016481
 30
0.0
 11
-163.0173510652099
 21
-581.6193529016481
 31
0.0
  0
LINE
  5
20C
330
3C
100
AcDbEntity
  8
1
  6
Continuous
 62
     3
100
AcDbLine
 10
-165.3516314905562
 20
-581.6193529016481
 30
0.0
 11
-172.6830706398638
 21
-581.6193529016481
 31
0.0
  0
LINE
  5
20D
330
3C
100
AcDbEntity
  8
1
  6
Continuous
 62
     2
100
AcDbLine
 10
-165.3516314905562
 20
-572.6293529016481
 30
0.0
 11
-172.6830706398638
 21
-581.6193529016481
 31
0.0
  0
LINE
  5
20E
330
3C
100
AcDbEntity
  8
1
  6
Continuous
 62
     3
100
AcDbLine
 10
-164.2673510652099
 20
-581.6193529016481
 30
0.0
 11
-165.3516314905562
 21
-581.6193529016481
 31
0.0
  0
LINE
  5
20F
330
3C
100
AcDbEntity
  8
1
  6
Continuous
 62
     2
100
AcDbLine
 10
-165.3516314905562
 20
-581.6193529016481
 30
0.0
 11
-172.6830706398638
 21
-572.6293529016481
 31
0.0
  0
LINE
  5
210
330
3C
100
AcDbEntity
  8
1
  6
Continuous
 62
     3
100
AcDbLine
 10
-173.7673510652098
 20
-573.1193529016481
 30
0.0
 11
-173.7673510652099
 21
-572.6293529016481
 31
0.0
  0
LINE
  5
211
330
3C
100
AcDbEntity
  8
1
  6
Continuous
 62
     3
100
AcDbLine
 10
-172.6830706398638
 20
-572.6293529016481
 30
0.0
 11
-173.7673510652099
 21
-572.6293529016481
 31
0.0
  0
LINE
  5
212
330
3C
100
AcDbEntity
  8
1
  6
Continuous
 62
     3
100
AcDbLine
 10
-164.2673510652098
 20
-571.9080280362429
 30
0.0
 11
-164.2673510652099
 21
-572.6293529016481
 31
0.0
  0
LINE
  5
213
330
3C
100
AcDbEntity
  8
1
  6
Continuous
 62
     3
100
AcDbLine
 10
-165.3516314905562
 20
-581.6193529016481
 30
0.0
 11
-165.3516314905562
 21
-572.6293529016481
 31
0.0
  0
LINE
  5
214
330
3C
100
AcDbEntity
  8
1
  6
Continuous
 62
     3
100
AcDbLine
 10
-164.2673510652099
 20
-572.6293529016481
 30
0.0
 11
-165.3516314905562
 21
-572.6293529016481
 31
0.0
  0
LINE
  5
215
330
3C
100
AcDbEntity
  8
1
  6
Continuous
 62
     3
100
AcDbLine
 10
-164.2673510652098
 20
-571.9080280362429
 30
0.0
 11
-164.7673510652099
 21
-571.6193529016481
 31
0.0
  0
LINE
  5
216
330
3C
100
AcDbEntity
  8
1
  6
Continuous
 62
     3
100
AcDbLine
 10
-173.2673510652099
 20
-571.6193529016481
 30
0.0
 11
-173.7673510652099
 21
-571.9080280362429
 31
0.0
  0
LINE
  5
217
330
3C
100
AcDbEntity
  8
1
  6
Continuous
 62
     3
100
AcDbLine
 10
-164.2673510652099
 20
-572.6293529016481
 30
0.0
 11
-164.2673510652099
 21
-581.6193529016481
 31
0.0
  0
LINE
  5
218
330
3C
100
AcDbEntity
  8
1
  6
Continuous
 62
     3
100
AcDbLine
 10
-172.6830706398638
 20
-572.6293529016481
 30
0.0
 11
-172.6830706398638
 21
-581.6193529016481
 31
0.0
  0
LINE
  5
219
330
3C
100
AcDbEntity
  8
1
  6
Continuous
 62
     3
100
AcDbLine
 10
-164.7673510652099
 20
-571.6193529016481
 30
0.0
 11
-173.2673510652099
 21
-571.6193529016481
 31
0.0
  0
LINE
  5
21A
330
3C
100
AcDbEntity
  8
1
  6
Continuous
 62
     3
100
AcDbLine
 10
-173.7673510652099
 20
-572.6293529016481
 30
0.0
 11
-173.7673510652099
 21
-571.9080280362429
 31
0.0
  0
LINE
  5
21B
330
3C
100
AcDbEntity
  8
1
  6
Continuous
 62
     3
100
AcDbLine
 10
-173.7673510652099
 20
-581.6193529016481
 30
0.0
 11
-175.0173510652098
 21
-581.6193529016481
 31
0.0
  0
LINE
  5
21C
330
3C
100
AcDbEntity
  8
1
  6
Continuous
 62
     3
100
AcDbLine
 10
-172.6830706398638
 20
-581.6193529016481
 30
0.0
 11
-173.7673510652099
 21
-581.6193529016481
 31
0.0
  0
LINE
  5
21D
330
3C
100
AcDbEntity
  8
1
  6
Continuous
 62
     3
100
AcDbLine
 10
-163.0173510652099
 20
-581.6193529016481
 30
0.0
 11
-164.2673510652099
 21
-581.6193529016481
 31
0.0
  0
LINE
  5
21E
330
3C
100
AcDbEntity
  8
1
  6
Continuous
 62
     3
100
AcDbLine
 10
-173.7673510652099
 20
-581.6193529016481
 30
0.0
 11
-173.7673510652098
 21
-573.1193529016481
 31
0.0
  0
LINE
  5
21F
330
3C
100
AcDbEntity
  8
1
  6
Continuous
 62
     3
100
AcDbLine
 10
-90.26735106520997
 20
-581.1845466930641
 30
0.0
 11
-90.26735106520985
 21
-572.6845466930641
 31
0.0
  0
LINE
  5
220
330
3C
100
AcDbEntity
  8
1
  6
Continuous
 62
     3
100
AcDbLine
 10
-79.51735106520997
 20
-581.1845466930641
 30
0.0
 11
-80.76735106520997
 21
-581.1845466930641
 31
0.0
  0
LINE
  5
221
330
3C
100
AcDbEntity
  8
1
  6
Continuous
 62
     3
100
AcDbLine
 10
-89.18307063986381
 20
-581.1845466930641
 30
0.0
 11
-90.26735106520997
 21
-581.1845466930641
 31
0.0
  0
LINE
  5
222
330
3C
100
AcDbEntity
  8
1
  6
Continuous
 62
     3
100
AcDbLine
 10
-90.26735106520997
 20
-581.1845466930641
 30
0.0
 11
-91.51735106520985
 21
-581.1845466930641
 31
0.0
  0
LINE
  5
223
330
3C
100
AcDbEntity
  8
1
  6
Continuous
 62
     3
100
AcDbLine
 10
-90.26735106520997
 20
-572.1945466930641
 30
0.0
 11
-90.26735106520997
 21
-571.4732218276589
 31
0.0
  0
LINE
  5
224
330
3C
100
AcDbEntity
  8
1
  6
Continuous
 62
     3
100
AcDbLine
 10
-81.26735106520997
 20
-571.1845466930641
 30
0.0
 11
-89.76735106520997
 21
-571.1845466930641
 31
0.0
  0
LINE
  5
225
330
3C
100
AcDbEntity
  8
1
  6
Continuous
 62
     3
100
AcDbLine
 10
-89.18307063986381
 20
-572.1945466930641
 30
0.0
 11
-89.18307063986381
 21
-581.1845466930641
 31
0.0
  0
LINE
  5
226
330
3C
100
AcDbEntity
  8
1
  6
Continuous
 62
     3
100
AcDbLine
 10
-80.76735106520997
 20
-572.1945466930641
 30
0.0
 11
-80.76735106520997
 21
-581.1845466930641
 31
0.0
  0
LINE
  5
227
330
3C
100
AcDbEntity
  8
1
  6
Continuous
 62
     3
100
AcDbLine
 10
-89.76735106520997
 20
-571.1845466930641
 30
0.0
 11
-90.26735106520997
 21
-571.4732218276589
 31
0.0
  0
LINE
  5
228
330
3C
100
AcDbEntity
  8
1
  6
Continuous
 62
     3
100
AcDbLine
 10
-80.76735106520985
 20
-571.4732218276589
 30
0.0
 11
-81.26735106520997
 21
-571.1845466930641
 31
0.0
  0
LINE
  5
229
330
3C
100
AcDbEntity
  8
1
  6
Continuous
 62
     3
100
AcDbLine
 10
-80.76735106520997
 20
-572.1945466930641
 30
0.0
 11
-81.85163149055623
 21
-572.1945466930641
 31
0.0
  0
LINE
  5
22A
330
3C
100
AcDbEntity
  8
1
  6
Continuous
 62
     3
100
AcDbLine
 10
-81.85163149055623
 20
-581.1845466930641
 30
0.0
 11
-81.85163149055623
 21
-572.1945466930641
 31
0.0
  0
LINE
  5
22B
330
3C
100
AcDbEntity
  8
1
  6
Continuous
 62
     3
100
AcDbLine
 10
-80.76735106520985
 20
-571.4732218276589
 30
0.0
 11
-80.76735106520997
 21
-572.1945466930641
 31
0.0
  0
LINE
  5
22C
330
3C
100
AcDbEntity
  8
1
  6
Continuous
 62
     3
100
AcDbLine
 10
-89.18307063986381
 20
-572.1945466930641
 30
0.0
 11
-90.26735106520997
 21
-572.1945466930641
 31
0.0
  0
LINE
  5
22D
330
3C
100
AcDbEntity
  8
1
  6
Continuous
 62
     3
100
AcDbLine
 10
-90.26735106520985
 20
-572.6845466930641
 30
0.0
 11
-90.26735106520997
 21
-572.1945466930641
 31
0.0
  0
LINE
  5
22E
330
3C
100
AcDbEntity
  8
1
  6
Continuous
 62
     2
100
AcDbLine
 10
-81.85163149055623
 20
-581.1845466930641
 30
0.0
 11
-89.18307063986381
 21
-572.1945466930641
 31
0.0
  0
LINE
  5
22F
330
3C
100
AcDbEntity
  8
1
  6
Continuous
 62
     3
100
AcDbLine
 10
-80.76735106520997
 20
-581.1845466930641
 30
0.0
 11
-81.85163149055623
 21
-581.1845466930641
 31
0.0
  0
LINE
  5
230
330
3C
100
AcDbEntity
  8
1
  6
Continuous
 62
     2
100
AcDbLine
 10
-81.85163149055623
 20
-572.1945466930641
 30
0.0
 11
-89.18307063986381
 21
-581.1845466930641
 31
0.0
  0
LINE
  5
231
330
3C
100
AcDbEntity
  8
1
  6
Continuous
 62
     3
100
AcDbLine
 10
-81.85163149055623
 20
-581.1845466930641
 30
0.0
 11
-89.18307063986381
 21
-581.1845466930641
 31
0.0
  0
LINE
  5
232
330
3C
100
AcDbEntity
  8
1
  6
Continuous
 62
     3
100
AcDbLine
 10
-79.51735106520997
 20
-584.6845466930641
 30
0.0
 11
-79.51735106520997
 21
-581.1845466930641
 31
0.0
  0
LINE
  5
233
330
3C
100
AcDbEntity
  8
1
  6
Continuous
 62
     3
100
AcDbLine
 10
-91.51735106520997
 20
-584.6845466930641
 30
0.0
 11
-91.51735106520985
 21
-581.1845466930641
 31
0.0
  0
LINE
  5
234
330
3C
100
AcDbEntity
  8
1
  6
DASH_CENTER
 62
     1
100
AcDbLine
 10
-85.51735106520997
 20
-568.1845466930641
 30
0.0
 11
-85.51735106520997
 21
-589.0448257138941
 31
0.0
  0
LINE
  5
235
330
3C
100
AcDbEntity
  8
1
  6
DOT_CENTER
 62
     1
100
AcDbLine
 10
-252.5173510652099
 20
-516.318579632739
 30
0.0
 11
-252.5173510652099
 21
-534.318579632739
 31
0.0
  0
LINE
  5
236
330
3C
100
AcDbEntity
  8
1
  6
Continuous
 62
     3
100
AcDbLine
 10
-256.1830706398637
 20
-520.568579632739
 30
0.0
 11
-248.8516314905561
 21
-520.568579632739
 31
0.0
  0
LINE
  5
237
330
3C
100
AcDbEntity
  8
1
  6
Continuous
 62
     3
100
AcDbLine
 10
-248.8516314905561
 20
-530.068579632739
 30
0.0
 11
-256.1830706398637
 21
-530.068579632739
 31
0.0
  0
LINE
  5
238
330
3C
100
AcDbEntity
  8
1
  6
Continuous
 62
     3
100
AcDbLine
 10
-247.7673510652099
 20
-521.6528600580851
 30
0.0
 11
-247.7673510652099
 21
-524.318579632739
 31
0.0
  0
LINE
  5
239
330
3C
100
AcDbEntity
  8
1
  6
Continuous
 62
     3
100
AcDbLine
 10
-257.2673510652099
 20
-528.9842992073927
 30
0.0
 11
-257.2673510652099
 21
-521.6528600580851
 31
0.0
  0
LINE
  5
23A
330
3C
100
AcDbEntity
  8
1
  6
DOT_CENTER
 62
     1
100
AcDbLine
 10
-242.91735106521
 20
-525.318579632739
 30
0.0
 11
-262.11735106521
 21
-525.318579632739
 31
0.0
  0
LINE
  5
23B
330
3C
100
AcDbEntity
  8
1
  6
Continuous
 62
     3
100
AcDbLine
 10
-247.7673510652099
 20
-524.318579632739
 30
0.0
 11
-247.7673510652099
 21
-528.9842992073927
 31
0.0
  0
ARC
  5
23C
330
3C
100
AcDbEntity
  8
1
  6
Continuous
 62
     3
100
AcDbCircle
 10
-332.0173510652099
 20
-581.5831482427337
 30
0.0
 40
9.675120206490783
100
AcDbArc
 50
67.73561128814239
 51
112.2643887118588
  0
ARC
  5
23D
330
3C
100
AcDbEntity
  8
1
  6
Continuous
 62
     3
100
AcDbCircle
 10
-252.5173510652099
 20
-581.5831482427337
 30
0.0
 40
9.675120206490794
100
AcDbArc
 50
67.73561128814225
 51
112.2643887118587
  0
ARC
  5
23E
330
3C
100
AcDbEntity
  8
1
  6
Continuous
 62
     3
100
AcDbCircle
 10
-169.0173510652099
 20
-581.5831482427337
 30
0.0
 40
9.675120206490794
100
AcDbArc
 50
67.73561128814225
 51
112.2643887118587
  0
ARC
  5
23F
330
3C
100
AcDbEntity
  8
1
  6
Continuous
 62
     3
100
AcDbCircle
 10
-85.51735106520997
 20
-581.1483420341498
 30
0.0
 40
9.675120206490805
100
AcDbArc
 50
67.7356112881421
 51
112.2643887118585
  0
CIRCLE
  5
240
330
3C
100
AcDbEntity
  8
1
  6
Continuous
 62
     3
100
AcDbCircle
 10
-252.5173510652099
 20
-525.318579632739
 30
0.0
 40
5.999999999999941
  0
CIRCLE
  5
241
330
3C
100
AcDbEntity
  8
1
  6
Continuous
 62
     3
100
AcDbCircle
 10
-252.5173510652099
 20
-525.318579632739
 30
0.0
 40
4.250000000000085
  0
ENDBLK
  5
3E
330
3C
100
AcDbEntity
  8
0
100
AcDbBlockEnd
  0
BLOCK
  5
24D
330
244
100
AcDbEntity
  8
0
100
AcDbBlockBegin
  2
*D05
 70
     1
 71
     0
 10
0.0
 20
0.0
 30
0.0
  3
*D05
  1

  0
LINE
  5
245
330
244
100
AcDbEntity
  8
1
  6
Continuous
 62
     2
100
AcDbLine
 10
-252.5173510652099
 20
-669.634759439464
 30
0.0
 11
-282.0173510652099
 21
-669.634759439464
 31
0.0
  0
LINE
  5
246
330
244
100
AcDbEntity
  8
1
  6
Continuous
 62
     2
100
AcDbLine
 10
-282.0173510652099
 20
-658.6193529016481
 30
0.0
 11
-282.0173510652099
 21
-670.634759439464
 31
0.0
  0
LINE
  5
247
330
244
100
AcDbEntity
  8
1
  6
Continuous
 62
     2
100
AcDbLine
 10
-252.5173510652099
 20
-662.6193529016481
 30
0.0
 11
-252.5173510652099
 21
-670.634759439464
 31
0.0
  0
LINE
  5
248
330
244
100
AcDbEntity
  8
1
 62
     2
100
AcDbLine
 10
-252.5173510652099
 20
-669.634759439464
 30
0.0
 11
-256.0173510652099
 21
-670.572581612973
 31
0.0
  0
LINE
  5
249
330
244
100
AcDbEntity
  8
1
 62
     2
100
AcDbLine
 10
-252.5173510652099
 20
-669.634759439464
 30
0.0
 11
-256.0173510652099
 21
-668.6969372659551
 31
0.0
  0
LINE
  5
24A
330
244
100
AcDbEntity
  8
1
 62
     2
100
AcDbLine
 10
-282.0173510652099
 20
-669.634759439464
 30
0.0
 11
-278.5173510652099
 21
-668.6969372659551
 31
0.0
  0
LINE
  5
24B
330
244
100
AcDbEntity
  8
1
 62
     2
100
AcDbLine
 10
-282.0173510652099
 20
-669.634759439464
 30
0.0
 11
-278.5173510652099
 21
-670.572581612973
 31
0.0
  0
MTEXT
  5
24C
330
244
100
AcDbEntity
  8
1
 62
     2
100
AcDbMText
 10
-272.450015724304
 20
-668.034759439464
 30
0.0
 40
3.5
 41
0.0
 71
     7
 72
     1
  1
29.5
  7
CONVERTER_4
 11
0.9999999999970621
 21
2.424068405545307E-6
 31
0.0
 73
     1
 44
0.60024009603842
  0
ENDBLK
  5
24E
330
244
100
AcDbEntity
  8
0
100
AcDbBlockEnd
  0
BLOCK
  5
250
330
24F
100
AcDbEntity
  8
0
100
AcDbBlockBegin
  2
_Open30
 70
     0
 71
     0
 10
0.0
 20
0.0
 30
0.0
  3
_Open30
  1

  0
LINE
  5
252
330
24F
100
AcDbEntity
  8
0
  6
ByBlock
 62
     0
370
    -2
100
AcDbLine
 10
-1.0
 20
0.267949
 30
0.0
 11
0.0
 21
0.0
 31
0.0
  0
LINE
  5
253
330
24F
100
AcDbEntity
  8
0
  6
ByBlock
 62
     0
370
    -2
100
AcDbLine
 10
0.0
 20
0.0
 30
0.0
 11
-1.0
 21
-0.267949
 31
0.0
  0
LINE
  5
254
330
24F
100
AcDbEntity
  8
0
  6
ByBlock
 62
     0
370
    -2
100
AcDbLine
 10
0.0
 20
0.0
 30
0.0
 11
-1.0
 21
0.0
 31
0.0
  0
ENDBLK
  5
251
330
24F
100
AcDbEntity
  8
0
100
AcDbBlockEnd
  0
BLOCK
  5
260
330
257
100
AcDbEntity
  8
0
100
AcDbBlockBegin
  2
*D17
 70
     1
 71
     0
 10
0.0
 20
0.0
 30
0.0
  3
*D17
  1

  0
LINE
  5
258
330
257
100
AcDbEntity
  8
1
  6
Continuous
 62
     2
100
AcDbLine
 10
-282.0173510652099
 20
-678.855485813297
 30
0.0
 11
-219.0173510652099
 21
-678.855485813297
 31
0.0
  0
LINE
  5
259
330
257
100
AcDbEntity
  8
1
  6
Continuous
 62
     2
100
AcDbLine
 10
-219.0173510652099
 20
-658.6193529016481
 30
0.0
 11
-219.0173510652099
 21
-679.855485813297
 31
0.0
  0
LINE
  5
25A
330
257
100
AcDbEntity
  8
1
  6
Continuous
 62
     2
100
AcDbLine
 10
-282.0173510652099
 20
-658.6193529016481
 30
0.0
 11
-282.0173510652099
 21
-679.855485813297
 31
0.0
  0
LINE
  5
25B
330
257
100
AcDbEntity
  8
1
 62
     2
100
AcDbLine
 10
-282.0173510652099
 20
-678.855485813297
 30
0.0
 11
-278.5173510652099
 21
-677.9176636397881
 31
0.0
  0
LINE
  5
25C
330
257
100
AcDbEntity
  8
1
 62
     2
100
AcDbLine
 10
-282.0173510652099
 20
-678.855485813297
 30
0.0
 11
-278.5173510652099
 21
-679.793307986806
 31
0.0
  0
LINE
  5
25D
330
257
100
AcDbEntity
  8
1
 62
     2
100
AcDbLine
 10
-219.0173510652099
 20
-678.855485813297
 30
0.0
 11
-222.5173510652099
 21
-679.793307986806
 31
0.0
  0
LINE
  5
25E
330
257
100
AcDbEntity
  8
1
 62
     2
100
AcDbLine
 10
-219.0173510652099
 20
-678.855485813297
 30
0.0
 11
-222.5173510652099
 21
-677.9176636397881
 31
0.0
  0
MTEXT
  5
25F
330
257
100
AcDbEntity
  8
1
 62
     2
100
AcDbMText
 10
-251.864812976638
 20
-677.255485813297
 30
0.0
 40
3.5
 41
0.0
 71
     7
 72
     1
  1
63
  7
CONVERTER_4
 11
0.9999999999970621
 21
2.424068405545307E-6
 31
0.0
 73
     1
 44
0.60024009603842
  0
ENDBLK
  5
261
330
257
100
AcDbEntity
  8
0
100
AcDbBlockEnd
  0
BLOCK
  5
26D
330
264
100
AcDbEntity
  8
0
100
AcDbBlockBegin
  2
*D28
 70
     1
 71
     0
 10
0.0
 20
0.0
 30
0.0
  3
*D28
  1

  0
LINE
  5
265
330
264
100
AcDbEntity
  8
1
  6
Continuous
 62
     2
100
AcDbLine
 10
-293.390524599414
 20
-644.1193529016481
 30
0.0
 11
-293.390524599414
 21
-596.6193529016481
 31
0.0
  0
LINE
  5
266
330
264
100
AcDbEntity
  8
1
  6
Continuous
 62
     2
100
AcDbLine
 10
-273.5173510652099
 20
-596.6193529016481
 30
0.0
 11
-294.390524599414
 21
-596.6193529016481
 31
0.0
  0
LINE
  5
267
330
264
100
AcDbEntity
  8
1
  6
Continuous
 62
     2
100
AcDbLine
 10
-287.0173510652099
 20
-644.1193529016481
 30
0.0
 11
-294.390524599414
 21
-644.1193529016481
 31
0.0
  0
LINE
  5
268
330
264
100
AcDbEntity
  8
1
 62
     2
100
AcDbLine
 10
-293.390524599414
 20
-644.1193529016481
 30
0.0
 11
-294.3283467729229
 21
-640.6193529016481
 31
0.0
  0
LINE
  5
269
330
264
100
AcDbEntity
  8
1
 62
     2
100
AcDbLine
 10
-293.390524599414
 20
-644.1193529016481
 30
0.0
 11
-292.452702425905
 21
-640.6193529016481
 31
0.0
  0
LINE
  5
26A
330
264
100
AcDbEntity
  8
1
 62
     2
100
AcDbLine
 10
-293.390524599414
 20
-596.6193529016481
 30
0.0
 11
-292.452702425905
 21
-600.1193529016481
 31
0.0
  0
LINE
  5
26B
330
264
100
AcDbEntity
  8
1
 62
     2
100
AcDbLine
 10
-293.390524599414
 20
-596.6193529016481
 30
0.0
 11
-294.3283467729229
 21
-600.1193529016481
 31
0.0
  0
MTEXT
  5
26C
330
264
100
AcDbEntity
  8
1
 62
     2
100
AcDbMText
 10
-294.990524599414
 20
-622.4351340137999
 30
0.0
 40
3.5
 41
0.0
 71
     7
 72
     1
  1
47.5
  7
CONVERTER_4
 11
0.0
 21
1.0
 31
0.0
 73
     1
 44
0.60024009603842
  0
ENDBLK
  5
26E
330
264
100
AcDbEntity
  8
0
100
AcDbBlockEnd
  0
BLOCK
  5
27A
330
271
100
AcDbEntity
  8
0
100
AcDbBlockBegin
  2
*D39
 70
     1
 71
     0
 10
0.0
 20
0.0
 30
0.0
  3
*D39
  1

  0
LINE
  5
272
330
271
100
AcDbEntity
  8
1
  6
Continuous
 62
     2
100
AcDbLine
 10
-293.390524599414
 20
-596.6193529016481
 30
0.0
 11
-293.390524599414
 21
-571.6193529016481
 31
0.0
  0
LINE
  5
273
330
271
100
AcDbEntity
  8
1
  6
Continuous
 62
     2
100
AcDbLine
 10
-257.7673510652099
 20
-571.6193529016481
 30
0.0
 11
-294.390524599414
 21
-571.6193529016481
 31
0.0
  0
LINE
  5
274
330
271
100
AcDbEntity
  8
1
  6
Continuous
 62
     2
100
AcDbLine
 10
-273.5173510652099
 20
-596.6193529016481
 30
0.0
 11
-294.390524599414
 21
-596.6193529016481
 31
0.0
  0
LINE
  5
275
330
271
100
AcDbEntity
  8
1
 62
     2
100
AcDbLine
 10
-293.390524599414
 20
-596.6193529016481
 30
0.0
 11
-294.3283467729229
 21
-593.1193529016481
 31
0.0
  0
LINE
  5
276
330
271
100
AcDbEntity
  8
1
 62
     2
100
AcDbLine
 10
-293.390524599414
 20
-596.6193529016481
 30
0.0
 11
-292.452702425905
 21
-593.1193529016481
 31
0.0
  0
LINE
  5
277
330
271
100
AcDbEntity
  8
1
 62
     2
100
AcDbLine
 10
-293.390524599414
 20
-571.6193529016481
 30
0.0
 11
-292.452702425905
 21
-575.1193529016481
 31
0.0
  0
LINE
  5
278
330
271
100
AcDbEntity
  8
1
 62
     2
100
AcDbLine
 10
-293.390524599414
 20
-571.6193529016481
 30
0.0
 11
-294.3283467729229
 21
-575.1193529016481
 31
0.0
  0
MTEXT
  5
279
330
271
100
AcDbEntity
  8
1
 62
     2
100
AcDbMText
 10
-294.990524599414
 20
-587.0408858778581
 30
0.0
 40
3.5
 41
0.0
 71
     7
 72
     1
  1
25
  7
CONVERTER_4
 11
0.0
 21
1.0
 31
0.0
 73
     1
 44
0.60024009603842
  0
ENDBLK
  5
27B
330
271
100
AcDbEntity
  8
0
100
AcDbBlockEnd
  0
ENDSEC
  0
SECTION
  2
ENTITIES
  0
INSERT
  5
3F
330
1F
100
AcDbEntity
  8
0
100
AcDbBlockReference
  2
Top__1
 10
214.937044601524
 20
-705.2917467707
 30
0.0
  0
INSERT
  5
40
330
1F
100
AcDbEntity
  8
0
100
AcDbBlockReference
  2
Top__2
 10
607.9856240437593
 20
-574.4444534166655
 30
0.0
  0
INSERT
  5
41
330
1F
100
AcDbEntity
  8
1
100
AcDbBlockReference
  2
_2
 10
-422.5699444074461
 20
-596.6193529016481
 30
0.0
  0
INSERT
  5
42
330
1F
100
AcDbEntity
  8
1
100
AcDbBlockReference
  2
_3
 10
-338.0173510652099
 20
-589.479631922478
 30
0.0
  0
TEXT
  5
243
330
1F
100
AcDbEntity
  8
1
 62
     3
100
AcDbText
 10
-359.556989416077
 20
-680.763405609809
 30
0.0
 40
5.0
  1
VY5302A001X
 41
1.08
  7
CONVERTER_5
100
AcDbText
  0
DIMENSION
  5
256
330
1F
100
AcDbEntity
  8
1
100
AcDbDimension
  2
*D05
 10
-252.5173510652099
 20
-669.634759439464
 30
0.0
 11
-267.681265724304
 21
-666.284759439464
 31
0.0
 70
    32
  1
<>
 71
     5
 42
-1.0
 53
0.00013888888889
  3
ME10_DIM_0
100
AcDbAlignedDimension
 13
-282.0173510652099
 23
-657.6193529016481
 33
0.0
 14
-252.5173510652099
 24
-661.6193529016481
 34
0.0
100
AcDbRotatedDimension
  0
DIMENSION
  5
263
330
1F
100
AcDbEntity
  8
1
100
AcDbDimension
  2
*D17
 10
-282.0173510652099
 20
-678.855485813297
 30
0.0
 11
-249.239812976638
 21
-675.505485813297
 31
0.0
 70
    32
  1
<>
 71
     5
 42
-1.0
 53
0.00013888888889
  3
ME10_DIM_1
100
AcDbAlignedDimension
 13
-219.0173510652099
 23
-657.6193529016481
 33
0.0
 14
-282.0173510652099
 24
-657.6193529016481
 34
0.0
100
AcDbRotatedDimension
  0
DIMENSION
  5
270
330
1F
100
AcDbEntity
  8
1
100
AcDbDimension
  2
*D28
 10
-293.390524599414
 20
-644.1193529016481
 30
0.0
 11
-296.740524599414
 21
-617.6663840138
 31
0.0
 70
    32
  1
<>
 71
     5
 42
-1.0
 53
90.0
  3
ME10_DIM_2
100
AcDbAlignedDimension
 13
-272.5173510652099
 23
-596.6193529016481
 33
0.0
 14
-286.0173510652099
 24
-644.1193529016481
 34
0.0
 50
90.0
100
AcDbRotatedDimension
  0
DIMENSION
  5
27D
330
1F
100
AcDbEntity
  8
1
100
AcDbDimension
  2
*D39
 10
-293.390524599414
 20
-596.6193529016481
 30
0.0
 11
-296.740524599414
 21
-584.4158858778581
 31
0.0
 70
    32
  1
<>
 71
     5
 42
-1.0
 53
90.0
  3
ME10_DIM_3
100
AcDbAlignedDimension
 13
-256.7673510652099
 23
-571.6193529016481
 33
0.0
 14
-272.5173510652099
 24
-596.6193529016481
 34
0.0
 50
90.0
100
AcDbRotatedDimension
  0
ENDSEC
  0
SECTION
  2
OBJECTS
  0
DICTIONARY
  5
C
330
0
100
AcDbDictionary
281
     1
  3
ACAD_GROUP
350
D
  3
ACAD_LAYOUT
350
1A
  3
ACAD_MLINESTYLE
350
17
  3
ACAD_PLOTSETTINGS
350
19
  3
ACAD_PLOTSTYLENAME
350
E
  0
DICTIONARY
  5
D
102
{ACAD_REACTORS
330
C
102
}
330
C
100
AcDbDictionary
281
     1
  0
DICTIONARY
  5
1A
102
{ACAD_REACTORS
330
C
102
}
330
C
100
AcDbDictionary
281
     1
  3
Layout1
350
1E
  3
Layout2
350
26
  3
Model
350
22
  0
DICTIONARY
  5
17
102
{ACAD_REACTORS
330
C
102
}
330
C
100
AcDbDictionary
281
     1
  3
Standard
350
18
  0
DICTIONARY
  5
19
102
{ACAD_REACTORS
330
C
102
}
330
C
100
AcDbDictionary
281
     1
  0
ACDBDICTIONARYWDFLT
  5
E
102
{ACAD_REACTORS
330
C
102
}
330
C
100
AcDbDictionary
281
     1
  3
Normal
350
F
100
AcDbDictionaryWithDefault
340
F
  0
LAYOUT
  5
1E
102
{ACAD_REACTORS
330
1A
102
}
330
1A
100
AcDbPlotSettings
  1

  2

  4

  6

 40
0.0
 41
0.0
 42
0.0
 43
0.0
 44
0.0
 45
0.0
 46
0.0
 47
0.0
 48
0.0
 49
0.0
140
0.0
141
0.0
142
1.0
143
1.0
 70
   688
 72
     0
 73
     0
 74
     5
  7

 75
    16
147
1.0
148
0.0
149
0.0
100
AcDbLayout
  1
Layout1
 70
     1
 71
     1
 10
0.0
 20
0.0
 11
0.0
 21
0.0
 12
0.0
 22
0.0
 32
0.0
 14
0.0
 24
0.0
 34
0.0
 15
0.0
 25
0.0
 35
0.0
146
0.0
 13
0.0
 23
0.0
 33
0.0
 16
1.0
 26
0.0
 36
0.0
 17
0.0
 27
1.0
 37
0.0
 76
     0
330
1B
  0
LAYOUT
  5
26
102
{ACAD_REACTORS
330
1A
102
}
330
1A
100
AcDbPlotSettings
  1

  2

  4

  6

 40
0.0
 41
0.0
 42
0.0
 43
0.0
 44
0.0
 45
0.0
 46
0.0
 47
0.0
 48
0.0
 49
0.0
140
0.0
141
0.0
142
1.0
143
1.0
 70
   688
 72
     0
 73
     0
 74
     5
  7

 75
    16
147
1.0
148
0.0
149
0.0
100
AcDbLayout
  1
Layout2
 70
     1
 71
     2
 10
0.0
 20
0.0
 11
0.0
 21
0.0
 12
0.0
 22
0.0
 32
0.0
 14
0.0
 24
0.0
 34
0.0
 15
0.0
 25
0.0
 35
0.0
146
0.0
 13
0.0
 23
0.0
 33
0.0
 16
1.0
 26
0.0
 36
0.0
 17
0.0
 27
1.0
 37
0.0
 76
     0
330
23
  0
LAYOUT
  5
22
102
{ACAD_REACTORS
330
1A
102
}
330
1A
100
AcDbPlotSettings
  1

  2

  4

  6

 40
0.0
 41
0.0
 42
0.0
 43
0.0
 44
0.0
 45
0.0
 46
0.0
 47
0.0
 48
0.0
 49
0.0
140
0.0
141
0.0
142
1.0
143
1.0
 70
  1712
 72
     0
 73
     0
 74
     0
  7

 75
     0
147
1.0
148
0.0
149
0.0
100
AcDbLayout
  1
Model
 70
     1
 71
     0
 10
0.0
 20
0.0
 11
0.0
 21
0.0
 12
0.0
 22
0.0
 32
0.0
 14
-359.556989416077
 24
-680.763405609809
 34
0.0
 15
-52.01735106520997
 25
-502.318579632739
 35
0.0
146
0.0
 13
0.0
 23
0.0
 33
0.0
 16
1.0
 26
0.0
 36
0.0
 17
0.0
 27
1.0
 37
0.0
 76
     0
330
1F
  0
MLINESTYLE
  5
18
102
{ACAD_REACTORS
330
17
102
}
330
17
100
AcDbMlineStyle
  2
Standard
 70
     0
  3

 62
   256
 51
90.0
 52
90.0
 71
     2
 49
0.5
 62
   256
  6
BYLAYER
 49
-0.5
 62
   256
  6
BYLAYER
  0
ACDBPLACEHOLDER
  5
F
102
{ACAD_REACTORS
330
E
102
}
330
E
  0
ENDSEC
  0
EOF
