  0
SECTION
  2
HEADER
  9
$ACADVER
  1
AC1015
  9
$ACADMAINTVER
 70
     6
  9
$DWGCODEPAGE
  3
ANSI_1252
  9
$INSBASE
 10
0.0
 20
0.0
 30
0.0
  9
$EXTMIN
 10
-373.5214297646131
 20
-1122.04488829586
 30
0.0
  9
$EXTMAX
 10
-9.93626998412896
 20
-917.8124447880199
 30
0.0
  9
$LIMMIN
 10
0.0
 20
0.0
  9
$LIMMAX
 10
12.0
 20
9.0
  9
$ORTHOMODE
 70
     0
  9
$REGENMODE
 70
     1
  9
$FILLMODE
 70
     1
  9
$QTEXTMODE
 70
     0
  9
$MIRRTEXT
 70
     1
  9
$LTSCALE
 40
1.0
  9
$ATTMODE
 70
     1
  9
$TEXTSIZE
 40
0.2
  9
$TRACEWID
 40
0.05
  9
$TEXTSTYLE
  7
Standard
  9
$CLAYER
  8
0
  9
$CELTYPE
  6
ByLayer
  9
$CECOLOR
 62
   256
  9
$CELTSCALE
 40
1.0
  9
$DISPSILH
 70
     0
  9
$DIMSCALE
 40
1.0
  9
$DIMASZ
 40
0.18
  9
$DIMEXO
 40
0.0625
  9
$DIMDLI
 40
0.38
  9
$DIMRND
 40
0.0
  9
$DIMDLE
 40
0.0
  9
$DIMEXE
 40
0.18
  9
$DIMTP
 40
0.0
  9
$DIMTM
 40
0.0
  9
$DIMTXT
 40
0.18
  9
$DIMCEN
 40
0.09
  9
$DIMTSZ
 40
0.0
  9
$DIMTOL
 70
     0
  9
$DIMLIM
 70
     0
  9
$DIMTIH
 70
     1
  9
$DIMTOH
 70
     1
  9
$DIMSE1
 70
     0
  9
$DIMSE2
 70
     0
  9
$DIMTAD
 70
     0
  9
$DIMZIN
 70
     0
  9
$DIMBLK
  1

  9
$DIMASO
 70
     1
  9
$DIMSHO
 70
     1
  9
$DIMPOST
  1

  9
$DIMAPOST
  1

  9
$DIMALT
 70
     0
  9
$DIMALTD
 70
     2
  9
$DIMALTF
 40
25.4
  9
$DIMLFAC
 40
1.0
  9
$DIMTOFL
 70
     0
  9
$DIMTVP
 40
0.0
  9
$DIMTIX
 70
     0
  9
$DIMSOXD
 70
     0
  9
$DIMSAH
 70
     0
  9
$DIMBLK1
  1

  9
$DIMBLK2
  1

  9
$DIMSTYLE
  2
Standard
  9
$DIMCLRD
 70
     0
  9
$DIMCLRE
 70
     0
  9
$DIMCLRT
 70
     0
  9
$DIMTFAC
 40
1.0
  9
$DIMGAP
 40
0.09
  9
$DIMJUST
 70
     0
  9
$DIMSD1
 70
     0
  9
$DIMSD2
 70
     0
  9
$DIMTOLJ
 70
     1
  9
$DIMTZIN
 70
     0
  9
$DIMALTZ
 70
     0
  9
$DIMALTTZ
 70
     0
  9
$DIMUPT
 70
     0
  9
$DIMDEC
 70
     4
  9
$DIMTDEC
 70
     4
  9
$DIMALTU
 70
     2
  9
$DIMALTTD
 70
     2
  9
$DIMTXSTY
  7
Standard
  9
$DIMAUNIT
 70
     0
  9
$DIMADEC
 70
     0
  9
$DIMALTRND
 40
0.0
  9
$DIMAZIN
 70
     0
  9
$DIMDSEP
 70
    46
  9
$DIMATFIT
 70
     3
  9
$DIMFRAC
 70
     0
  9
$DIMLDRBLK
  1

  9
$DIMLUNIT
 70
     2
  9
$DIMLWD
 70
    -2
  9
$DIMLWE
 70
    -2
  9
$DIMTMOVE
 70
     0
  9
$LUNITS
 70
     2
  9
$LUPREC
 70
     4
  9
$SKETCHINC
 40
0.1
  9
$FILLETRAD
 40
0.5
  9
$AUNITS
 70
     0
  9
$AUPREC
 70
     0
  9
$MENU
  1
.
  9
$ELEVATION
 40
0.0
  9
$PELEVATION
 40
0.0
  9
$THICKNESS
 40
0.0
  9
$LIMCHECK
 70
     0
  9
$CHAMFERA
 40
0.5
  9
$CHAMFERB
 40
0.5
  9
$CHAMFERC
 40
1.0
  9
$CHAMFERD
 40
0.0
  9
$SKPOLY
 70
     0
  9
$TDCREATE
 40
2455064.563727928
  9
$TDUCREATE
 40
2455064.188727928
  9
$TDUPDATE
 40
2455064.56372794
  9
$TDUUPDATE
 40
2455064.18872794
  9
$TDINDWG
 40
0.0000000116
  9
$TDUSRTIMER
 40
0.0000000116
  9
$USRTIMER
 70
     1
  9
$ANGBASE
 50
0.0
  9
$ANGDIR
 70
     0
  9
$PDMODE
 70
     0
  9
$PDSIZE
 40
0.0
  9
$PLINEWID
 40
0.0
  9
$SPLFRAME
 70
     0
  9
$SPLINETYPE
 70
     6
  9
$SPLINESEGS
 70
     8
  9
$HANDSEED
  5
2CB
  9
$SURFTAB1
 70
     6
  9
$SURFTAB2
 70
     6
  9
$SURFTYPE
 70
     6
  9
$SURFU
 70
     6
  9
$SURFV
 70
     6
  9
$UCSBASE
  2

  9
$UCSNAME
  2

  9
$UCSORG
 10
0.0
 20
0.0
 30
0.0
  9
$UCSXDIR
 10
1.0
 20
0.0
 30
0.0
  9
$UCSYDIR
 10
0.0
 20
1.0
 30
0.0
  9
$UCSORTHOREF
  2

  9
$UCSORTHOVIEW
 70
     0
  9
$UCSORGTOP
 10
0.0
 20
0.0
 30
0.0
  9
$UCSORGBOTTOM
 10
0.0
 20
0.0
 30
0.0
  9
$UCSORGLEFT
 10
0.0
 20
0.0
 30
0.0
  9
$UCSORGRIGHT
 10
0.0
 20
0.0
 30
0.0
  9
$UCSORGFRONT
 10
0.0
 20
0.0
 30
0.0
  9
$UCSORGBACK
 10
0.0
 20
0.0
 30
0.0
  9
$PUCSBASE
  2

  9
$PUCSNAME
  2

  9
$PUCSORG
 10
0.0
 20
0.0
 30
0.0
  9
$PUCSXDIR
 10
1.0
 20
0.0
 30
0.0
  9
$PUCSYDIR
 10
0.0
 20
1.0
 30
0.0
  9
$PUCSORTHOREF
  2

  9
$PUCSORTHOVIEW
 70
     0
  9
$PUCSORGTOP
 10
0.0
 20
0.0
 30
0.0
  9
$PUCSORGBOTTOM
 10
0.0
 20
0.0
 30
0.0
  9
$PUCSORGLEFT
 10
0.0
 20
0.0
 30
0.0
  9
$PUCSORGRIGHT
 10
0.0
 20
0.0
 30
0.0
  9
$PUCSORGFRONT
 10
0.0
 20
0.0
 30
0.0
  9
$PUCSORGBACK
 10
0.0
 20
0.0
 30
0.0
  9
$USERI1
 70
     0
  9
$USERI2
 70
     0
  9
$USERI3
 70
     0
  9
$USERI4
 70
     0
  9
$USERI5
 70
     0
  9
$USERR1
 40
14.0
  9
$USERR2
 40
0.0
  9
$USERR3
 40
0.0
  9
$USERR4
 40
0.0
  9
$USERR5
 40
0.0
  9
$WORLDVIEW
 70
     1
  9
$SHADEDGE
 70
     3
  9
$SHADEDIF
 70
    70
  9
$TILEMODE
 70
     1
  9
$MAXACTVP
 70
    64
  9
$PINSBASE
 10
0.0
 20
0.0
 30
0.0
  9
$PLIMCHECK
 70
     0
  9
$PEXTMIN
 10
1.00000000000000E+20
 20
1.00000000000000E+20
 30
1.00000000000000E+20
  9
$PEXTMAX
 10
-1.00000000000000E+20
 20
-1.00000000000000E+20
 30
-1.00000000000000E+20
  9
$PLIMMIN
 10
0.0
 20
0.0
  9
$PLIMMAX
 10
12.0
 20
9.0
  9
$UNITMODE
 70
     0
  9
$VISRETAIN
 70
     1
  9
$PLINEGEN
 70
     0
  9
$PSLTSCALE
 70
     1
  9
$TREEDEPTH
 70
  3020
  9
$CMLSTYLE
  2
Standard
  9
$CMLJUST
 70
     0
  9
$CMLSCALE
 40
1.0
  9
$PROXYGRAPHICS
 70
     1
  9
$MEASUREMENT
 70
     1
  9
$CELWEIGHT
370
    -1
  9
$ENDCAPS
280
     0
  9
$JOINSTYLE
280
     0
  9
$LWDISPLAY
290
     0
  9
$INSUNITS
 70
     1
  9
$HYPERLINKBASE
  1

  9
$STYLESHEET
  1

  9
$XEDIT
290
     1
  9
$CEPSNTYPE
380
     0
  9
$PSTYLEMODE
290
     1
  9
$FINGERPRINTGUID
  2
{6A9A4D97-46BA-4FA3-9240-CB61A54F8130}
  9
$VERSIONGUID
  2
{FAEB1C32-E019-11D5-929B-00C0DF256EC4}
  9
$EXTNAMES
290
     1
  9
$PSVPSCALE
 40
0.0
  9
$OLESTARTUP
290
     0
  0
ENDSEC
  0
SECTION
  2
CLASSES
  0
CLASS
  1
ACDBDICTIONARYWDFLT
  2
AcDbDictionaryWithDefault
  3
ObjectDBX Classes
 90
        0
280
     0
281
     0
  0
CLASS
  1

  2
exOdDbCircle
  3

 90
        0
280
     0
281
     1
  0
CLASS
  1
ACDBPLACEHOLDER
  2
AcDbPlaceHolder
  3
ObjectDBX Classes
 90
        0
280
     0
281
     0
  0
CLASS
  1
LAYOUT
  2
AcDbLayout
  3
ObjectDBX Classes
 90
        0
280
     0
281
     0
  0
ENDSEC
  0
SECTION
  2
TABLES
  0
TABLE
  2
VPORT
  5
8
330
0
100
AcDbSymbolTable
 70
     1
  0
VPORT
  5
29
330
8
100
AcDbSymbolTableRecord
100
AcDbViewportTableRecord
  2
*Active
 70
     0
 10
0.0
 20
0.0
 11
1.0
 21
1.0
 12
-191.728849874371
 22
-1019.92866654194
 13
0.0
 23
0.0
 14
0.5
 24
0.5
 15
0.5
 25
0.5
 16
0.0
 26
0.0
 36
1.0
 17
0.0
 27
0.0
 37
0.0
 40
249.5470288855469
 41
1.60267857142857
 42
50.0
 43
0.0
 44
0.0
 50
0.0
 51
0.0
 71
     0
 72
   100
 73
     1
 74
     3
 75
     0
 76
     0
 77
     0
 78
     0
281
     0
 65
     1
110
0.0
120
0.0
130
0.0
111
1.0
121
0.0
131
0.0
112
0.0
122
1.0
132
0.0
 79
     0
146
0.0
  0
ENDTAB
  0
TABLE
  2
LTYPE
  5
5
330
0
100
AcDbSymbolTable
 70
     8
  0
LTYPE
  5
14
330
5
100
AcDbSymbolTableRecord
100
AcDbLinetypeTableRecord
  2
ByBlock
 70
     0
  3

 72
    65
 73
     0
 40
0.0
  0
LTYPE
  5
15
330
5
100
AcDbSymbolTableRecord
100
AcDbLinetypeTableRecord
  2
ByLayer
 70
     0
  3

 72
    65
 73
     0
 40
0.0
  0
LTYPE
  5
16
330
5
100
AcDbSymbolTableRecord
100
AcDbLinetypeTableRecord
  2
Continuous
 70
     0
  3
Solid line
 72
    65
 73
     0
 40
0.0
  0
LTYPE
  5
2A
330
5
100
AcDbSymbolTableRecord
100
AcDbLinetypeTableRecord
  2
DASHED
 70
     0
  3
Dashed
 72
    65
 73
     2
 40
15.0
 49
7.0
 74
     0
 49
-8.0
 74
     0
  0
LTYPE
  5
2B
330
5
100
AcDbSymbolTableRecord
100
AcDbLinetypeTableRecord
  2
DOTTED
 70
     0
  3
Dotted
 72
    65
 73
     2
 40
1.0
 49
0.0
 74
     0
 49
-1.0
 74
     0
  0
LTYPE
  5
2C
330
5
100
AcDbSymbolTableRecord
100
AcDbLinetypeTableRecord
  2
DOT_CENTER
 70
     0
  3
Dot_Center
 72
    65
 73
     4
 40
14.0
 49
12.0
 74
     0
 49
-1.0
 74
     0
 49
0.0
 74
     0
 49
-1.0
 74
     0
  0
LTYPE
  5
2D
330
5
100
AcDbSymbolTableRecord
100
AcDbLinetypeTableRecord
  2
LONG_DASHED
 70
     0
  3
Long_Dashed
 72
    65
 73
     2
 40
15.0
 49
10.0
 74
     0
 49
-5.0
 74
     0
  0
LTYPE
  5
2E
330
5
100
AcDbSymbolTableRecord
100
AcDbLinetypeTableRecord
  2
DASH_CENTER
 70
     0
  3
Dash_Center
 72
    65
 73
     4
 40
14.0
 49
11.0
 74
     0
 49
-1.0
 74
     0
 49
1.0
 74
     0
 49
-1.0
 74
     0
  0
LTYPE
  5
2F
330
5
100
AcDbSymbolTableRecord
100
AcDbLinetypeTableRecord
  2
PHANTOM
 70
     0
  3
Phantom
 72
    65
 73
     6
 40
13.0
 49
10.0
 74
     0
 49
-1.0
 74
     0
 49
0.0
 74
     0
 49
-1.0
 74
     0
 49
0.0
 74
     0
 49
-1.0
 74
     0
  0
LTYPE
  5
30
330
5
100
AcDbSymbolTableRecord
100
AcDbLinetypeTableRecord
  2
CENTER_DASH_DASH
 70
     0
  3
Center_Dash_Dash
 72
    65
 73
     6
 40
14.0
 49
9.0
 74
     0
 49
-1.0
 74
     0
 49
1.0
 74
     0
 49
-1.0
 74
     0
 49
1.0
 74
     0
 49
-1.0
 74
     0
  0
ENDTAB
  0
TABLE
  2
LAYER
  5
2
330
0
100
AcDbSymbolTable
 70
     3
  0
LAYER
  5
10
330
2
100
AcDbSymbolTableRecord
100
AcDbLayerTableRecord
  2
0
 70
     0
 62
     7
  6
Continuous
370
    -3
390
F
  0
LAYER
  5
31
330
2
100
AcDbSymbolTableRecord
100
AcDbLayerTableRecord
  2
1
 70
     0
 62
     7
  6
Continuous
370
    -3
390
F
  0
LAYER
  5
32
330
2
100
AcDbSymbolTableRecord
100
AcDbLayerTableRecord
  2
6_ALL_DRFT_GEOM
 70
     0
 62
     7
  6
Continuous
370
    -3
390
F
  0
ENDTAB
  0
TABLE
  2
STYLE
  5
3
330
0
100
AcDbSymbolTable
 70
     6
  0
STYLE
  5
11
330
3
100
AcDbSymbolTableRecord
100
AcDbTextStyleTableRecord
  2
Standard
 70
     0
 40
0.0
 41
1.0
 50
0.0
 71
     0
 42
0.2
  3
txt
  4

  0
STYLE
  5
1D1
330
3
100
AcDbSymbolTableRecord
100
AcDbTextStyleTableRecord
  2
CONVERTER_1
 70
     0
 40
0.0
 41
0.855
 50
0.0
 71
     0
 42
0.2
  3
complex.shx
  4

  0
STYLE
  5
1D3
330
3
100
AcDbSymbolTableRecord
100
AcDbTextStyleTableRecord
  2
CONVERTER_2
 70
     0
 40
0.0
 41
0.9975
 50
0.0
 71
     0
 42
0.2
  3
complex.shx
  4

  0
STYLE
  5
1D5
330
3
100
AcDbSymbolTableRecord
100
AcDbTextStyleTableRecord
  2
CONVERTER_3
 70
     0
 40
0.0
 41
0.95
 50
0.0
 71
     0
 42
0.2
  3
complex.shx
  4

  0
STYLE
  5
225
330
3
100
AcDbSymbolTableRecord
100
AcDbTextStyleTableRecord
  2
CONVERTER_4
 70
     0
 40
0.0
 41
0.9
 50
0.0
 71
     0
 42
0.2
  3
txt.shx
  4

  0
STYLE
  5
28F
330
3
100
AcDbSymbolTableRecord
100
AcDbTextStyleTableRecord
  2
CONVERTER_5
 70
     0
 40
0.0
 41
1.08
 50
0.0
 71
     0
 42
0.2
  3
txt.shx
  4

  0
ENDTAB
  0
TABLE
  2
VIEW
  5
6
330
0
100
AcDbSymbolTable
 70
     0
  0
ENDTAB
  0
TABLE
  2
UCS
  5
7
330
0
100
AcDbSymbolTable
 70
     0
  0
ENDTAB
  0
TABLE
  2
APPID
  5
9
330
0
100
AcDbSymbolTable
 70
     1
  0
APPID
  5
12
330
9
100
AcDbSymbolTableRecord
100
AcDbRegAppTableRecord
  2
ACAD
 70
     0
  0
ENDTAB
  0
TABLE
  2
DIMSTYLE
  5
A
330
0
100
AcDbSymbolTable
 70
     5
100
AcDbDimStyleTable
  0
DIMSTYLE
105
27
330
A
100
AcDbSymbolTableRecord
100
AcDbDimStyleTableRecord
  2
Standard
 70
     0
340
11
  0
DIMSTYLE
105
2A2
102
{ACAD_REACTORS
330
2A3
102
}
330
A
100
AcDbSymbolTableRecord
100
AcDbDimStyleTableRecord
  2
ME10_DIM_0
 70
     0
 41
3.5
 42
1.0
 44
1.0
 73
     0
 74
     0
 77
     1
 78
     8
140
3.5
147
1.6
172
     1
173
     1
176
     2
177
     2
178
     2
271
     3
340
225
343
29C
344
29C
  0
DIMSTYLE
105
2AF
102
{ACAD_REACTORS
330
2B0
102
}
330
A
100
AcDbSymbolTableRecord
100
AcDbDimStyleTableRecord
  2
ME10_DIM_1
 70
     0
 41
3.5
 42
1.0
 44
1.0
 73
     0
 74
     0
 77
     1
 78
     8
140
3.5
147
1.6
172
     1
173
     1
176
     2
177
     2
178
     2
271
     3
340
225
343
29C
344
29C
  0
DIMSTYLE
105
2BC
102
{ACAD_REACTORS
330
2BD
102
}
330
A
100
AcDbSymbolTableRecord
100
AcDbDimStyleTableRecord
  2
ME10_DIM_2
 70
     0
 41
3.5
 42
1.0
 44
1.0
 73
     0
 74
     0
 77
     1
 78
     8
140
3.5
147
1.6
172
     1
173
     1
176
     2
177
     2
178
     2
271
     3
340
225
343
29C
344
29C
  0
DIMSTYLE
105
2C9
102
{ACAD_REACTORS
330
2CA
102
}
330
A
100
AcDbSymbolTableRecord
100
AcDbDimStyleTableRecord
  2
ME10_DIM_3
 70
     0
 41
3.5
 42
1.0
 44
1.0
 73
     0
 74
     0
 77
     1
 78
     8
140
3.5
147
1.6
172
     1
173
     1
176
     2
177
     2
178
     2
271
     3
340
225
343
29C
344
29C
  0
ENDTAB
  0
TABLE
  2
BLOCK_RECORD
  5
1
330
0
100
AcDbSymbolTable
 70
    13
  0
BLOCK_RECORD
  5
1F
330
1
100
AcDbSymbolTableRecord
100
AcDbBlockTableRecord
  2
*Model_Space
340
22
  0
BLOCK_RECORD
  5
1B
330
1
100
AcDbSymbolTableRecord
100
AcDbBlockTableRecord
  2
*Paper_Space
340
1E
  0
BLOCK_RECORD
  5
23
330
1
100
AcDbSymbolTableRecord
100
AcDbBlockTableRecord
  2
*Paper_Space0
340
26
  0
BLOCK_RECORD
  5
33
330
1
100
AcDbSymbolTableRecord
100
AcDbBlockTableRecord
  2
Top__1
340
0
102
{BLKREFS
331
49
102
}
  0
BLOCK_RECORD
  5
36
330
1
100
AcDbSymbolTableRecord
100
AcDbBlockTableRecord
  2
Top__2
340
0
102
{BLKREFS
331
4A
102
}
  0
BLOCK_RECORD
  5
39
330
1
100
AcDbSymbolTableRecord
100
AcDbBlockTableRecord
  2
Top__3
340
0
102
{BLKREFS
331
4B
102
}
  0
BLOCK_RECORD
  5
3C
330
1
100
AcDbSymbolTableRecord
100
AcDbBlockTableRecord
  2
_2
340
0
102
{BLKREFS
331
4C
102
}
  0
BLOCK_RECORD
  5
3F
330
1
100
AcDbSymbolTableRecord
100
AcDbBlockTableRecord
  2
_3
340
0
102
{BLKREFS
331
4D
102
}
  0
BLOCK_RECORD
  5
42
330
1
100
AcDbSymbolTableRecord
100
AcDbBlockTableRecord
  2
Top__4
340
0
102
{BLKREFS
331
46
102
}
  0
BLOCK_RECORD
  5
45
330
1
100
AcDbSymbolTableRecord
100
AcDbBlockTableRecord
  2
TOP__5
340
0
102
{BLKREFS
331
4E
102
}
  0
BLOCK_RECORD
  5
291
330
1
100
AcDbSymbolTableRecord
100
AcDbBlockTableRecord
  2
*D08
340
0
  0
BLOCK_RECORD
  5
29C
330
1
100
AcDbSymbolTableRecord
100
AcDbBlockTableRecord
  2
_Open30
340
0
  0
BLOCK_RECORD
  5
2A4
330
1
100
AcDbSymbolTableRecord
100
AcDbBlockTableRecord
  2
*D110
340
0
  0
BLOCK_RECORD
  5
2B1
330
1
100
AcDbSymbolTableRecord
100
AcDbBlockTableRecord
  2
*D211
340
0
  0
BLOCK_RECORD
  5
2BE
330
1
100
AcDbSymbolTableRecord
100
AcDbBlockTableRecord
  2
*D312
340
0
  0
ENDTAB
  0
ENDSEC
  0
SECTION
  2
BLOCKS
  0
BLOCK
  5
20
330
1F
100
AcDbEntity
  8
0
100
AcDbBlockBegin
  2
*Model_Space
 70
     0
 71
     0
 10
0.0
 20
0.0
 30
0.0
  3
*Model_Space
  1

  0
ENDBLK
  5
21
330
1F
100
AcDbEntity
  8
0
100
AcDbBlockEnd
  0
BLOCK
  5
1C
330
1B
100
AcDbEntity
 67
     1
  8
0
100
AcDbBlockBegin
  2
*Paper_Space
 70
     0
 71
     0
 10
0.0
 20
0.0
 30
0.0
  3
*Paper_Space
  1

  0
ENDBLK
  5
1D
330
1B
100
AcDbEntity
 67
     1
  8
0
100
AcDbBlockEnd
  0
BLOCK
  5
24
330
23
100
AcDbEntity
  8
0
100
AcDbBlockBegin
  2
*Paper_Space0
 70
     0
 71
     0
 10
0.0
 20
0.0
 30
0.0
  3
*Paper_Space0
  1

  0
ENDBLK
  5
25
330
23
100
AcDbEntity
  8
0
100
AcDbBlockEnd
  0
BLOCK
  5
34
330
33
100
AcDbEntity
  8
0
100
AcDbBlockBegin
  2
Top__1
 70
     0
 71
     0
 10
149.958331977702
 20
-1076.65330111686
 30
0.0
  3
Top__1
  1

  0
LINE
  5
4F
330
33
100
AcDbEntity
  8
1
  6
Continuous
 62
     3
100
AcDbLine
 10
-212.9814526803477
 20
-945.81244478802
 30
0.0
 11
-225.0173510652099
 21
-945.81244478802
 31
0.0
  0
LINE
  5
50
330
33
100
AcDbEntity
  8
1
  6
Continuous
 62
     3
100
AcDbLine
 10
-212.9814526803477
 20
-1088.007609800685
 30
0.0
 11
-225.0173510652098
 21
-1088.007609800685
 31
0.0
  0
LINE
  5
51
330
33
100
AcDbEntity
  8
1
  6
Continuous
 62
     3
100
AcDbLine
 10
-212.9814526803477
 20
-1065.617279775356
 30
0.0
 11
-225.0173510652098
 21
-1065.617279775356
 31
0.0
  0
LINE
  5
52
330
33
100
AcDbEntity
  8
1
  6
Continuous
 62
     3
100
AcDbLine
 10
-98.4362699841289
 20
-1097.294495595589
 30
0.0
 11
-97.27120647466782
 21
-1099.31244478802
 31
0.0
  0
LINE
  5
53
330
33
100
AcDbEntity
  8
1
  6
Continuous
 62
     3
100
AcDbLine
 10
-97.27120647466782
 20
-1099.31244478802
 30
0.0
 11
-83.6683207916978
 21
-1099.31244478802
 31
0.0
  0
LINE
  5
54
330
33
100
AcDbEntity
  8
1
  6
Continuous
 62
     3
100
AcDbLine
 10
-97.27120647466782
 20
-1054.31244478802
 30
0.0
 11
-98.4362699841289
 21
-1056.330393980451
 31
0.0
  0
LINE
  5
55
330
33
100
AcDbEntity
  8
1
  6
Continuous
 62
     3
100
AcDbLine
 10
-83.66293784656696
 20
-1054.31244478802
 30
0.0
 11
-97.27120647466782
 21
-1054.31244478802
 31
0.0
  0
LINE
  5
56
330
33
100
AcDbEntity
  8
1
  6
Continuous
 62
     3
100
AcDbLine
 10
-81.93626998412893
 20
-1053.31244478802
 30
0.0
 11
-79.43626998412893
 21
-1053.31244478802
 31
0.0
  0
LINE
  5
57
330
33
100
AcDbEntity
  8
1
  6
Continuous
 62
     3
100
AcDbLine
 10
-82.93626998412893
 20
-1099.31244478802
 30
0.0
 11
-82.93626998412893
 21
-1098.31244478802
 31
0.0
  0
LINE
  5
58
330
33
100
AcDbEntity
  8
1
  6
Continuous
 62
     3
100
AcDbLine
 10
-78.93626998412893
 20
-1100.31244478802
 30
0.0
 11
-81.93626998412893
 21
-1100.31244478802
 31
0.0
  0
LINE
  5
59
330
33
100
AcDbEntity
  8
1
  6
Continuous
 62
     3
100
AcDbLine
 10
-78.93626998412893
 20
-1053.375953114916
 30
0.0
 11
-78.93626998412893
 21
-1057.01244478802
 31
0.0
  0
LINE
  5
5A
330
33
100
AcDbEntity
  8
1
  6
Continuous
 62
     3
100
AcDbLine
 10
-78.93626998412893
 20
-1096.61244478802
 30
0.0
 11
-78.93626998412893
 21
-1100.31244478802
 31
0.0
  0
LINE
  5
5B
330
33
100
AcDbEntity
  8
1
  6
Continuous
 62
     3
100
AcDbLine
 10
-98.43626998412893
 20
-1076.81244478802
 30
0.0
 11
-98.43626998412893
 21
-1097.31244478802
 31
0.0
  0
LINE
  5
5C
330
33
100
AcDbEntity
  8
1
  6
Continuous
 62
     3
100
AcDbLine
 10
-82.93626998412921
 20
-1076.81244478802
 30
0.0
 11
-82.93626998412947
 21
-1098.312444788018
 31
0.0
  0
LINE
  5
5D
330
33
100
AcDbEntity
  8
1
  6
Continuous
 62
     3
100
AcDbLine
 10
-82.93626998412921
 20
-1076.81244478802
 30
0.0
 11
-98.43626998412893
 21
-1076.81244478802
 31
0.0
  0
LINE
  5
5E
330
33
100
AcDbEntity
  8
1
  6
Continuous
 62
     3
100
AcDbLine
 10
-98.43626998412893
 20
-1056.31244478802
 30
0.0
 11
-98.43626998412893
 21
-1076.81244478802
 31
0.0
  0
LINE
  5
5F
330
33
100
AcDbEntity
  8
1
  6
Continuous
 62
     3
100
AcDbLine
 10
-82.93626998412893
 20
-1054.31244478802
 30
0.0
 11
-82.93626998412921
 21
-1076.81244478802
 31
0.0
  0
LINE
  5
60
330
33
100
AcDbEntity
  8
1
  6
DASH_CENTER
 62
     1
100
AcDbLine
 10
-153.9768105246695
 20
-1048.61244478802
 30
0.0
 11
-153.9768105246695
 21
-1105.01244478802
 31
0.0
  0
LINE
  5
61
330
33
100
AcDbEntity
  8
1
  6
DASH_CENTER
 62
     1
100
AcDbLine
 10
-125.7768105246695
 20
-1076.81244478802
 30
0.0
 11
-182.1768105246694
 21
-1076.81244478802
 31
0.0
  0
LINE
  5
62
330
33
100
AcDbEntity
  8
1
  6
Continuous
 62
     3
100
AcDbLine
 10
-171.1414688676391
 20
-1090.573785709933
 30
0.0
 11
-157.3121521816998
 21
-1098.558145421269
 31
0.0
  0
LINE
  5
63
330
33
100
AcDbEntity
  8
1
  6
Continuous
 62
     3
100
AcDbLine
 10
-150.6414688676391
 20
-1098.558145421269
 30
0.0
 11
-136.8121521816998
 21
-1090.573785709933
 31
0.0
  0
LINE
  5
64
330
33
100
AcDbEntity
  8
1
  6
Continuous
 62
     3
100
AcDbLine
 10
-133.4768105246695
 20
-1084.796804499356
 30
0.0
 11
-133.4768105246695
 21
-1068.828085076684
 31
0.0
  0
LINE
  5
65
330
33
100
AcDbEntity
  8
1
  6
Continuous
 62
     3
100
AcDbLine
 10
-136.8121521816998
 20
-1063.051103866107
 30
0.0
 11
-150.6414688676391
 21
-1055.066744154771
 31
0.0
  0
LINE
  5
66
330
33
100
AcDbEntity
  8
1
  6
Continuous
 62
     3
100
AcDbLine
 10
-174.4768105246695
 20
-1068.828085076684
 30
0.0
 11
-174.4768105246695
 21
-1084.796804499356
 31
0.0
  0
LINE
  5
67
330
33
100
AcDbEntity
  8
1
  6
Continuous
 62
     3
100
AcDbLine
 10
-157.3121521816997
 20
-1055.066744154771
 30
0.0
 11
-171.1414688676391
 21
-1063.051103866107
 31
0.0
  0
LINE
  5
68
330
33
100
AcDbEntity
  8
1
  6
Continuous
 62
     3
100
AcDbLine
 10
-225.0173510652099
 20
-924.31244478802
 30
0.0
 11
-225.0173510652099
 21
-967.31244478802
 31
0.0
  0
LINE
  5
69
330
33
100
AcDbEntity
  8
1
  6
Continuous
 62
     3
100
AcDbLine
 10
-225.0173510652096
 20
-1076.81244478802
 30
0.0
 11
-225.0173510652099
 21
-1054.31244478802
 31
0.0
  0
LINE
  5
6A
330
33
100
AcDbEntity
  8
1
  6
Continuous
 62
     3
100
AcDbLine
 10
-209.5173510652099
 20
-1076.81244478802
 30
0.0
 11
-209.5173510652099
 21
-1056.31244478802
 31
0.0
  0
LINE
  5
6B
330
33
100
AcDbEntity
  8
1
  6
Continuous
 62
     3
100
AcDbLine
 10
-225.0173510652094
 20
-1098.312444788018
 30
0.0
 11
-225.0173510652096
 21
-1076.81244478802
 31
0.0
  0
LINE
  5
6C
330
33
100
AcDbEntity
  8
1
  6
Continuous
 62
     3
100
AcDbLine
 10
-228.5173510652099
 20
-922.31244478802
 30
0.0
 11
-226.0173510652099
 21
-922.31244478802
 31
0.0
  0
LINE
  5
6D
330
33
100
AcDbEntity
  8
1
  6
Continuous
 62
     3
100
AcDbLine
 10
-225.0173510652099
 20
-924.31244478802
 30
0.0
 11
-225.0173510652099
 21
-923.31244478802
 31
0.0
  0
LINE
  5
6E
330
33
100
AcDbEntity
  8
1
  6
Continuous
 62
     3
100
AcDbLine
 10
-225.0173510652099
 20
-967.31244478802
 30
0.0
 11
-225.0173510652099
 21
-968.31244478802
 31
0.0
  0
LINE
  5
6F
330
33
100
AcDbEntity
  8
1
  6
Continuous
 62
     3
100
AcDbLine
 10
-226.0173510652099
 20
-969.31244478802
 30
0.0
 11
-229.0173510652099
 21
-969.31244478802
 31
0.0
  0
LINE
  5
70
330
33
100
AcDbEntity
  8
1
  6
Continuous
 62
     3
100
AcDbLine
 10
-229.0173510652099
 20
-926.0124447880201
 30
0.0
 11
-229.0173510652099
 21
-922.3759531149162
 31
0.0
  0
LINE
  5
71
330
33
100
AcDbEntity
  8
1
  6
Continuous
 62
     3
100
AcDbLine
 10
-229.0173510652099
 20
-969.31244478802
 30
0.0
 11
-229.0173510652099
 21
-965.61244478802
 31
0.0
  0
LINE
  5
72
330
33
100
AcDbEntity
  8
1
  6
Continuous
 62
     3
100
AcDbLine
 10
-209.5173510652099
 20
-1097.31244478802
 30
0.0
 11
-209.5173510652099
 21
-1076.81244478802
 31
0.0
  0
LINE
  5
73
330
33
100
AcDbEntity
  8
1
  6
Continuous
 62
     3
100
AcDbLine
 10
-229.0173510652099
 20
-1100.31244478802
 30
0.0
 11
-229.0173510652099
 21
-1096.61244478802
 31
0.0
  0
LINE
  5
74
330
33
100
AcDbEntity
  8
1
  6
Continuous
 62
     3
100
AcDbLine
 10
-229.0173510652099
 20
-1057.01244478802
 30
0.0
 11
-229.0173510652099
 21
-1053.375953114916
 31
0.0
  0
LINE
  5
75
330
33
100
AcDbEntity
  8
1
  6
Continuous
 62
     3
100
AcDbLine
 10
-226.0173510652099
 20
-1100.31244478802
 30
0.0
 11
-229.0173510652099
 21
-1100.31244478802
 31
0.0
  0
LINE
  5
76
330
33
100
AcDbEntity
  8
1
  6
Continuous
 62
     3
100
AcDbLine
 10
-225.0173510652099
 20
-1098.31244478802
 30
0.0
 11
-225.0173510652099
 21
-1099.31244478802
 31
0.0
  0
LINE
  5
77
330
33
100
AcDbEntity
  8
1
  6
Continuous
 62
     3
100
AcDbLine
 10
-228.5173510652099
 20
-1053.31244478802
 30
0.0
 11
-226.0173510652099
 21
-1053.31244478802
 31
0.0
  0
LINE
  5
78
330
33
100
AcDbEntity
  8
1
  6
Continuous
 62
     3
100
AcDbLine
 10
-210.682414574671
 20
-1054.31244478802
 30
0.0
 11
-224.2906832027719
 21
-1054.31244478802
 31
0.0
  0
LINE
  5
79
330
33
100
AcDbEntity
  8
1
  6
Continuous
 62
     3
100
AcDbLine
 10
-209.5173510652099
 20
-1056.330393980451
 30
0.0
 11
-210.682414574671
 21
-1054.31244478802
 31
0.0
  0
LINE
  5
7A
330
33
100
AcDbEntity
  8
1
  6
Continuous
 62
     3
100
AcDbLine
 10
-224.285300257641
 20
-1099.31244478802
 30
0.0
 11
-210.682414574671
 21
-1099.31244478802
 31
0.0
  0
LINE
  5
7B
330
33
100
AcDbEntity
  8
1
  6
Continuous
 62
     3
100
AcDbLine
 10
-210.682414574671
 20
-1099.31244478802
 30
0.0
 11
-209.5173510652099
 21
-1097.294495595589
 31
0.0
  0
LINE
  5
7C
330
33
100
AcDbEntity
  8
1
  6
Continuous
 62
     3
100
AcDbLine
 10
-209.5173510652099
 20
-927.3303939804509
 30
0.0
 11
-210.682414574671
 21
-925.31244478802
 31
0.0
  0
LINE
  5
7D
330
33
100
AcDbEntity
  8
1
  6
Continuous
 62
     3
100
AcDbLine
 10
-210.682414574671
 20
-925.31244478802
 30
0.0
 11
-224.0173510652099
 21
-925.31244478802
 31
0.0
  0
LINE
  5
7E
330
33
100
AcDbEntity
  8
1
  6
Continuous
 62
     3
100
AcDbLine
 10
-210.682414574671
 20
-966.3124447880196
 30
0.0
 11
-209.5173510652099
 21
-964.2944955955886
 31
0.0
  0
LINE
  5
7F
330
33
100
AcDbEntity
  8
1
  6
Continuous
 62
     3
100
AcDbLine
 10
-210.682414574671
 20
-966.3124447880196
 30
0.0
 11
-224.0173510652099
 21
-966.31244478802
 31
0.0
  0
LINE
  5
80
330
33
100
AcDbEntity
  8
1
  6
Continuous
 62
     3
100
AcDbLine
 10
-209.5173510652099
 20
-964.2944955955886
 30
0.0
 11
-209.5173510652099
 21
-927.3303939804509
 31
0.0
  0
LINE
  5
81
330
33
100
AcDbEntity
  8
1
  6
Continuous
 62
     3
100
AcDbLine
 10
-82.93626998412921
 20
-1065.617279775356
 30
0.0
 11
-94.97216836899131
 21
-1065.617279775356
 31
0.0
  0
LINE
  5
82
330
33
100
AcDbEntity
  8
1
  6
Continuous
 62
     3
100
AcDbLine
 10
-82.93626998412921
 20
-1088.007609800685
 30
0.0
 11
-94.97216836899131
 21
-1088.007609800685
 31
0.0
  0
ARC
  5
83
330
33
100
AcDbEntity
  8
1
  6
Continuous
 62
     3
100
AcDbCircle
 10
-215.8609616756297
 20
-940.1600272943531
 30
0.0
 40
6.343610610419101
100
AcDbArc
 50
-63.00435833615322
 51
0.0
  0
ARC
  5
84
330
33
100
AcDbEntity
  8
1
  6
Continuous
 62
     3
100
AcDbCircle
 10
-215.8609616756297
 20
-951.4648622816869
 30
0.0
 40
6.343610610419802
100
AcDbArc
 50
0.0
 51
63.00435833615322
  0
ARC
  5
85
330
33
100
AcDbEntity
  8
1
  6
Continuous
 62
     3
100
AcDbCircle
 10
-215.8609616756297
 20
-1093.660027294352
 30
0.0
 40
6.343610610419802
100
AcDbArc
 50
0.0
 51
63.00435833615322
  0
ARC
  5
86
330
33
100
AcDbEntity
  8
1
  6
Continuous
 62
     3
100
AcDbCircle
 10
-229.3394773938173
 20
-1076.81244478802
 30
0.0
 40
19.82212632860767
100
AcDbArc
 50
-34.38710134323538
 51
34.38710134323267
  0
ARC
  5
87
330
33
100
AcDbEntity
  8
1
  6
Continuous
 62
     3
100
AcDbCircle
 10
-215.8481676236998
 20
-1059.972703156146
 30
0.0
 40
6.330821414048183
100
AcDbArc
 50
-63.07532055411423
 51
-0.07096222072023
  0
ARC
  5
88
330
33
100
AcDbEntity
  8
1
  6
Continuous
 62
     3
100
AcDbCircle
 10
-83.66832079169777
 20
-1100.31244478802
 30
0.0
 40
0.9999999999999836
100
AcDbArc
 50
30.00000000000054
 51
90.00000000000163
  0
ARC
  5
89
330
33
100
AcDbEntity
  8
1
  6
Continuous
 62
     3
100
AcDbCircle
 10
-83.66293784656696
 20
-1053.31244478802
 30
0.0
 40
1.0
100
AcDbArc
 50
-90.0
 51
-30.39544133560053
  0
ARC
  5
8A
330
33
100
AcDbEntity
  8
1
  6
Continuous
 62
     3
100
AcDbCircle
 10
-153.9768105246695
 20
-1076.81244478802
 30
0.0
 40
22.00000000000016
100
AcDbArc
 50
-158.7200335315859
 51
-141.2799664684134
  0
ARC
  5
8B
330
33
100
AcDbEntity
  8
1
  6
Continuous
 62
     3
100
AcDbCircle
 10
-153.9768105246695
 20
-1076.81244478802
 30
0.0
 40
22.00000000000021
100
AcDbArc
 50
-98.72003353158674
 51
-81.27996646841298
  0
ARC
  5
8C
330
33
100
AcDbEntity
  8
1
  6
Continuous
 62
     3
100
AcDbCircle
 10
-153.9768105246695
 20
-1076.81244478802
 30
0.0
 40
21.99999999999991
100
AcDbArc
 50
-38.72003353158645
 51
-21.2799664684141
  0
ARC
  5
8D
330
33
100
AcDbEntity
  8
1
  6
Continuous
 62
     3
100
AcDbCircle
 10
-153.9768105246695
 20
-1076.81244478802
 30
0.0
 40
22.00000000000016
100
AcDbArc
 50
21.2799664684141
 51
38.72003353158645
  0
ARC
  5
8E
330
33
100
AcDbEntity
  8
1
  6
Continuous
 62
     3
100
AcDbCircle
 10
-153.9768105246695
 20
-1076.81244478802
 30
0.0
 40
22.00000000000023
100
AcDbArc
 50
81.27996646841298
 51
98.72003353158651
  0
ARC
  5
8F
330
33
100
AcDbEntity
  8
1
  6
Continuous
 62
     3
100
AcDbCircle
 10
-153.9768105246695
 20
-1076.81244478802
 30
0.0
 40
21.99999999999983
100
AcDbArc
 50
141.2799664684134
 51
158.7200335315859
  0
ARC
  5
90
330
33
100
AcDbEntity
  8
1
  6
Continuous
 62
     3
100
AcDbCircle
 10
-224.2906832027719
 20
-1053.31244478802
 30
0.0
 40
1.0000000000002
100
AcDbArc
 50
-149.6045586643978
 51
-90.0
  0
ARC
  5
91
330
33
100
AcDbEntity
  8
1
  6
Continuous
 62
     3
100
AcDbCircle
 10
-224.2853002576411
 20
-1100.31244478802
 30
0.0
 40
1.0
100
AcDbArc
 50
89.99999999999511
 51
149.9999999999987
  0
ARC
  5
92
330
33
100
AcDbEntity
  8
1
  6
Continuous
 62
     3
100
AcDbCircle
 10
-92.10545342563921
 20
-1059.972703156146
 30
0.0
 40
6.330821414047848
100
AcDbArc
 50
-179.9290377792798
 51
-116.9246794458858
  0
ARC
  5
93
330
33
100
AcDbEntity
  8
1
  6
Continuous
 62
     3
100
AcDbCircle
 10
-78.6141436555217
 20
-1076.81244478802
 30
0.0
 40
19.82212632860703
100
AcDbArc
 50
145.6128986567674
 51
-145.6128986567646
  0
ARC
  5
94
330
33
100
AcDbEntity
  8
1
  6
Continuous
 62
     3
100
AcDbCircle
 10
-92.0926593737093
 20
-1093.660027294352
 30
0.0
 40
6.343610610419101
100
AcDbArc
 50
116.9956416638468
 51
180.0
  0
CIRCLE
  5
95
330
33
100
AcDbEntity
  8
1
  6
Continuous
 62
     3
100
AcDbCircle
 10
-153.9768105246695
 20
-1076.81244478802
 30
0.0
 40
23.5
  0
CIRCLE
  5
96
330
33
100
AcDbEntity
  8
1
  6
Continuous
 62
     3
100
AcDbCircle
 10
-153.9768105246695
 20
-1076.81244478802
 30
0.0
 40
16.25624999999999
  0
CIRCLE
  5
97
330
33
100
AcDbEntity
  8
1
  6
Continuous
 62
     1
100
AcDbCircle
 10
-153.9768105246695
 20
-1076.81244478802
 30
0.0
 40
17.85292683205151
  0
CIRCLE
  5
98
330
33
100
AcDbEntity
  8
1
  6
Continuous
 62
     3
100
AcDbCircle
 10
-153.9768105246695
 20
-1076.81244478802
 30
0.0
 40
20.5
  0
ARC
  5
99
330
33
100
AcDbEntity
  8
1
  6
Continuous
 62
     3
100
AcDbCircle
 10
-81.93626998412893
 20
-1099.31244478802
 30
0.0
 40
1.0
100
AcDbArc
 50
180.0
 51
-90.0
  0
ARC
  5
9A
330
33
100
AcDbEntity
  8
1
  6
Continuous
 62
     3
100
AcDbCircle
 10
-79.43626998412893
 20
-1055.31244478802
 30
0.0
 40
2.000000000000283
100
AcDbArc
 50
75.52248781407218
 51
90.0
  0
ARC
  5
9B
330
33
100
AcDbEntity
  8
1
  6
Continuous
 62
     3
100
AcDbCircle
 10
-81.93626998412893
 20
-1054.31244478802
 30
0.0
 40
1.0
100
AcDbArc
 50
90.0
 51
180.0
  0
ARC
  5
9C
330
33
100
AcDbEntity
  8
1
  6
Continuous
 62
     3
100
AcDbCircle
 10
-226.0173510652099
 20
-1054.31244478802
 30
0.0
 40
1.0
100
AcDbArc
 50
0.0
 51
90.0
  0
ARC
  5
9D
330
33
100
AcDbEntity
  8
1
  6
Continuous
 62
     3
100
AcDbCircle
 10
-226.0173510652099
 20
-968.31244478802
 30
0.0
 40
1.0
100
AcDbArc
 50
-90.0
 51
0.0
  0
ARC
  5
9E
330
33
100
AcDbEntity
  8
1
  6
Continuous
 62
     3
100
AcDbCircle
 10
-224.0173510652099
 20
-967.31244478802
 30
0.0
 40
1.0
100
AcDbArc
 50
90.0
 51
180.0
  0
ARC
  5
9F
330
33
100
AcDbEntity
  8
1
  6
Continuous
 62
     3
100
AcDbCircle
 10
-224.0173510652099
 20
-924.31244478802
 30
0.0
 40
1.0
100
AcDbArc
 50
180.0
 51
-90.0
  0
ARC
  5
A0
330
33
100
AcDbEntity
  8
1
  6
Continuous
 62
     3
100
AcDbCircle
 10
-226.0173510652099
 20
-923.31244478802
 30
0.0
 40
1.0
100
AcDbArc
 50
0.0
 51
90.0
  0
ARC
  5
A1
330
33
100
AcDbEntity
  8
1
  6
Continuous
 62
     3
100
AcDbCircle
 10
-228.5173510652099
 20
-924.31244478802
 30
0.0
 40
2.0
100
AcDbArc
 50
90.0
 51
104.4775121859295
  0
ARC
  5
A2
330
33
100
AcDbEntity
  8
1
  6
Continuous
 62
     3
100
AcDbCircle
 10
-228.5173510652099
 20
-1055.31244478802
 30
0.0
 40
2.0
100
AcDbArc
 50
90.0
 51
104.4775121859278
  0
ARC
  5
A3
330
33
100
AcDbEntity
  8
1
  6
Continuous
 62
     3
100
AcDbCircle
 10
-226.0173510652099
 20
-1099.31244478802
 30
0.0
 40
1.0
100
AcDbArc
 50
-90.0
 51
0.0
  0
ENDBLK
  5
35
330
33
100
AcDbEntity
  8
0
100
AcDbBlockEnd
  0
BLOCK
  5
37
330
36
100
AcDbEntity
  8
0
100
AcDbBlockBegin
  2
Top__2
 70
     0
 71
     0
 10
285.5843385951921
 20
-800.610027500906
 30
0.0
  3
Top__2
  1

  0
LINE
  5
A4
330
36
100
AcDbEntity
  8
1
  6
DASH_CENTER
 62
     1
100
AcDbLine
 10
-252.5173510652099
 20
-917.8124447880199
 30
0.0
 11
-252.5173510652099
 21
-976.81244478802
 31
0.0
  0
LINE
  5
A5
330
36
100
AcDbEntity
  8
1
  6
DOT_CENTER
 62
     1
100
AcDbLine
 10
-298.8131764711429
 20
-945.81244478802
 30
0.0
 11
-205.978690206108
 21
-945.81244478802
 31
0.0
  0
LINE
  5
A6
330
36
100
AcDbEntity
  8
1
  6
Continuous
 62
     3
100
AcDbLine
 10
-276.5173510652099
 20
-945.81244478802
 30
0.0
 11
-276.5173510652099
 21
-966.31244478802
 31
0.0
  0
LINE
  5
A7
330
36
100
AcDbEntity
  8
1
  6
Continuous
 62
     3
100
AcDbLine
 10
-276.5173510652099
 20
-945.81244478802
 30
0.0
 11
-291.0494904722623
 21
-945.81244478802
 31
0.0
  0
LINE
  5
A8
330
36
100
AcDbEntity
  8
1
  6
Continuous
 62
     3
100
AcDbLine
 10
-276.5173510652099
 20
-925.31244478802
 30
0.0
 11
-276.5173510652099
 21
-945.81244478802
 31
0.0
  0
LINE
  5
A9
330
36
100
AcDbEntity
  8
1
  6
Continuous
 62
     3
100
AcDbLine
 10
-234.0173510652099
 20
-963.7810717546167
 30
0.0
 11
-234.0173510652099
 21
-969.31244478802
 31
0.0
  0
LINE
  5
AA
330
36
100
AcDbEntity
  8
1
  6
Continuous
 62
     3
100
AcDbLine
 10
-235.0173510652099
 20
-968.31244478802
 30
0.0
 11
-235.0173510652099
 21
-964.6858419604245
 31
0.0
  0
LINE
  5
AB
330
36
100
AcDbEntity
  8
1
  6
Continuous
 62
     3
100
AcDbLine
 10
-234.0173510652099
 20
-927.8438178214233
 30
0.0
 11
-234.0173510652099
 21
-922.31244478802
 31
0.0
  0
LINE
  5
AC
330
36
100
AcDbEntity
  8
1
  6
Continuous
 62
     3
100
AcDbLine
 10
-235.0173510652099
 20
-923.31244478802
 30
0.0
 11
-235.0173510652099
 21
-926.9390476156157
 31
0.0
  0
LINE
  5
AD
330
36
100
AcDbEntity
  8
1
  6
Continuous
 62
     3
100
AcDbLine
 10
-229.0173510652099
 20
-922.5803939804511
 30
0.0
 11
-229.0173510652099
 21
-969.044495595589
 31
0.0
  0
LINE
  5
AE
330
36
100
AcDbEntity
  8
1
  6
Continuous
 62
     3
100
AcDbLine
 10
-234.0173510652099
 20
-922.31244478802
 30
0.0
 11
-230.0173510652098
 21
-922.31244478802
 31
0.0
  0
LINE
  5
AF
330
36
100
AcDbEntity
  8
1
  6
Continuous
 62
     3
100
AcDbLine
 10
-230.0173510652098
 20
-969.31244478802
 30
0.0
 11
-234.0173510652099
 21
-969.31244478802
 31
0.0
  0
LINE
  5
B0
330
36
100
AcDbEntity
  8
1
  6
Continuous
 62
     3
100
AcDbLine
 10
-234.0173510652099
 20
-922.31244478802
 30
0.0
 11
-235.0173510652099
 21
-923.31244478802
 31
0.0
  0
LINE
  5
B1
330
36
100
AcDbEntity
  8
1
  6
Continuous
 62
     3
100
AcDbLine
 10
-234.0173510652099
 20
-969.31244478802
 30
0.0
 11
-235.0173510652099
 21
-968.31244478802
 31
0.0
  0
LINE
  5
B2
330
36
100
AcDbEntity
  8
1
  6
Continuous
 62
     3
100
AcDbLine
 10
-235.0173510652099
 20
-923.31244478802
 30
0.0
 11
-252.5173510652099
 21
-923.31244478802
 31
0.0
  0
LINE
  5
B3
330
36
100
AcDbEntity
  8
1
  6
Continuous
 62
     3
100
AcDbLine
 10
-235.0173510652099
 20
-968.31244478802
 30
0.0
 11
-252.5173510652099
 21
-968.31244478802
 31
0.0
  0
LINE
  5
B4
330
36
100
AcDbEntity
  8
1
  6
Continuous
 62
     3
100
AcDbLine
 10
-274.3833764689943
 20
-965.0803939804511
 30
0.0
 11
-276.5173510652099
 21
-966.31244478802
 31
0.0
  0
LINE
  5
B5
330
36
100
AcDbEntity
  8
1
  6
Continuous
 62
     3
100
AcDbLine
 10
-276.5173510652099
 20
-966.31244478802
 30
0.0
 11
-293.6409626903436
 21
-966.31244478802
 31
0.0
  0
LINE
  5
B6
330
36
100
AcDbEntity
  8
1
  6
Continuous
 62
     3
100
AcDbLine
 10
-276.5173510652099
 20
-925.31244478802
 30
0.0
 11
-293.6409626903436
 21
-925.31244478802
 31
0.0
  0
LINE
  5
B7
330
36
100
AcDbEntity
  8
1
  6
Continuous
 62
     3
100
AcDbLine
 10
-270.6074035803354
 20
-964.81244478802
 30
0.0
 11
-273.3833764689943
 21
-964.81244478802
 31
0.0
  0
LINE
  5
B8
330
36
100
AcDbEntity
  8
1
  6
Continuous
 62
     3
100
AcDbLine
 10
-276.5173510652099
 20
-925.31244478802
 30
0.0
 11
-274.3833764689943
 21
-926.5444955955888
 31
0.0
  0
LINE
  5
B9
330
36
100
AcDbEntity
  8
1
  6
Continuous
 62
     3
100
AcDbLine
 10
-273.3833764689943
 20
-926.81244478802
 30
0.0
 11
-270.6074035803354
 21
-926.81244478802
 31
0.0
  0
LINE
  5
BA
330
36
100
AcDbEntity
  8
1
  6
Continuous
 62
     3
100
AcDbLine
 10
-294.5120275282477
 20
-926.8211733439565
 30
0.0
 11
-294.5171475060595
 21
-964.8023942857105
 31
0.0
  0
LINE
  5
BB
330
36
100
AcDbEntity
  8
1
  6
Continuous
 62
     3
100
AcDbLine
 10
-294.5120275282477
 20
-926.8211733439565
 30
0.0
 11
-293.6409626903436
 21
-925.31244478802
 31
0.0
  0
LINE
  5
BC
330
36
100
AcDbEntity
  8
1
  6
Continuous
 62
     3
100
AcDbLine
 10
-293.6409626903436
 20
-966.31244478802
 30
0.0
 11
-294.5120275282477
 21
-964.8037162320835
 31
0.0
  0
ARC
  5
BD
330
36
100
AcDbEntity
  8
1
  6
Continuous
 62
     3
100
AcDbCircle
 10
-288.1699814769803
 20
-951.4648622816869
 30
0.0
 40
6.343610610419088
100
AcDbArc
 50
116.9956416638466
 51
180.0
  0
ARC
  5
BE
330
36
100
AcDbEntity
  8
1
  6
Continuous
 62
     3
100
AcDbCircle
 10
-288.1699814769803
 20
-940.1600272943531
 30
0.0
 40
6.34361061041983
100
AcDbArc
 50
180.0
 51
-116.9956416638466
  0
ARC
  5
BF
330
36
100
AcDbEntity
  8
1
  6
Continuous
 62
     3
100
AcDbCircle
 10
-252.5173510652099
 20
-920.81244478802
 30
0.0
 40
47.50000000000004
100
AcDbArc
 50
-94.79992769355023
 51
-90.0
  0
ARC
  5
C0
330
36
100
AcDbEntity
  8
1
  6
Continuous
 62
     3
100
AcDbCircle
 10
-252.5173510652099
 20
-970.81244478802
 30
0.0
 40
47.5
100
AcDbArc
 50
90.0
 51
111.9001846962618
  0
ARC
  5
C1
330
36
100
AcDbEntity
  8
1
  6
Continuous
 62
     3
100
AcDbCircle
 10
-252.5173510652099
 20
-920.81244478802
 30
0.0
 40
47.50000000000003
100
AcDbArc
 50
-111.9001846962618
 51
-94.79992769355023
  0
ARC
  5
C2
330
36
100
AcDbEntity
  8
1
  6
Continuous
 62
     3
100
AcDbCircle
 10
-230.0173510652098
 20
-967.31244478802
 30
0.0
 40
2.0
100
AcDbArc
 50
-90.0
 51
-60.00000000000392
  0
ARC
  5
C3
330
36
100
AcDbEntity
  8
1
  6
Continuous
 62
     3
100
AcDbCircle
 10
-230.0173510652098
 20
-924.31244478802
 30
0.0
 40
2.000000000000009
100
AcDbArc
 50
60.00000000000392
 51
90.0
  0
ARC
  5
C4
330
36
100
AcDbEntity
  8
1
  6
Continuous
 62
     3
100
AcDbCircle
 10
-273.3833764689943
 20
-966.8124447880201
 30
0.0
 40
2.000000000000114
100
AcDbArc
 50
90.0
 51
119.9999999999973
  0
ARC
  5
C5
330
36
100
AcDbEntity
  8
1
  6
Continuous
 62
     3
100
AcDbCircle
 10
-273.3833764689943
 20
-924.81244478802
 30
0.0
 40
1.999999999999967
100
AcDbArc
 50
-120.0000000000006
 51
-90.0
  0
ARC
  5
C6
330
36
100
AcDbEntity
  8
1
  6
Continuous
 62
     3
100
AcDbCircle
 10
-270.6074035803354
 20
-965.81244478802
 30
0.0
 40
0.9999999999999591
100
AcDbArc
 50
68.09981530374022
 51
90.0
  0
ARC
  5
C7
330
36
100
AcDbEntity
  8
1
  6
Continuous
 62
     3
100
AcDbCircle
 10
-270.6074035803354
 20
-925.81244478802
 30
0.0
 40
1.0
100
AcDbArc
 50
-90.0
 51
-68.09981530374022
  0
ENDBLK
  5
38
330
36
100
AcDbEntity
  8
0
100
AcDbBlockEnd
  0
BLOCK
  5
3A
330
39
100
AcDbEntity
  8
0
100
AcDbBlockBegin
  2
Top__3
 70
     0
 71
     0
 10
156.531157721009
 20
-790.037384601348
 30
0.0
  3
Top__3
  1

  0
POINT
  5
C8
330
39
100
AcDbEntity
  8
1
 62
     3
 60
     1
100
AcDbPoint
 10
162.0038947312933
 20
-870.9483537201977
 30
0.0
  0
POINT
  5
C9
330
39
100
AcDbEntity
  8
1
 62
     3
 60
     1
100
AcDbPoint
 10
160.0409038160485
 20
-870.9483537201977
 30
0.0
  0
POINT
  5
CA
330
39
100
AcDbEntity
  8
1
 62
     3
 60
     1
100
AcDbPoint
 10
157.1001739196814
 20
-876.0418473120424
 30
0.0
  0
POINT
  5
CB
330
39
100
AcDbEntity
  8
1
 62
     3
 60
     1
100
AcDbPoint
 10
159.0631648349262
 20
-876.0418473120424
 30
0.0
  0
POINT
  5
CC
330
39
100
AcDbEntity
  8
1
 62
     3
 60
     1
100
AcDbPoint
 10
284.5575566509983
 20
-744.6671773235814
 30
0.0
  0
POINT
  5
CD
330
39
100
AcDbEntity
  8
1
 62
     3
 60
     1
100
AcDbPoint
 10
281.6168267546312
 20
-749.7606709154261
 30
0.0
  0
POINT
  5
CE
330
39
100
AcDbEntity
  8
1
 62
     3
 60
     1
100
AcDbPoint
 10
286.5205475662431
 20
-744.6671773235814
 30
0.0
  0
POINT
  5
CF
330
39
100
AcDbEntity
  8
1
 62
     3
 60
     1
100
AcDbPoint
 10
283.579817669876
 20
-749.7606709154261
 30
0.0
  0
POINT
  5
D0
330
39
100
AcDbEntity
  8
1
 62
     3
 60
     1
100
AcDbPoint
 10
351.0843385951921
 20
-798.421814087088
 30
0.0
  0
POINT
  5
D1
330
39
100
AcDbEntity
  8
1
 62
     3
 60
     1
100
AcDbPoint
 10
351.0843385951921
 20
-811.2192500587146
 30
0.0
  0
POINT
  5
D2
330
39
100
AcDbEntity
  8
1
 62
     3
 60
     1
100
AcDbPoint
 10
351.0843385951921
 20
-826.5884797305997
 30
0.0
  0
POINT
  5
D3
330
39
100
AcDbEntity
  8
1
 62
     3
 60
     1
100
AcDbPoint
 10
285.5843385951921
 20
-795.4038648946571
 30
0.0
  0
POINT
  5
D4
330
39
100
AcDbEntity
  8
1
 62
     3
 60
     1
100
AcDbPoint
 10
285.5843385951921
 20
-842.1359157022259
 30
0.0
  0
LINE
  5
D5
330
39
100
AcDbEntity
  8
1
  6
Continuous
 62
     3
100
AcDbLine
 10
-155.9768105246695
 20
-1027.81244478802
 30
0.0
 11
-151.9768105246695
 21
-1027.81244478802
 31
0.0
  0
LINE
  5
D6
330
39
100
AcDbEntity
  8
1
  6
Continuous
 62
     3
100
AcDbLine
 10
-155.9768105246695
 20
-1023.31244478802
 30
0.0
 11
-151.9768105246695
 21
-1023.31244478802
 31
0.0
  0
LINE
  5
D7
330
39
100
AcDbEntity
  8
1
  6
Continuous
 62
     3
100
AcDbLine
 10
-155.9768105246695
 20
-1027.81244478802
 30
0.0
 11
-155.9768105246695
 21
-1023.31244478802
 31
0.0
  0
LINE
  5
D8
330
39
100
AcDbEntity
  8
1
  6
Continuous
 62
     3
100
AcDbLine
 10
-151.9768105246695
 20
-1027.81244478802
 30
0.0
 11
-136.9768105246695
 21
-1027.81244478802
 31
0.0
  0
LINE
  5
D9
330
39
100
AcDbEntity
  8
1
  6
Continuous
 62
     3
100
AcDbLine
 10
-151.9768105246695
 20
-1023.31244478802
 30
0.0
 11
-140.9768105246695
 21
-1023.31244478802
 31
0.0
  0
LINE
  5
DA
330
39
100
AcDbEntity
  8
1
  6
Continuous
 62
     3
100
AcDbLine
 10
-151.9768105246695
 20
-1023.31244478802
 30
0.0
 11
-151.9768105246695
 21
-1027.81244478802
 31
0.0
  0
LINE
  5
DB
330
39
100
AcDbEntity
  8
1
  6
Continuous
 62
     3
100
AcDbLine
 10
-31.43626998412893
 20
-1080.31244478802
 30
0.0
 11
-31.43626998412896
 21
-1097.31244478802
 31
0.0
  0
LINE
  5
DC
330
39
100
AcDbEntity
  8
1
  6
Continuous
 62
     3
100
AcDbLine
 10
-72.93626998412893
 20
-1073.31244478802
 30
0.0
 11
-72.93626998412893
 21
-1054.31244478802
 31
0.0
  0
LINE
  5
DD
330
39
100
AcDbEntity
  8
1
  6
Continuous
 62
     3
100
AcDbLine
 10
-73.9362699841289
 20
-1073.31244478802
 30
0.0
 11
-73.93626998412893
 21
-1053.31244478802
 31
0.0
  0
LINE
  5
DE
330
39
100
AcDbEntity
  8
1
  6
Continuous
 62
     3
100
AcDbLine
 10
-31.12482514508679
 20
-1080.31244478802
 30
0.0
 11
-73.9362699841289
 21
-1080.31244478802
 31
0.0
  0
LINE
  5
DF
330
39
100
AcDbEntity
  8
1
  6
Continuous
 62
     3
100
AcDbLine
 10
-73.9362699841289
 20
-1073.31244478802
 30
0.0
 11
-31.12482514508679
 21
-1073.31244478802
 31
0.0
  0
LINE
  5
E0
330
39
100
AcDbEntity
  8
1
  6
Continuous
 62
     3
100
AcDbLine
 10
-35.43626998412896
 20
-1026.81244478802
 30
0.0
 11
-35.43626998412896
 21
-1023.31244478802
 31
0.0
  0
LINE
  5
E1
330
39
100
AcDbEntity
  8
1
  6
Continuous
 62
     3
100
AcDbLine
 10
-75.43626998412904
 20
-1023.31244478802
 30
0.0
 11
-77.4362699841289
 21
-1023.31244478802
 31
0.0
  0
LINE
  5
E2
330
39
100
AcDbEntity
  8
1
  6
Continuous
 62
     3
100
AcDbLine
 10
-75.4362699841289
 20
-1027.81244478802
 30
0.0
 11
-74.43626998412893
 21
-1027.81244478802
 31
0.0
  0
LINE
  5
E3
330
39
100
AcDbEntity
  8
1
  6
Continuous
 62
     3
100
AcDbLine
 10
-77.4362699841289
 20
-1023.31244478802
 30
0.0
 11
-77.4362699841289
 21
-1025.81244478802
 31
0.0
  0
LINE
  5
E4
330
39
100
AcDbEntity
  8
1
  6
Continuous
 62
     3
100
AcDbLine
 10
-75.43626998412904
 20
-1023.31244478802
 30
0.0
 11
-75.43626998412893
 21
-1026.81244478802
 31
0.0
  0
LINE
  5
E5
330
39
100
AcDbEntity
  8
1
  6
Continuous
 62
     3
100
AcDbLine
 10
-69.43626998412893
 20
-1030.81244478802
 30
0.0
 11
-69.43626998412893
 21
-1035.31244478802
 31
0.0
  0
LINE
  5
E6
330
39
100
AcDbEntity
  8
1
  6
Continuous
 62
     3
100
AcDbLine
 10
-41.43626998412896
 20
-1035.31244478802
 30
0.0
 11
-41.43626998412896
 21
-1030.81244478802
 31
0.0
  0
LINE
  5
E7
330
39
100
AcDbEntity
  8
1
  6
Continuous
 62
     3
100
AcDbLine
 10
-14.31265835899524
 20
-1054.81244478802
 30
0.0
 11
-13.43626998412896
 21
-1056.330393980451
 31
0.0
  0
LINE
  5
E8
330
39
100
AcDbEntity
  8
1
  6
Continuous
 62
     3
100
AcDbLine
 10
-14.31265835899524
 20
-1098.81244478802
 30
0.0
 11
-13.50681829084004
 21
-1097.416688847201
 31
0.0
  0
LINE
  5
E9
330
39
100
AcDbEntity
  8
1
  6
DOT_CENTER
 62
     1
100
AcDbLine
 10
-102.2794439698968
 20
-1076.81244478802
 30
0.0
 11
-9.93626998412896
 21
-1076.81244478802
 31
0.0
  0
LINE
  5
EA
330
39
100
AcDbEntity
  8
1
  6
DOT_CENTER
 62
     1
100
AcDbLine
 10
-55.43626998412893
 20
-1102.31244478802
 30
0.0
 11
-55.43626998412893
 21
-1017.81244478802
 31
0.0
  0
LINE
  5
EB
330
39
100
AcDbEntity
  8
1
  6
Continuous
 62
     3
100
AcDbLine
 10
-13.43626998412896
 20
-1097.31244478802
 30
0.0
 11
-13.43626998412896
 21
-1056.330393980451
 31
0.0
  0
LINE
  5
EC
330
39
100
AcDbEntity
  8
1
  6
Continuous
 62
     3
100
AcDbLine
 10
-72.93626998412893
 20
-1054.31244478802
 30
0.0
 11
-73.93626998412893
 21
-1053.31244478802
 31
0.0
  0
LINE
  5
ED
330
39
100
AcDbEntity
  8
1
  6
Continuous
 62
     3
100
AcDbLine
 10
-73.93626998412893
 20
-1053.31244478802
 30
0.0
 11
-77.93626998412893
 21
-1053.31244478802
 31
0.0
  0
LINE
  5
EE
330
39
100
AcDbEntity
  8
1
  6
Continuous
 62
     3
100
AcDbLine
 10
-28.80710485953017
 20
-1054.81244478802
 30
0.0
 11
-33.34760644775435
 21
-1057.433904602237
 31
0.0
  0
LINE
  5
EF
330
39
100
AcDbEntity
  8
1
  6
Continuous
 62
     3
100
AcDbLine
 10
-28.80710485953017
 20
-1054.81244478802
 30
0.0
 11
-14.31265835899524
 21
-1054.81244478802
 31
0.0
  0
LINE
  5
F0
330
39
100
AcDbEntity
  8
1
  6
Continuous
 62
     3
100
AcDbLine
 10
-14.31265835899524
 20
-1098.81244478802
 30
0.0
 11
-28.83819377277553
 21
-1098.81244478802
 31
0.0
  0
LINE
  5
F1
330
39
100
AcDbEntity
  8
1
  6
Continuous
 62
     3
100
AcDbLine
 10
-31.43626998412896
 20
-1097.31244478802
 30
0.0
 11
-28.83819377277553
 21
-1098.81244478802
 31
0.0
  0
LINE
  5
F2
330
39
100
AcDbEntity
  8
1
  6
Continuous
 62
     3
100
AcDbLine
 10
-77.93626998412893
 20
-1100.31244478802
 30
0.0
 11
-73.93626998412893
 21
-1100.31244478802
 31
0.0
  0
LINE
  5
F3
330
39
100
AcDbEntity
  8
1
  6
Continuous
 62
     3
100
AcDbLine
 10
-55.43626998412893
 20
-1099.31244478802
 30
0.0
 11
-72.93626998412893
 21
-1099.31244478802
 31
0.0
  0
LINE
  5
F4
330
39
100
AcDbEntity
  8
1
  6
Continuous
 62
     3
100
AcDbLine
 10
-73.93626998412893
 20
-1100.31244478802
 30
0.0
 11
-72.93626998412893
 21
-1099.31244478802
 31
0.0
  0
LINE
  5
F5
330
39
100
AcDbEntity
  8
1
  6
Continuous
 62
     3
100
AcDbLine
 10
-33.34760644775435
 20
-1096.190984973803
 30
0.0
 11
-28.80710485953017
 21
-1098.81244478802
 31
0.0
  0
LINE
  5
F6
330
39
100
AcDbEntity
  8
1
  6
Continuous
 62
     3
100
AcDbLine
 10
-68.43626998412893
 20
-1023.31244478802
 30
0.0
 11
-42.43626998412896
 21
-1023.31244478802
 31
0.0
  0
LINE
  5
F7
330
39
100
AcDbEntity
  8
1
  6
Continuous
 62
     3
100
AcDbLine
 10
-68.43626998412893
 20
-1023.31244478802
 30
0.0
 11
-75.43626998412904
 21
-1023.31244478802
 31
0.0
  0
LINE
  5
F8
330
39
100
AcDbEntity
  8
1
  6
Continuous
 62
     3
100
AcDbLine
 10
-42.43626998412896
 20
-1023.31244478802
 30
0.0
 11
-35.43626998412896
 21
-1023.31244478802
 31
0.0
  0
LINE
  5
F9
330
39
100
AcDbEntity
  8
1
  6
Continuous
 62
     3
100
AcDbLine
 10
-44.43626998412896
 20
-1051.809944850517
 30
0.0
 11
-44.43626998412896
 21
-1039.185428134227
 31
0.0
  0
LINE
  5
FA
330
39
100
AcDbEntity
  8
1
  6
Continuous
 62
     3
100
AcDbLine
 10
-66.43626998412896
 20
-1039.185428134227
 30
0.0
 11
-66.43626998412898
 21
-1049.31244478802
 31
0.0
  0
LINE
  5
FB
330
39
100
AcDbEntity
  8
1
  6
Continuous
 62
     3
100
AcDbLine
 10
-74.43626998412893
 20
-1027.81244478802
 30
0.0
 11
-72.43626998412893
 21
-1027.81244478802
 31
0.0
  0
LINE
  5
FC
330
39
100
AcDbEntity
  8
1
  6
Continuous
 62
     3
100
AcDbLine
 10
-38.43626998412896
 20
-1027.81244478802
 30
0.0
 11
-36.43626998412896
 21
-1027.81244478802
 31
0.0
  0
LINE
  5
FD
330
39
100
AcDbEntity
  8
1
  6
Continuous
 62
     3
100
AcDbLine
 10
-78.93626998412893
 20
-1100.044495595589
 30
0.0
 11
-78.93626998412893
 21
-1053.580393980451
 31
0.0
  0
LINE
  5
FE
330
39
100
AcDbEntity
  8
1
  6
Continuous
 62
     3
100
AcDbLine
 10
-72.93626998412893
 20
-1081.81244478802
 30
0.0
 11
-72.93626998412893
 21
-1080.31244478802
 31
0.0
  0
LINE
  5
FF
330
39
100
AcDbEntity
  8
1
  6
Continuous
 62
     3
100
AcDbLine
 10
-73.93626998412893
 20
-1081.81244478802
 30
0.0
 11
-73.9362699841289
 21
-1080.31244478802
 31
0.0
  0
LINE
  5
100
330
39
100
AcDbEntity
  8
1
  6
Continuous
 62
     3
100
AcDbLine
 10
-73.93626998412893
 20
-1100.31244478802
 30
0.0
 11
-73.93626998412893
 21
-1081.81244478802
 31
0.0
  0
LINE
  5
101
330
39
100
AcDbEntity
  8
1
  6
Continuous
 62
     3
100
AcDbLine
 10
-72.93626998412893
 20
-1099.31244478802
 30
0.0
 11
-72.93626998412893
 21
-1081.81244478802
 31
0.0
  0
LINE
  5
102
330
39
100
AcDbEntity
  8
1
  6
Continuous
 62
     3
100
AcDbLine
 10
-57.05692579283883
 20
-1053.103769689421
 30
0.0
 11
-65.05692579283883
 21
-1053.103769689421
 31
0.0
  0
LINE
  5
103
330
39
100
AcDbEntity
  8
1
  6
Continuous
 62
     3
100
AcDbLine
 10
-46.12326426072684
 20
-1054.329893280685
 30
0.0
 11
-54.12326426072681
 21
-1053.329893280685
 31
0.0
  0
LINE
  5
104
330
39
100
AcDbEntity
  8
1
  6
Continuous
 62
     3
100
AcDbLine
 10
-31.4362699841289
 20
-1056.330393980451
 30
0.0
 11
-31.43626998412892
 21
-1073.31244478802
 31
0.0
  0
LINE
  5
105
330
39
100
AcDbEntity
  8
1
  6
Continuous
 62
     3
100
AcDbLine
 10
-16.90037159926669
 20
-1088.007609800685
 30
0.0
 11
-27.97216836899111
 21
-1088.007609800685
 31
0.0
  0
LINE
  5
106
330
39
100
AcDbEntity
  8
1
  6
Continuous
 62
     3
100
AcDbLine
 10
-16.90037159926669
 20
-1065.617279775356
 30
0.0
 11
-27.97216836899111
 21
-1065.617279775356
 31
0.0
  0
LINE
  5
107
330
39
100
AcDbEntity
  8
1
  6
Continuous
 62
     3
100
AcDbLine
 10
-72.43626998412893
 20
-1027.81244478802
 30
0.0
 11
-38.43626998412896
 21
-1027.81244478802
 31
0.0
  0
LINE
  5
108
330
39
100
AcDbEntity
  8
1
  6
Continuous
 62
     3
100
AcDbLine
 10
-67.93626998412896
 20
-1037.248936461124
 30
0.0
 11
-42.93626998412896
 21
-1037.248936461124
 31
0.0
  0
LINE
  5
109
330
39
100
AcDbEntity
  8
1
  6
DOT_CENTER
 62
     1
100
AcDbLine
 10
-153.9768105246695
 20
-1053.31244478802
 30
0.0
 11
-153.9768105246695
 21
-1102.35298532856
 31
0.0
  0
LINE
  5
10A
330
39
100
AcDbEntity
  8
1
  6
DOT_CENTER
 62
     1
100
AcDbLine
 10
-128.4362699841289
 20
-1076.81244478802
 30
0.0
 11
-179.5173510652099
 21
-1076.81244478802
 31
0.0
  0
LINE
  5
10B
330
39
100
AcDbEntity
  8
1
  6
DOT_CENTER
 62
     1
100
AcDbLine
 10
-153.9768105246695
 20
-1017.81244478802
 30
0.0
 11
-153.9768105246695
 21
-1053.31244478802
 31
0.0
  0
LINE
  5
10C
330
39
100
AcDbEntity
  8
1
  6
Continuous
 62
     3
100
AcDbLine
 10
-166.4768105246695
 20
-1037.248936461124
 30
0.0
 11
-141.4768105246695
 21
-1037.248936461124
 31
0.0
  0
LINE
  5
10D
330
39
100
AcDbEntity
  8
1
  6
Continuous
 62
     3
100
AcDbLine
 10
-170.9768105246695
 20
-1027.81244478802
 30
0.0
 11
-155.9768105246695
 21
-1027.81244478802
 31
0.0
  0
LINE
  5
10E
330
39
100
AcDbEntity
  8
1
  6
Continuous
 62
     3
100
AcDbLine
 10
-172.9768105246695
 20
-1027.81244478802
 30
0.0
 11
-170.9768105246695
 21
-1027.81244478802
 31
0.0
  0
LINE
  5
10F
330
39
100
AcDbEntity
  8
1
  6
Continuous
 62
     3
100
AcDbLine
 10
-136.9768105246695
 20
-1027.81244478802
 30
0.0
 11
-134.9768105246695
 21
-1027.81244478802
 31
0.0
  0
LINE
  5
110
330
39
100
AcDbEntity
  8
1
  6
Continuous
 62
     3
100
AcDbLine
 10
-173.9768105246695
 20
-1023.31244478802
 30
0.0
 11
-166.9768105246695
 21
-1023.31244478802
 31
0.0
  0
LINE
  5
111
330
39
100
AcDbEntity
  8
1
  6
Continuous
 62
     3
100
AcDbLine
 10
-133.9768105246693
 20
-1023.31244478802
 30
0.0
 11
-140.9768105246695
 21
-1023.31244478802
 31
0.0
  0
LINE
  5
112
330
39
100
AcDbEntity
  8
1
  6
Continuous
 62
     3
100
AcDbLine
 10
-166.9768105246695
 20
-1023.31244478802
 30
0.0
 11
-155.9768105246695
 21
-1023.31244478802
 31
0.0
  0
LINE
  5
113
330
39
100
AcDbEntity
  8
1
  6
Continuous
 62
     3
100
AcDbLine
 10
-167.9768105246695
 20
-1030.81244478802
 30
0.0
 11
-167.9768105246695
 21
-1035.31244478802
 31
0.0
  0
LINE
  5
114
330
39
100
AcDbEntity
  8
1
  6
Continuous
 62
     3
100
AcDbLine
 10
-139.9768105246695
 20
-1035.31244478802
 30
0.0
 11
-139.9768105246695
 21
-1030.81244478802
 31
0.0
  0
LINE
  5
115
330
39
100
AcDbEntity
  8
1
  6
Continuous
 62
     3
100
AcDbLine
 10
-133.9768105246695
 20
-1026.81244478802
 30
0.0
 11
-133.9768105246693
 21
-1023.31244478802
 31
0.0
  0
LINE
  5
116
330
39
100
AcDbEntity
  8
1
  6
Continuous
 62
     3
100
AcDbLine
 10
-173.9768105246695
 20
-1023.31244478802
 30
0.0
 11
-173.9768105246695
 21
-1026.81244478802
 31
0.0
  0
LINE
  5
117
330
39
100
AcDbEntity
  8
1
  6
Continuous
 62
     3
100
AcDbLine
 10
-164.9768105246695
 20
-1039.185428134227
 30
0.0
 11
-164.9768105246695
 21
-1054.446175541675
 31
0.0
  0
LINE
  5
118
330
39
100
AcDbEntity
  8
1
  6
Continuous
 62
     3
100
AcDbLine
 10
-142.9768105246693
 20
-1054.446175541675
 30
0.0
 11
-142.9768105246695
 21
-1039.185428134227
 31
0.0
  0
LINE
  5
119
330
39
100
AcDbEntity
  8
1
  6
Continuous
 62
     3
100
AcDbLine
 10
-232.51735106521
 20
-948.6408719127662
 30
0.0
 11
-232.51735106521
 21
-959.81244478802
 31
0.0
  0
LINE
  5
11A
330
39
100
AcDbEntity
  8
1
  6
Continuous
 62
     3
100
AcDbLine
 10
-272.5173510652099
 20
-959.81244478802
 30
0.0
 11
-272.5173510652099
 21
-945.81244478802
 31
0.0
  0
LINE
  5
11B
330
39
100
AcDbEntity
  8
1
  6
Continuous
 62
     3
100
AcDbLine
 10
-232.51735106521
 20
-931.8124447880201
 30
0.0
 11
-232.51735106521
 21
-942.9840176632738
 31
0.0
  0
LINE
  5
11C
330
39
100
AcDbEntity
  8
1
  6
Continuous
 62
     3
100
AcDbLine
 10
-272.5173510652099
 20
-945.81244478802
 30
0.0
 11
-272.5173510652099
 21
-931.8124447880201
 31
0.0
  0
LINE
  5
11D
330
39
100
AcDbEntity
  8
1
  6
Continuous
 62
     3
100
AcDbLine
 10
-336.3292258239059
 20
-1054.446175541675
 30
0.0
 11
-336.329225823906
 21
-1039.185428134227
 31
0.0
  0
LINE
  5
11E
330
39
100
AcDbEntity
  8
1
  6
Continuous
 62
     3
100
AcDbLine
 10
-358.329225823906
 20
-1039.185428134227
 30
0.0
 11
-358.329225823906
 21
-1054.446175541675
 31
0.0
  0
LINE
  5
11F
330
39
100
AcDbEntity
  8
1
  6
Continuous
 62
     3
100
AcDbLine
 10
-367.329225823906
 20
-1023.31244478802
 30
0.0
 11
-367.329225823906
 21
-1026.81244478802
 31
0.0
  0
LINE
  5
120
330
39
100
AcDbEntity
  8
1
  6
Continuous
 62
     3
100
AcDbLine
 10
-327.329225823906
 20
-1026.81244478802
 30
0.0
 11
-327.3292258239059
 21
-1023.31244478802
 31
0.0
  0
LINE
  5
121
330
39
100
AcDbEntity
  8
1
  6
Continuous
 62
     3
100
AcDbLine
 10
-333.329225823906
 20
-1035.31244478802
 30
0.0
 11
-333.329225823906
 21
-1030.81244478802
 31
0.0
  0
LINE
  5
122
330
39
100
AcDbEntity
  8
1
  6
Continuous
 62
     3
100
AcDbLine
 10
-361.329225823906
 20
-1030.81244478802
 30
0.0
 11
-361.329225823906
 21
-1035.31244478802
 31
0.0
  0
LINE
  5
123
330
39
100
AcDbEntity
  8
1
  6
Continuous
 62
     3
100
AcDbLine
 10
-360.329225823906
 20
-1023.31244478802
 30
0.0
 11
-334.329225823906
 21
-1023.31244478802
 31
0.0
  0
LINE
  5
124
330
39
100
AcDbEntity
  8
1
  6
Continuous
 62
     3
100
AcDbLine
 10
-327.3292258239059
 20
-1023.31244478802
 30
0.0
 11
-334.329225823906
 21
-1023.31244478802
 31
0.0
  0
LINE
  5
125
330
39
100
AcDbEntity
  8
1
  6
Continuous
 62
     3
100
AcDbLine
 10
-367.329225823906
 20
-1023.31244478802
 30
0.0
 11
-360.329225823906
 21
-1023.31244478802
 31
0.0
  0
LINE
  5
126
330
39
100
AcDbEntity
  8
1
  6
Continuous
 62
     3
100
AcDbLine
 10
-330.329225823906
 20
-1027.81244478802
 30
0.0
 11
-328.329225823906
 21
-1027.81244478802
 31
0.0
  0
LINE
  5
127
330
39
100
AcDbEntity
  8
1
  6
Continuous
 62
     3
100
AcDbLine
 10
-366.329225823906
 20
-1027.81244478802
 30
0.0
 11
-364.329225823906
 21
-1027.81244478802
 31
0.0
  0
LINE
  5
128
330
39
100
AcDbEntity
  8
1
  6
Continuous
 62
     3
100
AcDbLine
 10
-364.329225823906
 20
-1027.81244478802
 30
0.0
 11
-330.329225823906
 21
-1027.81244478802
 31
0.0
  0
LINE
  5
129
330
39
100
AcDbEntity
  8
1
  6
Continuous
 62
     3
100
AcDbLine
 10
-359.829225823906
 20
-1037.248936461124
 30
0.0
 11
-334.829225823906
 21
-1037.248936461124
 31
0.0
  0
LINE
  5
12A
330
39
100
AcDbEntity
  8
1
  6
Continuous
 62
     3
100
AcDbLine
 10
-265.0173510652099
 20
-1037.248936461124
 30
0.0
 11
-240.0173510652099
 21
-1037.248936461124
 31
0.0
  0
LINE
  5
12B
330
39
100
AcDbEntity
  8
1
  6
Continuous
 62
     3
100
AcDbLine
 10
-269.5173510652099
 20
-1027.81244478802
 30
0.0
 11
-235.5173510652099
 21
-1027.81244478802
 31
0.0
  0
LINE
  5
12C
330
39
100
AcDbEntity
  8
1
  6
Continuous
 62
     3
100
AcDbLine
 10
-257.5136564861396
 20
-1075.81244478802
 30
0.0
 11
-265.5136564861396
 21
-1075.81244478802
 31
0.0
  0
LINE
  5
12D
330
39
100
AcDbEntity
  8
1
  6
Continuous
 62
     3
100
AcDbLine
 10
-265.5136564861396
 20
-1075.81244478802
 30
0.0
 11
-265.5136564861396
 21
-1077.81244478802
 31
0.0
  0
LINE
  5
12E
330
39
100
AcDbEntity
  8
1
  6
Continuous
 62
     3
100
AcDbLine
 10
-265.5136564861396
 20
-1077.81244478802
 30
0.0
 11
-257.5136564861396
 21
-1077.81244478802
 31
0.0
  0
LINE
  5
12F
330
39
100
AcDbEntity
  8
1
  6
Continuous
 62
     3
100
AcDbLine
 10
-243.5210456442802
 20
-1075.81244478802
 30
0.0
 11
-243.5210456442802
 21
-1074.31244478802
 31
0.0
  0
LINE
  5
130
330
39
100
AcDbEntity
  8
1
  6
Continuous
 62
     3
100
AcDbLine
 10
-243.5210456442802
 20
-1074.31244478802
 30
0.0
 11
-239.1909186253581
 21
-1076.81244478802
 31
0.0
  0
LINE
  5
131
330
39
100
AcDbEntity
  8
1
  6
Continuous
 62
     3
100
AcDbLine
 10
-239.1909186253581
 20
-1076.81244478802
 30
0.0
 11
-243.5210456442802
 21
-1079.31244478802
 31
0.0
  0
LINE
  5
132
330
39
100
AcDbEntity
  8
1
  6
Continuous
 62
     3
100
AcDbLine
 10
-243.5210456442802
 20
-1079.31244478802
 30
0.0
 11
-243.5210456442802
 21
-1077.81244478802
 31
0.0
  0
LINE
  5
133
330
39
100
AcDbEntity
  8
1
  6
Continuous
 62
     3
100
AcDbLine
 10
-257.5136564861396
 20
-1072.81244478802
 30
0.0
 11
-253.7744170826317
 21
-1072.81244478802
 31
0.0
  0
LINE
  5
134
330
39
100
AcDbEntity
  8
1
  6
Continuous
 62
     3
100
AcDbLine
 10
-243.5210456442802
 20
-1077.81244478802
 30
0.0
 11
-247.5210456442802
 21
-1077.81244478802
 31
0.0
  0
LINE
  5
135
330
39
100
AcDbEntity
  8
1
  6
Continuous
 62
     3
100
AcDbLine
 10
-247.5210456442802
 20
-1075.81244478802
 30
0.0
 11
-243.5210456442802
 21
-1075.81244478802
 31
0.0
  0
LINE
  5
136
330
39
100
AcDbEntity
  8
1
  6
Continuous
 62
     3
100
AcDbLine
 10
-253.7744170826317
 20
-1076.81244478802
 30
0.0
 11
-253.3533060533633
 21
-1076.81244478802
 31
0.0
  0
LINE
  5
137
330
39
100
AcDbEntity
  8
1
  6
Continuous
 62
     3
100
AcDbLine
 10
-253.7744170826317
 20
-1076.597872714759
 30
0.0
 11
-257.5136564861396
 21
-1072.81244478802
 31
0.0
  0
LINE
  5
138
330
39
100
AcDbEntity
  8
1
  6
Continuous
 62
     3
100
AcDbLine
 10
-253.7744170826317
 20
-1072.81244478802
 30
0.0
 11
-253.7744170826317
 21
-1076.597872714759
 31
0.0
  0
LINE
  5
139
330
39
100
AcDbEntity
  8
1
  6
Continuous
 62
     3
100
AcDbLine
 10
-247.5210456442802
 20
-1072.81244478802
 30
0.0
 11
-253.7744170826317
 21
-1080.81244478802
 31
0.0
  0
LINE
  5
13A
330
39
100
AcDbEntity
  8
1
  6
Continuous
 62
     3
100
AcDbLine
 10
-253.7744170826317
 20
-1076.81244478802
 30
0.0
 11
-257.5136564861396
 21
-1080.81244478802
 31
0.0
  0
LINE
  5
13B
330
39
100
AcDbEntity
  8
1
  6
Continuous
 62
     3
100
AcDbLine
 10
-251.3522271930907
 20
-1074.811365927747
 30
0.0
 11
-251.3522271930907
 21
-1072.81244478802
 31
0.0
  0
LINE
  5
13C
330
39
100
AcDbEntity
  8
1
  6
Continuous
 62
     3
100
AcDbLine
 10
-253.9273510652099
 20
-1076.81244478802
 30
0.0
 11
-253.5064670734505
 21
-1076.81244478802
 31
0.0
  0
LINE
  5
13D
330
39
100
AcDbEntity
  8
1
  6
Continuous
 62
     3
100
AcDbLine
 10
-247.5210456442802
 20
-1075.81244478802
 30
0.0
 11
-247.5210456442802
 21
-1077.81244478802
 31
0.0
  0
LINE
  5
13E
330
39
100
AcDbEntity
  8
1
  6
Continuous
 62
     3
100
AcDbLine
 10
-251.3522271930907
 20
-1072.81244478802
 30
0.0
 11
-247.5210456442802
 21
-1072.81244478802
 31
0.0
  0
LINE
  5
13F
330
39
100
AcDbEntity
  8
1
  6
Continuous
 62
     3
100
AcDbLine
 10
-257.5136564861396
 20
-1080.81244478802
 30
0.0
 11
-253.7744170826317
 21
-1080.81244478802
 31
0.0
  0
LINE
  5
140
330
39
100
AcDbEntity
  8
1
  6
Continuous
 62
     3
100
AcDbLine
 10
-257.5136564861396
 20
-1075.81244478802
 30
0.0
 11
-257.5136564861396
 21
-1077.81244478802
 31
0.0
  0
LINE
  5
141
330
39
100
AcDbEntity
  8
1
  6
Continuous
 62
     3
100
AcDbLine
 10
-279.9814526803477
 20
-1065.617279775356
 30
0.0
 11
-291.0532494500721
 21
-1065.617279775356
 31
0.0
  0
LINE
  5
142
330
39
100
AcDbEntity
  8
1
  6
Continuous
 62
     3
100
AcDbLine
 10
-279.9814526803477
 20
-1088.007609800685
 30
0.0
 11
-291.0532494500721
 21
-1088.007609800685
 31
0.0
  0
LINE
  5
143
330
39
100
AcDbEntity
  8
1
  6
Continuous
 62
     3
100
AcDbLine
 10
-276.5173510652099
 20
-1097.31244478802
 30
0.0
 11
-276.5173510652099
 21
-1056.330393980451
 31
0.0
  0
LINE
  5
144
330
39
100
AcDbEntity
  8
1
  6
Continuous
 62
     3
100
AcDbLine
 10
-253.830356788612
 20
-1053.329893280685
 30
0.0
 11
-261.830356788612
 21
-1054.329893280685
 31
0.0
  0
LINE
  5
145
330
39
100
AcDbEntity
  8
1
  6
Continuous
 62
     3
100
AcDbLine
 10
-242.8966952565
 20
-1053.103769689421
 30
0.0
 11
-250.8966952565
 21
-1053.103769689421
 31
0.0
  0
LINE
  5
146
330
39
100
AcDbEntity
  8
1
  6
Continuous
 62
     3
100
AcDbLine
 10
-235.0173510652099
 20
-1081.81244478802
 30
0.0
 11
-235.0173510652099
 21
-1099.31244478802
 31
0.0
  0
LINE
  5
147
330
39
100
AcDbEntity
  8
1
  6
Continuous
 62
     3
100
AcDbLine
 10
-234.0173510652099
 20
-1081.81244478802
 30
0.0
 11
-234.0173510652099
 21
-1100.31244478802
 31
0.0
  0
LINE
  5
148
330
39
100
AcDbEntity
  8
1
  6
Continuous
 62
     3
100
AcDbLine
 10
-234.0173510652099
 20
-1053.31244478802
 30
0.0
 11
-234.0173510652099
 21
-1081.81244478802
 31
0.0
  0
LINE
  5
149
330
39
100
AcDbEntity
  8
1
  6
Continuous
 62
     3
100
AcDbLine
 10
-235.0173510652099
 20
-1054.31244478802
 30
0.0
 11
-235.0173510652099
 21
-1081.81244478802
 31
0.0
  0
LINE
  5
14A
330
39
100
AcDbEntity
  8
1
  6
Continuous
 62
     3
100
AcDbLine
 10
-229.0173510652099
 20
-1053.580393980451
 30
0.0
 11
-229.0173510652099
 21
-1100.044495595589
 31
0.0
  0
LINE
  5
14B
330
39
100
AcDbEntity
  8
1
  6
Continuous
 62
     3
100
AcDbLine
 10
-330.1645674809363
 20
-1063.051103866107
 30
0.0
 11
-343.9938841668757
 21
-1055.066744154771
 31
0.0
  0
LINE
  5
14C
330
39
100
AcDbEntity
  8
1
  6
Continuous
 62
     3
100
AcDbLine
 10
-350.6645674809362
 20
-1055.066744154771
 30
0.0
 11
-364.4938841668757
 21
-1063.051103866107
 31
0.0
  0
LINE
  5
14D
330
39
100
AcDbEntity
  8
1
  6
Continuous
 62
     3
100
AcDbLine
 10
-367.829225823906
 20
-1068.828085076684
 30
0.0
 11
-367.829225823906
 21
-1084.796804499356
 31
0.0
  0
LINE
  5
14E
330
39
100
AcDbEntity
  8
1
  6
Continuous
 62
     3
100
AcDbLine
 10
-343.9938841668756
 20
-1098.558145421269
 30
0.0
 11
-330.1645674809363
 21
-1090.573785709933
 31
0.0
  0
LINE
  5
14F
330
39
100
AcDbEntity
  8
1
  6
Continuous
 62
     3
100
AcDbLine
 10
-364.4938841668757
 20
-1090.573785709933
 30
0.0
 11
-350.6645674809363
 21
-1098.558145421269
 31
0.0
  0
LINE
  5
150
330
39
100
AcDbEntity
  8
1
  6
Continuous
 62
     3
100
AcDbLine
 10
-326.829225823906
 20
-1084.796804499356
 30
0.0
 11
-326.829225823906
 21
-1068.828085076684
 31
0.0
  0
LINE
  5
151
330
39
100
AcDbEntity
  8
1
  6
DOT_CENTER
 62
     1
100
AcDbLine
 10
-347.329225823906
 20
-1017.81244478802
 30
0.0
 11
-347.329225823906
 21
-1102.35298532856
 31
0.0
  0
LINE
  5
152
330
39
100
AcDbEntity
  8
1
  6
DOT_CENTER
 62
     1
100
AcDbLine
 10
-321.7886852833655
 20
-1076.81244478802
 30
0.0
 11
-372.8697663644464
 21
-1076.81244478802
 31
0.0
  0
LINE
  5
153
330
39
100
AcDbEntity
  8
1
  6
Continuous
 62
     3
100
AcDbLine
 10
-271.5173510652099
 20
-1027.81244478802
 30
0.0
 11
-269.5173510652099
 21
-1027.81244478802
 31
0.0
  0
LINE
  5
154
330
39
100
AcDbEntity
  8
1
  6
Continuous
 62
     3
100
AcDbLine
 10
-235.5173510652099
 20
-1027.81244478802
 30
0.0
 11
-233.5173510652099
 21
-1027.81244478802
 31
0.0
  0
LINE
  5
155
330
39
100
AcDbEntity
  8
1
  6
Continuous
 62
     3
100
AcDbLine
 10
-241.5173510652099
 20
-1049.31244478802
 30
0.0
 11
-241.5173510652099
 21
-1039.185428134227
 31
0.0
  0
LINE
  5
156
330
39
100
AcDbEntity
  8
1
  6
Continuous
 62
     3
100
AcDbLine
 10
-263.5173510652099
 20
-1039.185428134227
 30
0.0
 11
-263.5173510652099
 21
-1051.809944850517
 31
0.0
  0
LINE
  5
157
330
39
100
AcDbEntity
  8
1
  6
Continuous
 62
     3
100
AcDbLine
 10
-272.5173510652099
 20
-1023.31244478802
 30
0.0
 11
-265.5173510652099
 21
-1023.31244478802
 31
0.0
  0
LINE
  5
158
330
39
100
AcDbEntity
  8
1
  6
Continuous
 62
     3
100
AcDbLine
 10
-232.5173510652098
 20
-1023.31244478802
 30
0.0
 11
-239.5173510652099
 21
-1023.31244478802
 31
0.0
  0
LINE
  5
159
330
39
100
AcDbEntity
  8
1
  6
Continuous
 62
     3
100
AcDbLine
 10
-265.5173510652099
 20
-1023.31244478802
 30
0.0
 11
-239.5173510652099
 21
-1023.31244478802
 31
0.0
  0
LINE
  5
15A
330
39
100
AcDbEntity
  8
1
  6
Continuous
 62
     3
100
AcDbLine
 10
-279.1465161898087
 20
-1098.81244478802
 30
0.0
 11
-274.6060146015845
 21
-1096.190984973803
 31
0.0
  0
LINE
  5
15B
330
39
100
AcDbEntity
  8
1
  6
Continuous
 62
     3
100
AcDbLine
 10
-235.0173510652099
 20
-1099.31244478802
 30
0.0
 11
-234.0173510652099
 21
-1100.31244478802
 31
0.0
  0
LINE
  5
15C
330
39
100
AcDbEntity
  8
1
  6
Continuous
 62
     3
100
AcDbLine
 10
-235.0173510652099
 20
-1099.31244478802
 30
0.0
 11
-252.5173510652099
 21
-1099.31244478802
 31
0.0
  0
LINE
  5
15D
330
39
100
AcDbEntity
  8
1
  6
Continuous
 62
     3
100
AcDbLine
 10
-234.0173510652099
 20
-1100.31244478802
 30
0.0
 11
-230.0173510652099
 21
-1100.31244478802
 31
0.0
  0
LINE
  5
15E
330
39
100
AcDbEntity
  8
1
  6
Continuous
 62
     3
100
AcDbLine
 10
-279.1154272765633
 20
-1098.81244478802
 30
0.0
 11
-276.5173510652099
 21
-1097.31244478802
 31
0.0
  0
LINE
  5
15F
330
39
100
AcDbEntity
  8
1
  6
Continuous
 62
     3
100
AcDbLine
 10
-279.1154272765633
 20
-1098.81244478802
 30
0.0
 11
-293.6409626903436
 21
-1098.81244478802
 31
0.0
  0
LINE
  5
160
330
39
100
AcDbEntity
  8
1
  6
Continuous
 62
     3
100
AcDbLine
 10
-293.6409626903436
 20
-1054.81244478802
 30
0.0
 11
-279.1465161898087
 21
-1054.81244478802
 31
0.0
  0
LINE
  5
161
330
39
100
AcDbEntity
  8
1
  6
Continuous
 62
     3
100
AcDbLine
 10
-274.6060146015845
 20
-1057.433904602237
 30
0.0
 11
-279.1465161898087
 21
-1054.81244478802
 31
0.0
  0
LINE
  5
162
330
39
100
AcDbEntity
  8
1
  6
Continuous
 62
     3
100
AcDbLine
 10
-230.0173510652099
 20
-1053.31244478802
 30
0.0
 11
-234.0173510652099
 21
-1053.31244478802
 31
0.0
  0
LINE
  5
163
330
39
100
AcDbEntity
  8
1
  6
Continuous
 62
     3
100
AcDbLine
 10
-234.0173510652099
 20
-1053.31244478802
 30
0.0
 11
-235.0173510652099
 21
-1054.31244478802
 31
0.0
  0
LINE
  5
164
330
39
100
AcDbEntity
  8
1
  6
Continuous
 62
     3
100
AcDbLine
 10
-294.5173510652099
 20
-1056.330393980451
 30
0.0
 11
-294.5173510652099
 21
-1097.31244478802
 31
0.0
  0
LINE
  5
165
330
39
100
AcDbEntity
  8
1
  6
DOT_CENTER
 62
     1
100
AcDbLine
 10
-252.5173510652099
 20
-1017.81244478802
 30
0.0
 11
-252.5173510652099
 21
-1102.31244478802
 31
0.0
  0
LINE
  5
166
330
39
100
AcDbEntity
  8
1
  6
DOT_CENTER
 62
     1
100
AcDbLine
 10
-298.0173510652099
 20
-1076.81244478802
 30
0.0
 11
-205.674177079442
 21
-1076.81244478802
 31
0.0
  0
LINE
  5
167
330
39
100
AcDbEntity
  8
1
  6
Continuous
 62
     3
100
AcDbLine
 10
-294.4468027584988
 20
-1097.416688847201
 30
0.0
 11
-293.6409626903436
 21
-1098.81244478802
 31
0.0
  0
LINE
  5
168
330
39
100
AcDbEntity
  8
1
  6
Continuous
 62
     3
100
AcDbLine
 10
-294.5173510652099
 20
-1056.330393980451
 30
0.0
 11
-293.6409626903436
 21
-1054.81244478802
 31
0.0
  0
LINE
  5
169
330
39
100
AcDbEntity
  8
1
  6
Continuous
 62
     3
100
AcDbLine
 10
-266.5173510652099
 20
-1030.81244478802
 30
0.0
 11
-266.5173510652099
 21
-1035.31244478802
 31
0.0
  0
LINE
  5
16A
330
39
100
AcDbEntity
  8
1
  6
Continuous
 62
     3
100
AcDbLine
 10
-238.5173510652099
 20
-1035.31244478802
 30
0.0
 11
-238.5173510652099
 21
-1030.81244478802
 31
0.0
  0
LINE
  5
16B
330
39
100
AcDbEntity
  8
1
  6
Continuous
 62
     3
100
AcDbLine
 10
-232.5173510652099
 20
-1026.81244478802
 30
0.0
 11
-232.5173510652098
 21
-1023.31244478802
 31
0.0
  0
LINE
  5
16C
330
39
100
AcDbEntity
  8
1
  6
Continuous
 62
     3
100
AcDbLine
 10
-230.5173510652099
 20
-1025.81244478802
 30
0.0
 11
-230.5173510652099
 21
-1023.31244478802
 31
0.0
  0
LINE
  5
16D
330
39
100
AcDbEntity
  8
1
  6
Continuous
 62
     3
100
AcDbLine
 10
-233.5173510652099
 20
-1027.81244478802
 30
0.0
 11
-232.5173510652099
 21
-1027.81244478802
 31
0.0
  0
LINE
  5
16E
330
39
100
AcDbEntity
  8
1
  6
Continuous
 62
     3
100
AcDbLine
 10
-230.5173510652099
 20
-1023.31244478802
 30
0.0
 11
-232.5173510652098
 21
-1023.31244478802
 31
0.0
  0
LINE
  5
16F
330
39
100
AcDbEntity
  8
1
  6
Continuous
 62
     3
100
AcDbLine
 10
-272.5173510652099
 20
-1023.31244478802
 30
0.0
 11
-272.5173510652099
 21
-1026.81244478802
 31
0.0
  0
ARC
  5
170
330
39
100
AcDbEntity
  8
1
  6
Continuous
 62
     3
100
AcDbCircle
 10
-11.6141436555215
 20
-1076.81244478802
 30
0.0
 40
19.82212632860704
100
AcDbArc
 50
145.6128986567674
 51
169.8299436253288
  0
ARC
  5
171
330
39
100
AcDbEntity
  8
1
  6
Continuous
 62
     3
100
AcDbCircle
 10
-55.43626998412893
 20
-1101.81244478802
 30
0.0
 40
47.50000000000039
100
AcDbArc
 50
68.09199559233332
 51
72.25615989524417
  0
ARC
  5
172
330
39
100
AcDbEntity
  8
1
  6
Continuous
 62
     3
100
AcDbCircle
 10
-55.43626998412893
 20
-1051.81244478802
 30
0.0
 40
47.5
100
AcDbArc
 50
-90.0
 51
-68.09199559233332
  0
ARC
  5
173
330
39
100
AcDbEntity
  8
1
  6
Continuous
 62
     3
100
AcDbCircle
 10
-11.6141436555215
 20
-1076.81244478802
 30
0.0
 40
19.82212632860727
100
AcDbArc
 50
-169.8299436253288
 51
-145.6128986567646
  0
ARC
  5
174
330
39
100
AcDbEntity
  8
1
  6
Continuous
 62
     3
100
AcDbCircle
 10
-25.10545342563898
 20
-1059.972703156146
 30
0.0
 40
6.33082141404788
100
AcDbArc
 50
-179.9290377792798
 51
-116.9246794458861
  0
ARC
  5
175
330
39
100
AcDbEntity
  8
1
  6
Continuous
 62
     3
100
AcDbCircle
 10
-25.09265937370913
 20
-1093.660027294352
 30
0.0
 40
6.343610610419088
100
AcDbArc
 50
116.9956416638466
 51
180.0
  0
ARC
  5
176
330
39
100
AcDbEntity
  8
1
  6
Continuous
 62
     3
100
AcDbCircle
 10
-33.2583963127363
 20
-1076.81244478802
 30
0.0
 40
19.82212632860768
100
AcDbArc
 50
-34.38710134323537
 51
34.38710134323266
  0
ARC
  5
177
330
39
100
AcDbEntity
  8
1
  6
Continuous
 62
     3
100
AcDbCircle
 10
-19.76708654261881
 20
-1059.972703156146
 30
0.0
 40
6.330821414048193
100
AcDbArc
 50
-63.07532055411402
 51
-0.07096222072023
  0
ARC
  5
178
330
39
100
AcDbEntity
  8
1
  6
Continuous
 62
     3
100
AcDbCircle
 10
-19.77988059454867
 20
-1093.660027294352
 30
0.0
 40
6.343610610419768
100
AcDbArc
 50
0.0
 51
63.00435833615348
  0
ARC
  5
179
330
39
100
AcDbEntity
  8
1
  6
Continuous
 62
     3
100
AcDbCircle
 10
-137.9768105246693
 20
-1054.446175541675
 30
0.0
 40
5.0
100
AcDbArc
 50
180.0
 51
-159.1986030485184
  0
ARC
  5
17A
330
39
100
AcDbEntity
  8
1
  6
Continuous
 62
     3
100
AcDbCircle
 10
-169.9768105246695
 20
-1054.446175541675
 30
0.0
 40
5.000000000000101
100
AcDbArc
 50
-20.80139695148123
 51
0.0
  0
ARC
  5
17B
330
39
100
AcDbEntity
  8
1
  6
Continuous
 62
     3
100
AcDbCircle
 10
-232.51735106521
 20
-945.81244478802
 30
0.0
 40
1.999999999999985
100
AcDbArc
 50
-70.52877936550858
 51
70.52877936550858
  0
ARC
  5
17C
330
39
100
AcDbEntity
  8
1
  6
Continuous
 62
     3
100
AcDbCircle
 10
-252.5173510652099
 20
-973.81244478802
 30
0.0
 40
13.99999999999991
100
AcDbArc
 50
50.30180115945469
 51
129.6981988405456
  0
ARC
  5
17D
330
39
100
AcDbEntity
  8
1
  6
Continuous
 62
     3
100
AcDbCircle
 10
-252.5173510652099
 20
-917.8124447880201
 30
0.0
 40
14.00000000000003
100
AcDbArc
 50
-129.6981988405452
 51
-50.30180115945469
  0
ARC
  5
17E
330
39
100
AcDbEntity
  8
1
  6
Continuous
 62
     3
100
AcDbCircle
 10
-347.329225823906
 20
-1076.81244478802
 30
0.0
 40
22.49999999999952
100
AcDbArc
 50
54.42147426754017
 51
125.5785257324595
  0
ARC
  5
17F
330
39
100
AcDbEntity
  8
1
  6
Continuous
 62
     3
100
AcDbCircle
 10
-363.329225823906
 20
-1054.446175541675
 30
0.0
 40
5.000000000000485
100
AcDbArc
 50
-54.42147426754413
 51
0.0
  0
ARC
  5
180
330
39
100
AcDbEntity
  8
1
  6
Continuous
 62
     3
100
AcDbCircle
 10
-347.329225823906
 20
-1076.81244478802
 30
0.0
 40
22.49999999999942
100
AcDbArc
 50
125.5785257324595
 51
180.0
  0
ARC
  5
181
330
39
100
AcDbEntity
  8
1
  6
Continuous
 62
     3
100
AcDbCircle
 10
-347.329225823906
 20
-1076.81244478802
 30
0.0
 40
22.5
100
AcDbArc
 50
180.0
 51
54.42147426754017
  0
ARC
  5
182
330
39
100
AcDbEntity
  8
1
  6
Continuous
 62
     3
100
AcDbCircle
 10
-331.3292258239059
 20
-1054.446175541675
 30
0.0
 40
5.0
100
AcDbArc
 50
180.0
 51
-125.5785257324548
  0
ARC
  5
183
330
39
100
AcDbEntity
  8
1
  6
Continuous
 62
     3
100
AcDbCircle
 10
-288.1737404547902
 20
-1093.660027294352
 30
0.0
 40
6.343610610419036
100
AcDbArc
 50
116.9956416638457
 51
180.0
  0
ARC
  5
184
330
39
100
AcDbEntity
  8
1
  6
Continuous
 62
     3
100
AcDbCircle
 10
-288.18653450672
 20
-1059.972703156146
 30
0.0
 40
6.330821414047819
100
AcDbArc
 50
-179.9290377792798
 51
-116.9246794458856
  0
ARC
  5
185
330
39
100
AcDbEntity
  8
1
  6
Continuous
 62
     3
100
AcDbCircle
 10
-274.6952247366025
 20
-1076.81244478802
 30
0.0
 40
19.82212632860703
100
AcDbArc
 50
145.6128986567674
 51
-145.6128986567646
  0
ARC
  5
186
330
39
100
AcDbEntity
  8
1
  6
Continuous
 62
     3
100
AcDbCircle
 10
-282.8609616756297
 20
-1093.660027294352
 30
0.0
 40
6.34361061041983
100
AcDbArc
 50
0.0
 51
63.004358336153
  0
ARC
  5
187
330
39
100
AcDbEntity
  8
1
  6
Continuous
 62
     3
100
AcDbCircle
 10
-282.8481676236999
 20
-1059.972703156146
 30
0.0
 40
6.330821414048247
100
AcDbArc
 50
-63.07532055411308
 51
-0.07096222072022
  0
ARC
  5
188
330
39
100
AcDbEntity
  8
1
  6
Continuous
 62
     3
100
AcDbCircle
 10
-296.3394773938173
 20
-1076.81244478802
 30
0.0
 40
19.82212632860767
100
AcDbArc
 50
-34.38710134323538
 51
34.38710134323267
  0
ARC
  5
189
330
39
100
AcDbEntity
  8
1
  6
Continuous
 62
     3
100
AcDbCircle
 10
-347.329225823906
 20
-1076.81244478802
 30
0.0
 40
22.00000000000021
100
AcDbArc
 50
81.27996646841335
 51
98.72003353158665
  0
ARC
  5
18A
330
39
100
AcDbEntity
  8
1
  6
Continuous
 62
     3
100
AcDbCircle
 10
-347.329225823906
 20
-1076.81244478802
 30
0.0
 40
21.99999999999994
100
AcDbArc
 50
141.2799664684136
 51
158.7200335315859
  0
ARC
  5
18B
330
39
100
AcDbEntity
  8
1
  6
Continuous
 62
     3
100
AcDbCircle
 10
-347.329225823906
 20
-1076.81244478802
 30
0.0
 40
22.00000000000016
100
AcDbArc
 50
-158.7200335315859
 51
-141.2799664684136
  0
ARC
  5
18C
330
39
100
AcDbEntity
  8
1
  6
Continuous
 62
     3
100
AcDbCircle
 10
-347.329225823906
 20
-1076.81244478802
 30
0.0
 40
22.00000000000022
100
AcDbArc
 50
-98.72003353158679
 51
-81.27996646841307
  0
ARC
  5
18D
330
39
100
AcDbEntity
  8
1
  6
Continuous
 62
     3
100
AcDbCircle
 10
-347.329225823906
 20
-1076.81244478802
 30
0.0
 40
22.00000000000016
100
AcDbArc
 50
21.2799664684141
 51
38.7200335315865
  0
ARC
  5
18E
330
39
100
AcDbEntity
  8
1
  6
Continuous
 62
     3
100
AcDbCircle
 10
-347.329225823906
 20
-1076.81244478802
 30
0.0
 40
21.99999999999989
100
AcDbArc
 50
-38.7200335315865
 51
-21.2799664684141
  0
ARC
  5
18F
330
39
100
AcDbEntity
  8
1
  6
Continuous
 62
     3
100
AcDbCircle
 10
-252.5173510652099
 20
-1051.81244478802
 30
0.0
 40
47.50000000000039
100
AcDbArc
 50
-111.9080044076667
 51
-90.0
  0
ARC
  5
190
330
39
100
AcDbEntity
  8
1
  6
Continuous
 62
     3
100
AcDbCircle
 10
-252.5173510652099
 20
-1101.81244478802
 30
0.0
 40
47.49999999999976
100
AcDbArc
 50
107.7438401047559
 51
111.9080044076667
  0
CIRCLE
  5
191
330
39
100
AcDbEntity
  8
1
  6
Continuous
 62
     3
100
AcDbCircle
 10
-266.659486688941
 20
-959.954580411751
 30
0.0
 40
2.5
  0
CIRCLE
  5
192
330
39
100
AcDbEntity
  8
1
  6
Continuous
 62
     3
100
AcDbCircle
 10
-266.659486688941
 20
-931.6703091642891
 30
0.0
 40
2.5
  0
CIRCLE
  5
193
330
39
100
AcDbEntity
  8
1
  6
Continuous
 62
     3
100
AcDbCircle
 10
-238.375215441479
 20
-959.954580411751
 30
0.0
 40
2.5
  0
CIRCLE
  5
194
330
39
100
AcDbEntity
  8
1
  6
Continuous
 62
     3
100
AcDbCircle
 10
-238.375215441479
 20
-931.6703091642891
 30
0.0
 40
2.5
  0
CIRCLE
  5
195
330
39
100
AcDbEntity
  8
1
  6
Continuous
 62
     3
100
AcDbCircle
 10
-347.329225823906
 20
-1076.81244478802
 30
0.0
 40
16.25624999999997
  0
CIRCLE
  5
196
330
39
100
AcDbEntity
  8
1
  6
Continuous
 62
     3
100
AcDbCircle
 10
-347.329225823906
 20
-1076.81244478802
 30
0.0
 40
20.5
  0
CIRCLE
  5
197
330
39
100
AcDbEntity
  8
1
  6
Continuous
 62
     1
100
AcDbCircle
 10
-347.329225823906
 20
-1076.81244478802
 30
0.0
 40
17.85292683205137
  0
ARC
  5
198
330
39
100
AcDbEntity
  8
1
  6
Continuous
 62
     3
100
AcDbCircle
 10
-36.43626998412896
 20
-1026.81244478802
 30
0.0
 40
1.0
100
AcDbArc
 50
-90.0
 51
0.0
  0
ARC
  5
199
330
39
100
AcDbEntity
  8
1
  6
Continuous
 62
     3
100
AcDbCircle
 10
-75.4362699841289
 20
-1025.81244478802
 30
0.0
 40
2.0
100
AcDbArc
 50
180.0
 51
-90.0
  0
ARC
  5
19A
330
39
100
AcDbEntity
  8
1
  6
Continuous
 62
     3
100
AcDbCircle
 10
-74.43626998412893
 20
-1026.81244478802
 30
0.0
 40
1.0
100
AcDbArc
 50
180.0
 51
-90.0
  0
ARC
  5
19B
330
39
100
AcDbEntity
  8
1
  6
Continuous
 62
     3
100
AcDbCircle
 10
-72.43626998412893
 20
-1030.81244478802
 30
0.0
 40
3.0
100
AcDbArc
 50
0.0
 51
90.0
  0
ARC
  5
19C
330
39
100
AcDbEntity
  8
1
  6
Continuous
 62
     3
100
AcDbCircle
 10
-67.43626998412896
 20
-1035.31244478802
 30
0.0
 40
1.999999999999972
100
AcDbArc
 50
180.0
 51
-104.4775121859278
  0
ARC
  5
19D
330
39
100
AcDbEntity
  8
1
  6
Continuous
 62
     3
100
AcDbCircle
 10
-68.43626998412896
 20
-1039.185428134227
 30
0.0
 40
2.0
100
AcDbArc
 50
0.0
 51
75.52248781406567
  0
ARC
  5
19E
330
39
100
AcDbEntity
  8
1
  6
Continuous
 62
     3
100
AcDbCircle
 10
-42.43626998412896
 20
-1039.185428134227
 30
0.0
 40
1.999999999999403
100
AcDbArc
 50
104.4775121859343
 51
180.0
  0
ARC
  5
19F
330
39
100
AcDbEntity
  8
1
  6
Continuous
 62
     3
100
AcDbCircle
 10
-43.43626998412896
 20
-1035.31244478802
 30
0.0
 40
2.000000000000283
100
AcDbArc
 50
-75.52248781407218
 51
0.0
  0
ARC
  5
1A0
330
39
100
AcDbEntity
  8
1
  6
Continuous
 62
     3
100
AcDbCircle
 10
-38.43626998412896
 20
-1030.81244478802
 30
0.0
 40
3.0
100
AcDbArc
 50
90.0
 51
180.0
  0
ARC
  5
1A1
330
39
100
AcDbEntity
  8
1
  6
Continuous
 62
     3
100
AcDbCircle
 10
-77.93626998412893
 20
-1055.31244478802
 30
0.0
 40
2.0
100
AcDbArc
 50
90.0
 51
110.4873151147275
  0
ARC
  5
1A2
330
39
100
AcDbEntity
  8
1
  6
Continuous
 62
     3
100
AcDbCircle
 10
-77.93626998412893
 20
-1055.31244478802
 30
0.0
 40
1.999999999999514
100
AcDbArc
 50
110.4873151147275
 51
119.9999999999973
  0
ARC
  5
1A3
330
39
100
AcDbEntity
  8
1
  6
Continuous
 62
     3
100
AcDbCircle
 10
-35.84760644775435
 20
-1053.103777583315
 30
0.0
 40
4.999999999999637
100
AcDbArc
 50
-111.908004407668
 51
-59.99999999999881
  0
ARC
  5
1A4
330
39
100
AcDbEntity
  8
1
  6
Continuous
 62
     3
100
AcDbCircle
 10
-72.18626998412898
 20
-1048.56244478802
 30
0.0
 40
5.798706752371594
100
AcDbArc
 50
-97.43140797117195
 51
-7.43140797117251
  0
ARC
  5
1A5
330
39
100
AcDbEntity
  8
1
  6
Continuous
 62
     3
100
AcDbCircle
 10
-77.93626998412893
 20
-1098.31244478802
 30
0.0
 40
2.000000000000164
100
AcDbArc
 50
-119.9999999999973
 51
-90.0
  0
ARC
  5
1A6
330
39
100
AcDbEntity
  8
1
  6
Continuous
 62
     3
100
AcDbCircle
 10
-35.84760644775435
 20
-1100.521111992725
 30
0.0
 40
4.99999999999982
100
AcDbArc
 50
59.99999999999881
 51
111.908004407668
  0
ARC
  5
1A7
330
39
100
AcDbEntity
  8
1
  6
Continuous
 62
     3
100
AcDbCircle
 10
-39.43626998412896
 20
-1051.809944850517
 30
0.0
 40
5.0
100
AcDbArc
 50
180.0
 51
-107.7438401047551
  0
ARC
  5
1A8
330
39
100
AcDbEntity
  8
1
  6
Continuous
 62
     3
100
AcDbCircle
 10
-170.9768105246695
 20
-1030.81244478802
 30
0.0
 40
3.0
100
AcDbArc
 50
0.0
 51
90.0
  0
ARC
  5
1A9
330
39
100
AcDbEntity
  8
1
  6
Continuous
 62
     3
100
AcDbCircle
 10
-165.9768105246695
 20
-1035.31244478802
 30
0.0
 40
2.0
100
AcDbArc
 50
180.0
 51
-104.4775121859278
  0
ARC
  5
1AA
330
39
100
AcDbEntity
  8
1
  6
Continuous
 62
     3
100
AcDbCircle
 10
-166.9768105246695
 20
-1039.185428134227
 30
0.0
 40
2.0
100
AcDbArc
 50
0.0
 51
75.52248781406567
  0
ARC
  5
1AB
330
39
100
AcDbEntity
  8
1
  6
Continuous
 62
     3
100
AcDbCircle
 10
-140.9768105246695
 20
-1039.185428134227
 30
0.0
 40
1.999999999999403
100
AcDbArc
 50
104.4775121859343
 51
180.0
  0
ARC
  5
1AC
330
39
100
AcDbEntity
  8
1
  6
Continuous
 62
     3
100
AcDbCircle
 10
-141.9768105246695
 20
-1035.31244478802
 30
0.0
 40
2.000000000000283
100
AcDbArc
 50
-75.52248781407218
 51
0.0
  0
ARC
  5
1AD
330
39
100
AcDbEntity
  8
1
  6
Continuous
 62
     3
100
AcDbCircle
 10
-136.9768105246695
 20
-1030.81244478802
 30
0.0
 40
3.0
100
AcDbArc
 50
90.0
 51
180.0
  0
ARC
  5
1AE
330
39
100
AcDbEntity
  8
1
  6
Continuous
 62
     3
100
AcDbCircle
 10
-134.9768105246695
 20
-1026.81244478802
 30
0.0
 40
1.0
100
AcDbArc
 50
-90.0
 51
0.0
  0
ARC
  5
1AF
330
39
100
AcDbEntity
  8
1
  6
Continuous
 62
     3
100
AcDbCircle
 10
-172.9768105246695
 20
-1026.81244478802
 30
0.0
 40
1.0
100
AcDbArc
 50
180.0
 51
-90.0
  0
ARC
  5
1B0
330
39
100
AcDbEntity
  8
1
  6
Continuous
 62
     3
100
AcDbCircle
 10
-231.51735106521
 20
-948.6408719127662
 30
0.0
 40
1.000000000000036
100
AcDbArc
 50
109.4712206344888
 51
180.0
  0
ARC
  5
1B1
330
39
100
AcDbEntity
  8
1
  6
Continuous
 62
     3
100
AcDbCircle
 10
-231.51735106521
 20
-942.9840176632738
 30
0.0
 40
1.0
100
AcDbArc
 50
180.0
 51
-109.4712206344888
  0
ARC
  5
1B2
330
39
100
AcDbEntity
  8
1
  6
Continuous
 62
     3
100
AcDbCircle
 10
-238.51735106521
 20
-931.8124447880201
 30
0.0
 40
6.0
100
AcDbArc
 50
0.0
 51
147.4509890024914
  0
ARC
  5
1B3
330
39
100
AcDbEntity
  8
1
  6
Continuous
 62
     3
100
AcDbCircle
 10
-266.5173510652099
 20
-931.8124447880201
 30
0.0
 40
6.0
100
AcDbArc
 50
90.0
 51
180.0
  0
ARC
  5
1B4
330
39
100
AcDbEntity
  8
1
  6
Continuous
 62
     3
100
AcDbCircle
 10
-266.5173510652099
 20
-959.81244478802
 30
0.0
 40
6.0
100
AcDbArc
 50
-90.0
 51
-32.54901099750824
  0
ARC
  5
1B5
330
39
100
AcDbEntity
  8
1
  6
Continuous
 62
     3
100
AcDbCircle
 10
-238.51735106521
 20
-959.81244478802
 30
0.0
 40
6.000000000000021
100
AcDbArc
 50
-147.4509890024914
 51
0.0
  0
ARC
  5
1B6
330
39
100
AcDbEntity
  8
1
  6
Continuous
 62
     3
100
AcDbCircle
 10
-266.5173510652099
 20
-931.8124447880201
 30
0.0
 40
5.99999999999996
100
AcDbArc
 50
32.54901099750765
 51
90.0
  0
ARC
  5
1B7
330
39
100
AcDbEntity
  8
1
  6
Continuous
 62
     3
100
AcDbCircle
 10
-266.5173510652099
 20
-959.81244478802
 30
0.0
 40
6.0
100
AcDbArc
 50
180.0
 51
-90.0
  0
ARC
  5
1B8
330
39
100
AcDbEntity
  8
1
  6
Continuous
 62
     3
100
AcDbCircle
 10
-366.329225823906
 20
-1026.81244478802
 30
0.0
 40
1.0
100
AcDbArc
 50
180.0
 51
-90.0
  0
ARC
  5
1B9
330
39
100
AcDbEntity
  8
1
  6
Continuous
 62
     3
100
AcDbCircle
 10
-328.329225823906
 20
-1026.81244478802
 30
0.0
 40
1.0
100
AcDbArc
 50
-90.0
 51
0.0
  0
ARC
  5
1BA
330
39
100
AcDbEntity
  8
1
  6
Continuous
 62
     3
100
AcDbCircle
 10
-330.329225823906
 20
-1030.81244478802
 30
0.0
 40
3.0
100
AcDbArc
 50
90.0
 51
180.0
  0
ARC
  5
1BB
330
39
100
AcDbEntity
  8
1
  6
Continuous
 62
     3
100
AcDbCircle
 10
-335.329225823906
 20
-1035.31244478802
 30
0.0
 40
2.000000000000283
100
AcDbArc
 50
-75.52248781407218
 51
0.0
  0
ARC
  5
1BC
330
39
100
AcDbEntity
  8
1
  6
Continuous
 62
     3
100
AcDbCircle
 10
-334.329225823906
 20
-1039.185428134227
 30
0.0
 40
1.999999999999403
100
AcDbArc
 50
104.4775121859343
 51
180.0
  0
ARC
  5
1BD
330
39
100
AcDbEntity
  8
1
  6
Continuous
 62
     3
100
AcDbCircle
 10
-360.329225823906
 20
-1039.185428134227
 30
0.0
 40
2.0
100
AcDbArc
 50
0.0
 51
75.52248781406567
  0
ARC
  5
1BE
330
39
100
AcDbEntity
  8
1
  6
Continuous
 62
     3
100
AcDbCircle
 10
-359.329225823906
 20
-1035.31244478802
 30
0.0
 40
2.0
100
AcDbArc
 50
180.0
 51
-104.4775121859278
  0
ARC
  5
1BF
330
39
100
AcDbEntity
  8
1
  6
Continuous
 62
     3
100
AcDbCircle
 10
-364.329225823906
 20
-1030.81244478802
 30
0.0
 40
3.0
100
AcDbArc
 50
0.0
 51
90.0
  0
ARC
  5
1C0
330
39
100
AcDbEntity
  8
1
  6
Continuous
 62
     3
100
AcDbCircle
 10
-253.3533060533633
 20
-1074.811365927747
 30
0.0
 40
2.001078860273083
100
AcDbArc
 50
-90.0
 51
0.0
  0
ARC
  5
1C1
330
39
100
AcDbEntity
  8
1
  6
Continuous
 62
     3
100
AcDbCircle
 10
-268.5173510652099
 20
-1051.809944850517
 30
0.0
 40
5.000000000000103
100
AcDbArc
 50
-72.25615989524536
 51
0.0
  0
ARC
  5
1C2
330
39
100
AcDbEntity
  8
1
  6
Continuous
 62
     3
100
AcDbCircle
 10
-272.1060146015845
 20
-1100.521111992725
 30
0.0
 40
4.999999999999639
100
AcDbArc
 50
68.0919955923319
 51
120.0000000000012
  0
ARC
  5
1C3
330
39
100
AcDbEntity
  8
1
  6
Continuous
 62
     3
100
AcDbCircle
 10
-230.0173510652099
 20
-1098.31244478802
 30
0.0
 40
2.0
100
AcDbArc
 50
-90.0
 51
-60.00000000000272
  0
ARC
  5
1C4
330
39
100
AcDbEntity
  8
1
  6
Continuous
 62
     3
100
AcDbCircle
 10
-235.7673510652099
 20
-1048.56244478802
 30
0.0
 40
5.798706752371601
100
AcDbArc
 50
-172.5685920288275
 51
-82.5685920288275
  0
ARC
  5
1C5
330
39
100
AcDbEntity
  8
1
  6
Continuous
 62
     3
100
AcDbCircle
 10
-272.1060146015845
 20
-1053.103777583315
 30
0.0
 40
4.99999999999982
100
AcDbArc
 50
-120.0000000000012
 51
-68.0919955923319
  0
ARC
  5
1C6
330
39
100
AcDbEntity
  8
1
  6
Continuous
 62
     3
100
AcDbCircle
 10
-230.0173510652099
 20
-1055.31244478802
 30
0.0
 40
2.000000000000164
100
AcDbArc
 50
60.00000000000272
 51
69.51268488527173
  0
ARC
  5
1C7
330
39
100
AcDbEntity
  8
1
  6
Continuous
 62
     3
100
AcDbCircle
 10
-230.0173510652099
 20
-1055.31244478802
 30
0.0
 40
1.999999999999524
100
AcDbArc
 50
69.51268488527173
 51
90.0
  0
ARC
  5
1C8
330
39
100
AcDbEntity
  8
1
  6
Continuous
 62
     3
100
AcDbCircle
 10
-269.5173510652099
 20
-1030.81244478802
 30
0.0
 40
3.0
100
AcDbArc
 50
0.0
 51
90.0
  0
ARC
  5
1C9
330
39
100
AcDbEntity
  8
1
  6
Continuous
 62
     3
100
AcDbCircle
 10
-264.5173510652099
 20
-1035.31244478802
 30
0.0
 40
2.0
100
AcDbArc
 50
180.0
 51
-104.4775121859278
  0
ARC
  5
1CA
330
39
100
AcDbEntity
  8
1
  6
Continuous
 62
     3
100
AcDbCircle
 10
-265.5173510652099
 20
-1039.185428134227
 30
0.0
 40
2.0
100
AcDbArc
 50
0.0
 51
75.52248781406567
  0
ARC
  5
1CB
330
39
100
AcDbEntity
  8
1
  6
Continuous
 62
     3
100
AcDbCircle
 10
-239.5173510652099
 20
-1039.185428134227
 30
0.0
 40
1.999999999999403
100
AcDbArc
 50
104.4775121859343
 51
180.0
  0
ARC
  5
1CC
330
39
100
AcDbEntity
  8
1
  6
Continuous
 62
     3
100
AcDbCircle
 10
-240.5173510652099
 20
-1035.31244478802
 30
0.0
 40
2.000000000000283
100
AcDbArc
 50
-75.52248781407218
 51
0.0
  0
ARC
  5
1CD
330
39
100
AcDbEntity
  8
1
  6
Continuous
 62
     3
100
AcDbCircle
 10
-235.5173510652099
 20
-1030.81244478802
 30
0.0
 40
3.0
100
AcDbArc
 50
90.0
 51
180.0
  0
ARC
  5
1CE
330
39
100
AcDbEntity
  8
1
  6
Continuous
 62
     3
100
AcDbCircle
 10
-233.5173510652099
 20
-1026.81244478802
 30
0.0
 40
1.0
100
AcDbArc
 50
-90.0
 51
0.0
  0
ARC
  5
1CF
330
39
100
AcDbEntity
  8
1
  6
Continuous
 62
     3
100
AcDbCircle
 10
-232.5173510652099
 20
-1025.81244478802
 30
0.0
 40
2.0
100
AcDbArc
 50
-90.0
 51
0.0
  0
ARC
  5
1D0
330
39
100
AcDbEntity
  8
1
  6
Continuous
 62
     3
100
AcDbCircle
 10
-271.5173510652099
 20
-1026.81244478802
 30
0.0
 40
1.0
100
AcDbArc
 50
180.0
 51
-90.0
  0
TEXT
  5
1D2
330
39
100
AcDbEntity
  8
1
 62
     1
100
AcDbText
 10
-74.17703097769879
 20
-1078.649270600255
 30
0.0
 40
4.0
  1
VY5302A0023
 41
0.855
  7
CONVERTER_1
100
AcDbText
  0
MTEXT
  5
1D4
330
39
100
AcDbEntity
  8
1
 62
     3
100
AcDbMText
 10
-252.5173510652099
 20
-1070.81244478802
 30
0.0
 40
5.0
 41
0.0
 71
     8
 72
     1
  1
25
  7
CONVERTER_2
 73
     1
 44
0.84033613445378
  0
MTEXT
  5
1D6
330
39
100
AcDbEntity
  8
1
 62
     3
100
AcDbMText
 10
-252.5173510652099
 20
-1082.81244478802
 30
0.0
 40
5.0
 41
0.0
 71
     2
 72
     1
  1
PN16
  7
CONVERTER_3
 73
     1
 44
0.84033613445378
  0
ENDBLK
  5
3B
330
39
100
AcDbEntity
  8
0
100
AcDbBlockEnd
  0
BLOCK
  5
3D
330
3C
100
AcDbEntity
  8
0
100
AcDbBlockBegin
  2
_2
 70
     0
 71
     0
 10
-422.5699444074461
 20
-596.6193529016481
 30
0.0
  3
_2
  1

  0
LINE
  5
1D7
330
3C
100
AcDbEntity
  8
1
  6
Continuous
 62
     3
100
AcDbLine
 10
-246.2536067618426
 20
-931.7438447403239
 30
0.0
 11
-247.0060695515329
 21
-933.4339038369627
 31
0.0
  0
LINE
  5
1D8
330
3C
100
AcDbEntity
  8
1
  6
Continuous
 62
     3
100
AcDbLine
 10
-257.5932704059956
 20
-933.2491035586401
 30
0.0
 11
-258.286292603815
 21
-931.5338134276915
 31
0.0
  0
LINE
  5
1D9
330
3C
100
AcDbEntity
  8
1
  6
Continuous
 62
     3
100
AcDbLine
 10
-265.0806922945899
 20
-950.8883641288056
 30
0.0
 11
-266.7959824255385
 21
-951.5813863266251
 31
0.0
  0
LINE
  5
1DA
330
3C
100
AcDbEntity
  8
1
  6
Continuous
 62
     3
100
AcDbLine
 10
-266.5859511129061
 20
-939.5487004846526
 30
0.0
 11
-264.8958920162672
 21
-940.3011632743429
 31
0.0
  0
LINE
  5
1DB
330
3C
100
AcDbEntity
  8
1
  6
Continuous
 62
     3
100
AcDbLine
 10
-247.4414317244244
 20
-958.3757860174
 30
0.0
 11
-246.7484095266049
 21
-960.0910761483486
 31
0.0
  0
LINE
  5
1DC
330
3C
100
AcDbEntity
  8
1
  6
Continuous
 62
     3
100
AcDbLine
 10
-258.7810953685773
 20
-959.8810448357161
 30
0.0
 11
-258.0286325788871
 21
-958.1909857390773
 31
0.0
  0
LINE
  5
1DD
330
3C
100
AcDbEntity
  8
1
  6
Continuous
 62
     3
100
AcDbLine
 10
-239.95400983583
 20
-940.7365254472344
 30
0.0
 11
-238.2387197048814
 21
-940.043503249415
 31
0.0
  0
LINE
  5
1DE
330
3C
100
AcDbEntity
  8
1
  6
Continuous
 62
     3
100
AcDbLine
 10
-238.4487510175139
 20
-952.0761890913874
 30
0.0
 11
-240.1388101141527
 21
-951.3237263016971
 31
0.0
  0
LINE
  5
1DF
330
3C
100
AcDbEntity
  8
1
  6
Continuous
 62
     3
100
AcDbLine
 10
-69.34605085068498
 20
-1018.31244478802
 30
0.0
 11
-69.34605085068498
 21
-1011.81244478802
 31
0.0
  0
LINE
  5
1E0
330
3C
100
AcDbEntity
  8
1
  6
Continuous
 62
     3
100
AcDbLine
 10
-55.43626998412893
 20
-1011.81244478802
 30
0.0
 11
-69.34605085068498
 21
-1011.81244478802
 31
0.0
  0
LINE
  5
1E1
330
3C
100
AcDbEntity
  8
1
  6
Continuous
 62
     3
100
AcDbLine
 10
-41.52648911757299
 20
-1011.81244478802
 30
0.0
 11
-55.43626998412893
 21
-1011.81244478802
 31
0.0
  0
LINE
  5
1E2
330
3C
100
AcDbEntity
  8
1
  6
Continuous
 62
     3
100
AcDbLine
 10
-41.52648911757299
 20
-1011.81244478802
 30
0.0
 11
-41.52648911757299
 21
-1018.31244478802
 31
0.0
  0
LINE
  5
1E3
330
3C
100
AcDbEntity
  8
1
  6
Continuous
 62
     3
100
AcDbLine
 10
-60.76781000368035
 20
-1018.31244478802
 30
0.0
 11
-69.34605085068498
 21
-1018.31244478802
 31
0.0
  0
LINE
  5
1E4
330
3C
100
AcDbEntity
  8
1
  6
Continuous
 62
     3
100
AcDbLine
 10
-68.93626998412893
 20
-1023.31244478802
 30
0.0
 11
-68.93626998412893
 21
-1018.31244478802
 31
0.0
  0
LINE
  5
1E5
330
3C
100
AcDbEntity
  8
1
  6
Continuous
 62
     3
100
AcDbLine
 10
-62.27498303881944
 20
-1011.81244478802
 30
0.0
 11
-62.27498303881944
 21
-1018.31244478802
 31
0.0
  0
LINE
  5
1E6
330
3C
100
AcDbEntity
  8
1
  6
Continuous
 62
     3
100
AcDbLine
 10
-60.76781000368035
 20
-1011.81244478802
 30
0.0
 11
-60.76781000368035
 21
-1018.31244478802
 31
0.0
  0
LINE
  5
1E7
330
3C
100
AcDbEntity
  8
1
  6
Continuous
 62
     3
100
AcDbLine
 10
-50.1047299645775
 20
-1018.31244478802
 30
0.0
 11
-50.1047299645775
 21
-1011.81244478802
 31
0.0
  0
LINE
  5
1E8
330
3C
100
AcDbEntity
  8
1
  6
Continuous
 62
     3
100
AcDbLine
 10
-48.59755692943853
 20
-1018.31244478802
 30
0.0
 11
-48.59755692943853
 21
-1011.81244478802
 31
0.0
  0
LINE
  5
1E9
330
3C
100
AcDbEntity
  8
1
  6
Continuous
 62
     3
100
AcDbLine
 10
-41.52648911757299
 20
-1018.31244478802
 30
0.0
 11
-50.1047299645775
 21
-1018.31244478802
 31
0.0
  0
LINE
  5
1EA
330
3C
100
AcDbEntity
  8
1
  6
Continuous
 62
     3
100
AcDbLine
 10
-41.93626998412893
 20
-1018.31244478802
 30
0.0
 11
-41.93626998412893
 21
-1023.31244478802
 31
0.0
  0
LINE
  5
1EB
330
3C
100
AcDbEntity
  8
1
  6
DASH_CENTER
 62
     1
100
AcDbLine
 10
-55.43626998412893
 20
-1008.276240129106
 30
0.0
 11
-55.43626998412893
 21
-1026.036576487128
 31
0.0
  0
LINE
  5
1EC
330
3C
100
AcDbEntity
  8
1
  6
DASH_CENTER
 62
     1
100
AcDbLine
 10
-347.329225823906
 20
-1008.276240129106
 30
0.0
 11
-347.329225823906
 21
-1026.036576487128
 31
0.0
  0
LINE
  5
1ED
330
3C
100
AcDbEntity
  8
1
  6
Continuous
 62
     3
100
AcDbLine
 10
-333.829225823906
 20
-1018.31244478802
 30
0.0
 11
-333.829225823906
 21
-1023.31244478802
 31
0.0
  0
LINE
  5
1EE
330
3C
100
AcDbEntity
  8
1
  6
Continuous
 62
     3
100
AcDbLine
 10
-333.41944495735
 20
-1018.31244478802
 30
0.0
 11
-341.9976858043546
 21
-1018.31244478802
 31
0.0
  0
LINE
  5
1EF
330
3C
100
AcDbEntity
  8
1
  6
Continuous
 62
     3
100
AcDbLine
 10
-340.4905127692156
 20
-1018.31244478802
 30
0.0
 11
-340.4905127692156
 21
-1011.81244478802
 31
0.0
  0
LINE
  5
1F0
330
3C
100
AcDbEntity
  8
1
  6
Continuous
 62
     3
100
AcDbLine
 10
-341.9976858043546
 20
-1018.31244478802
 30
0.0
 11
-341.9976858043546
 21
-1011.81244478802
 31
0.0
  0
LINE
  5
1F1
330
3C
100
AcDbEntity
  8
1
  6
Continuous
 62
     3
100
AcDbLine
 10
-352.6607658434574
 20
-1011.81244478802
 30
0.0
 11
-352.6607658434574
 21
-1018.31244478802
 31
0.0
  0
LINE
  5
1F2
330
3C
100
AcDbEntity
  8
1
  6
Continuous
 62
     3
100
AcDbLine
 10
-354.1679388785965
 20
-1011.81244478802
 30
0.0
 11
-354.1679388785965
 21
-1018.31244478802
 31
0.0
  0
LINE
  5
1F3
330
3C
100
AcDbEntity
  8
1
  6
Continuous
 62
     3
100
AcDbLine
 10
-360.829225823906
 20
-1023.31244478802
 30
0.0
 11
-360.829225823906
 21
-1018.31244478802
 31
0.0
  0
LINE
  5
1F4
330
3C
100
AcDbEntity
  8
1
  6
Continuous
 62
     3
100
AcDbLine
 10
-352.6607658434574
 20
-1018.31244478802
 30
0.0
 11
-361.239006690462
 21
-1018.31244478802
 31
0.0
  0
LINE
  5
1F5
330
3C
100
AcDbEntity
  8
1
  6
Continuous
 62
     3
100
AcDbLine
 10
-333.41944495735
 20
-1011.81244478802
 30
0.0
 11
-333.41944495735
 21
-1018.31244478802
 31
0.0
  0
LINE
  5
1F6
330
3C
100
AcDbEntity
  8
1
  6
Continuous
 62
     3
100
AcDbLine
 10
-333.41944495735
 20
-1011.81244478802
 30
0.0
 11
-347.329225823906
 21
-1011.81244478802
 31
0.0
  0
LINE
  5
1F7
330
3C
100
AcDbEntity
  8
1
  6
Continuous
 62
     3
100
AcDbLine
 10
-347.329225823906
 20
-1011.81244478802
 30
0.0
 11
-361.239006690462
 21
-1011.81244478802
 31
0.0
  0
LINE
  5
1F8
330
3C
100
AcDbEntity
  8
1
  6
Continuous
 62
     3
100
AcDbLine
 10
-361.239006690462
 20
-1018.31244478802
 30
0.0
 11
-361.239006690462
 21
-1011.81244478802
 31
0.0
  0
LINE
  5
1F9
330
3C
100
AcDbEntity
  8
1
  6
Continuous
 62
     3
100
AcDbLine
 10
-266.427131931766
 20
-1018.31244478802
 30
0.0
 11
-266.427131931766
 21
-1011.81244478802
 31
0.0
  0
LINE
  5
1FA
330
3C
100
AcDbEntity
  8
1
  6
Continuous
 62
     3
100
AcDbLine
 10
-252.5173510652099
 20
-1011.81244478802
 30
0.0
 11
-266.427131931766
 21
-1011.81244478802
 31
0.0
  0
LINE
  5
1FB
330
3C
100
AcDbEntity
  8
1
  6
Continuous
 62
     3
100
AcDbLine
 10
-238.607570198654
 20
-1011.81244478802
 30
0.0
 11
-252.5173510652099
 21
-1011.81244478802
 31
0.0
  0
LINE
  5
1FC
330
3C
100
AcDbEntity
  8
1
  6
Continuous
 62
     3
100
AcDbLine
 10
-238.607570198654
 20
-1011.81244478802
 30
0.0
 11
-238.607570198654
 21
-1018.31244478802
 31
0.0
  0
LINE
  5
1FD
330
3C
100
AcDbEntity
  8
1
  6
Continuous
 62
     3
100
AcDbLine
 10
-257.8488910847614
 20
-1018.31244478802
 30
0.0
 11
-266.427131931766
 21
-1018.31244478802
 31
0.0
  0
LINE
  5
1FE
330
3C
100
AcDbEntity
  8
1
  6
Continuous
 62
     3
100
AcDbLine
 10
-266.0173510652099
 20
-1023.31244478802
 30
0.0
 11
-266.0173510652099
 21
-1018.31244478802
 31
0.0
  0
LINE
  5
1FF
330
3C
100
AcDbEntity
  8
1
  6
Continuous
 62
     3
100
AcDbLine
 10
-259.3560641199005
 20
-1011.81244478802
 30
0.0
 11
-259.3560641199005
 21
-1018.31244478802
 31
0.0
  0
LINE
  5
200
330
3C
100
AcDbEntity
  8
1
  6
Continuous
 62
     3
100
AcDbLine
 10
-257.8488910847614
 20
-1011.81244478802
 30
0.0
 11
-257.8488910847614
 21
-1018.31244478802
 31
0.0
  0
LINE
  5
201
330
3C
100
AcDbEntity
  8
1
  6
Continuous
 62
     3
100
AcDbLine
 10
-247.1858110456585
 20
-1018.31244478802
 30
0.0
 11
-247.1858110456585
 21
-1011.81244478802
 31
0.0
  0
LINE
  5
202
330
3C
100
AcDbEntity
  8
1
  6
Continuous
 62
     3
100
AcDbLine
 10
-245.6786380105195
 20
-1018.31244478802
 30
0.0
 11
-245.6786380105195
 21
-1011.81244478802
 31
0.0
  0
LINE
  5
203
330
3C
100
AcDbEntity
  8
1
  6
Continuous
 62
     3
100
AcDbLine
 10
-238.607570198654
 20
-1018.31244478802
 30
0.0
 11
-247.1858110456585
 21
-1018.31244478802
 31
0.0
  0
LINE
  5
204
330
3C
100
AcDbEntity
  8
1
  6
Continuous
 62
     3
100
AcDbLine
 10
-239.0173510652099
 20
-1018.31244478802
 30
0.0
 11
-239.0173510652099
 21
-1023.31244478802
 31
0.0
  0
LINE
  5
205
330
3C
100
AcDbEntity
  8
1
  6
DASH_CENTER
 62
     1
100
AcDbLine
 10
-252.5173510652099
 20
-1008.276240129106
 30
0.0
 11
-252.5173510652099
 21
-1026.036576487128
 31
0.0
  0
LINE
  5
206
330
3C
100
AcDbEntity
  8
1
  6
DASH_CENTER
 62
     1
100
AcDbLine
 10
-153.9768105246695
 20
-1008.276240129106
 30
0.0
 11
-153.9768105246695
 21
-1026.036576487128
 31
0.0
  0
LINE
  5
207
330
3C
100
AcDbEntity
  8
1
  6
Continuous
 62
     3
100
AcDbLine
 10
-140.4768105246695
 20
-1018.31244478802
 30
0.0
 11
-140.4768105246695
 21
-1023.31244478802
 31
0.0
  0
LINE
  5
208
330
3C
100
AcDbEntity
  8
1
  6
Continuous
 62
     3
100
AcDbLine
 10
-140.0670296581135
 20
-1018.31244478802
 30
0.0
 11
-148.6452705051181
 21
-1018.31244478802
 31
0.0
  0
LINE
  5
209
330
3C
100
AcDbEntity
  8
1
  6
Continuous
 62
     3
100
AcDbLine
 10
-147.138097469979
 20
-1018.31244478802
 30
0.0
 11
-147.138097469979
 21
-1011.81244478802
 31
0.0
  0
LINE
  5
20A
330
3C
100
AcDbEntity
  8
1
  6
Continuous
 62
     3
100
AcDbLine
 10
-148.6452705051181
 20
-1018.31244478802
 30
0.0
 11
-148.6452705051181
 21
-1011.81244478802
 31
0.0
  0
LINE
  5
20B
330
3C
100
AcDbEntity
  8
1
  6
Continuous
 62
     3
100
AcDbLine
 10
-159.3083505442209
 20
-1011.81244478802
 30
0.0
 11
-159.3083505442209
 21
-1018.31244478802
 31
0.0
  0
LINE
  5
20C
330
3C
100
AcDbEntity
  8
1
  6
Continuous
 62
     3
100
AcDbLine
 10
-160.8155235793601
 20
-1011.81244478802
 30
0.0
 11
-160.8155235793601
 21
-1018.31244478802
 31
0.0
  0
LINE
  5
20D
330
3C
100
AcDbEntity
  8
1
  6
Continuous
 62
     3
100
AcDbLine
 10
-167.4768105246695
 20
-1023.31244478802
 30
0.0
 11
-167.4768105246695
 21
-1018.31244478802
 31
0.0
  0
LINE
  5
20E
330
3C
100
AcDbEntity
  8
1
  6
Continuous
 62
     3
100
AcDbLine
 10
-159.3083505442209
 20
-1018.31244478802
 30
0.0
 11
-167.8865913912256
 21
-1018.31244478802
 31
0.0
  0
LINE
  5
20F
330
3C
100
AcDbEntity
  8
1
  6
Continuous
 62
     3
100
AcDbLine
 10
-140.0670296581135
 20
-1011.81244478802
 30
0.0
 11
-140.0670296581135
 21
-1018.31244478802
 31
0.0
  0
LINE
  5
210
330
3C
100
AcDbEntity
  8
1
  6
Continuous
 62
     3
100
AcDbLine
 10
-140.0670296581135
 20
-1011.81244478802
 30
0.0
 11
-153.9768105246695
 21
-1011.81244478802
 31
0.0
  0
LINE
  5
211
330
3C
100
AcDbEntity
  8
1
  6
Continuous
 62
     3
100
AcDbLine
 10
-153.9768105246695
 20
-1011.81244478802
 30
0.0
 11
-167.8865913912256
 21
-1011.81244478802
 31
0.0
  0
LINE
  5
212
330
3C
100
AcDbEntity
  8
1
  6
Continuous
 62
     3
100
AcDbLine
 10
-167.8865913912256
 20
-1018.31244478802
 30
0.0
 11
-167.8865913912256
 21
-1011.81244478802
 31
0.0
  0
LINE
  5
213
330
3C
100
AcDbEntity
  8
6_ALL_DRFT_GEOM
  6
Continuous
 62
     3
100
AcDbLine
 10
-240.1173510652099
 20
-945.81244478802
 30
0.0
 11
-245.0173510652099
 21
-945.81244478802
 31
0.0
  0
LINE
  5
214
330
3C
100
AcDbEntity
  8
6_ALL_DRFT_GEOM
  6
Continuous
 62
     3
100
AcDbLine
 10
-255.0173510652099
 20
-943.81244478802
 30
0.0
 11
-249.0173510652099
 21
-945.81244478802
 31
0.0
  0
LINE
  5
215
330
3C
100
AcDbEntity
  8
6_ALL_DRFT_GEOM
  6
Continuous
 62
     3
100
AcDbLine
 10
-249.0173510652099
 20
-945.81244478802
 30
0.0
 11
-255.0173510652099
 21
-947.81244478802
 31
0.0
  0
LINE
  5
216
330
3C
100
AcDbEntity
  8
6_ALL_DRFT_GEOM
  6
Continuous
 62
     3
100
AcDbLine
 10
-255.0173510652099
 20
-947.81244478802
 30
0.0
 11
-255.0173510652099
 21
-943.81244478802
 31
0.0
  0
ARC
  5
217
330
3C
100
AcDbEntity
  8
1
  6
Continuous
 62
     3
100
AcDbCircle
 10
-252.5173510652099
 20
-945.81244478802
 30
0.0
 40
13.55000000000001
100
AcDbArc
 50
66.00000000000043
 51
112.0000000000004
  0
ARC
  5
218
330
3C
100
AcDbEntity
  8
1
  6
Continuous
 62
     3
100
AcDbCircle
 10
-252.5173510652099
 20
-945.81244478802
 30
0.0
 40
15.39999999999996
100
AcDbArc
 50
21.99999999999973
 51
66.00000000000017
  0
ARC
  5
219
330
3C
100
AcDbEntity
  8
1
  6
Continuous
 62
     3
100
AcDbCircle
 10
-252.5173510652099
 20
-945.81244478802
 30
0.0
 40
15.40000000000002
100
AcDbArc
 50
112.0000000000002
 51
156.0
  0
ARC
  5
21A
330
3C
100
AcDbEntity
  8
1
  6
Continuous
 62
     3
100
AcDbCircle
 10
-252.5173510652099
 20
-945.81244478802
 30
0.0
 40
15.40000000000008
100
AcDbArc
 50
-158.0
 51
-114.0000000000002
  0
ARC
  5
21B
330
3C
100
AcDbEntity
  8
1
  6
Continuous
 62
     3
100
AcDbCircle
 10
-252.5173510652099
 20
-945.81244478802
 30
0.0
 40
15.40000000000009
100
AcDbArc
 50
-68.00000000000024
 51
-24.00000000000029
  0
ARC
  5
21C
330
3C
100
AcDbEntity
  8
1
  6
Continuous
 62
     3
100
AcDbCircle
 10
-252.5173510652099
 20
-945.81244478802
 30
0.0
 40
13.5499999999999
100
AcDbArc
 50
0.0
 51
66.00000000000043
  0
ARC
  5
21D
330
3C
100
AcDbEntity
  8
1
  6
Continuous
 62
     3
100
AcDbCircle
 10
-252.5173510652099
 20
-945.81244478802
 30
0.0
 40
13.55000000000001
100
AcDbArc
 50
112.0000000000004
 51
156.0000000000001
  0
ARC
  5
21E
330
3C
100
AcDbEntity
  8
1
  6
Continuous
 62
     3
100
AcDbCircle
 10
-252.5173510652099
 20
-945.81244478802
 30
0.0
 40
13.55000000000007
100
AcDbArc
 50
156.0000000000001
 51
-158.0
  0
ARC
  5
21F
330
3C
100
AcDbEntity
  8
1
  6
Continuous
 62
     3
100
AcDbCircle
 10
-252.5173510652099
 20
-945.81244478802
 30
0.0
 40
13.55000000000001
100
AcDbArc
 50
-158.0
 51
-114.0000000000003
  0
ARC
  5
220
330
3C
100
AcDbEntity
  8
1
  6
Continuous
 62
     3
100
AcDbCircle
 10
-252.5173510652099
 20
-945.81244478802
 30
0.0
 40
13.55000000000008
100
AcDbArc
 50
-114.0000000000003
 51
-68.00000000000037
  0
ARC
  5
221
330
3C
100
AcDbEntity
  8
1
  6
Continuous
 62
     3
100
AcDbCircle
 10
-252.5173510652099
 20
-945.81244478802
 30
0.0
 40
13.54999999999994
100
AcDbArc
 50
-68.00000000000037
 51
-24.00000000000006
  0
ARC
  5
222
330
3C
100
AcDbEntity
  8
1
  6
Continuous
 62
     3
100
AcDbCircle
 10
-252.5173510652099
 20
-945.81244478802
 30
0.0
 40
13.54999999999996
100
AcDbArc
 50
-24.00000000000006
 51
0.0
  0
ARC
  5
223
330
3C
100
AcDbEntity
  8
1
  6
Continuous
 62
     3
100
AcDbCircle
 10
-249.884133766223
 20
-943.6653640556783
 30
0.0
 40
10.00000000000014
100
AcDbArc
 50
-105.2672535353402
 51
-12.39840117245602
  0
ARC
  5
224
330
3C
100
AcDbEntity
  8
6_ALL_DRFT_GEOM
  6
Continuous
 62
     3
100
AcDbCircle
 10
-252.5173510652099
 20
-945.81244478802
 30
0.0
 40
7.5
100
AcDbArc
 50
-90.00000000000065
 51
0.0
  0
MTEXT
  5
226
330
3C
100
AcDbEntity
  8
0
 62
     3
100
AcDbMText
 10
-245.1511726564099
 20
-938.9234850886199
 30
0.0
 40
3.0
 41
0.0
 71
     7
 72
     1
  1
100
  7
CONVERTER_4
 11
-1.836909530733566E-16
 21
-1.0
 31
0.0
 73
     1
 44
0.60024009603842
  0
MTEXT
  5
227
330
3C
100
AcDbEntity
  8
0
 62
     3
100
AcDbMText
 10
-253.3887449655099
 20
-954.68088110392
 30
0.0
 40
3.0
 41
0.0
 71
     7
 72
     1
  1
0
  7
CONVERTER_4
 11
-1.0
 21
3.673819061467132E-16
 31
0.0
 73
     1
 44
0.60024009603842
  0
ENDBLK
  5
3E
330
3C
100
AcDbEntity
  8
0
100
AcDbBlockEnd
  0
BLOCK
  5
40
330
3F
100
AcDbEntity
  8
0
100
AcDbBlockBegin
  2
_3
 70
     0
 71
     0
 10
-338.0173510652099
 20
-589.479631922478
 30
0.0
  3
_3
  1

  0
LINE
  5
228
330
3F
100
AcDbEntity
  8
1
  6
Continuous
 62
     3
100
AcDbLine
 10
-60.18626998412893
 20
-1008.31244478802
 30
0.0
 11
-60.18626998412881
 21
-999.81244478802
 31
0.0
  0
LINE
  5
229
330
3F
100
AcDbEntity
  8
1
  6
Continuous
 62
     3
100
AcDbLine
 10
-49.43626998412893
 20
-1008.31244478802
 30
0.0
 11
-50.68626998412893
 21
-1008.31244478802
 31
0.0
  0
LINE
  5
22A
330
3F
100
AcDbEntity
  8
1
  6
Continuous
 62
     3
100
AcDbLine
 10
-59.10198955878278
 20
-1008.31244478802
 30
0.0
 11
-60.18626998412893
 21
-1008.31244478802
 31
0.0
  0
LINE
  5
22B
330
3F
100
AcDbEntity
  8
1
  6
Continuous
 62
     3
100
AcDbLine
 10
-60.18626998412893
 20
-1008.31244478802
 30
0.0
 11
-61.43626998412881
 21
-1008.31244478802
 31
0.0
  0
LINE
  5
22C
330
3F
100
AcDbEntity
  8
1
  6
Continuous
 62
     3
100
AcDbLine
 10
-60.18626998412893
 20
-999.32244478802
 30
0.0
 11
-60.18626998412893
 21
-998.6011199226148
 31
0.0
  0
LINE
  5
22D
330
3F
100
AcDbEntity
  8
1
  6
Continuous
 62
     3
100
AcDbLine
 10
-51.18626998412893
 20
-998.31244478802
 30
0.0
 11
-59.68626998412893
 21
-998.31244478802
 31
0.0
  0
LINE
  5
22E
330
3F
100
AcDbEntity
  8
1
  6
Continuous
 62
     3
100
AcDbLine
 10
-59.10198955878278
 20
-999.32244478802
 30
0.0
 11
-59.10198955878278
 21
-1008.31244478802
 31
0.0
  0
LINE
  5
22F
330
3F
100
AcDbEntity
  8
1
  6
Continuous
 62
     3
100
AcDbLine
 10
-50.68626998412893
 20
-999.32244478802
 30
0.0
 11
-50.68626998412893
 21
-1008.31244478802
 31
0.0
  0
LINE
  5
230
330
3F
100
AcDbEntity
  8
1
  6
Continuous
 62
     3
100
AcDbLine
 10
-59.68626998412893
 20
-998.31244478802
 30
0.0
 11
-60.18626998412893
 21
-998.6011199226148
 31
0.0
  0
LINE
  5
231
330
3F
100
AcDbEntity
  8
1
  6
Continuous
 62
     3
100
AcDbLine
 10
-50.68626998412881
 20
-998.6011199226148
 30
0.0
 11
-51.18626998412893
 21
-998.31244478802
 31
0.0
  0
LINE
  5
232
330
3F
100
AcDbEntity
  8
1
  6
Continuous
 62
     3
100
AcDbLine
 10
-50.68626998412893
 20
-999.32244478802
 30
0.0
 11
-51.77055040947519
 21
-999.32244478802
 31
0.0
  0
LINE
  5
233
330
3F
100
AcDbEntity
  8
1
  6
Continuous
 62
     3
100
AcDbLine
 10
-51.77055040947519
 20
-1008.31244478802
 30
0.0
 11
-51.77055040947519
 21
-999.32244478802
 31
0.0
  0
LINE
  5
234
330
3F
100
AcDbEntity
  8
1
  6
Continuous
 62
     3
100
AcDbLine
 10
-50.68626998412881
 20
-998.6011199226148
 30
0.0
 11
-50.68626998412893
 21
-999.32244478802
 31
0.0
  0
LINE
  5
235
330
3F
100
AcDbEntity
  8
1
  6
Continuous
 62
     3
100
AcDbLine
 10
-59.10198955878278
 20
-999.32244478802
 30
0.0
 11
-60.18626998412893
 21
-999.32244478802
 31
0.0
  0
LINE
  5
236
330
3F
100
AcDbEntity
  8
1
  6
Continuous
 62
     3
100
AcDbLine
 10
-60.18626998412881
 20
-999.81244478802
 30
0.0
 11
-60.18626998412893
 21
-999.32244478802
 31
0.0
  0
LINE
  5
237
330
3F
100
AcDbEntity
  8
1
  6
Continuous
 62
     2
100
AcDbLine
 10
-51.77055040947519
 20
-1008.31244478802
 30
0.0
 11
-59.10198955878278
 21
-999.32244478802
 31
0.0
  0
LINE
  5
238
330
3F
100
AcDbEntity
  8
1
  6
Continuous
 62
     3
100
AcDbLine
 10
-50.68626998412893
 20
-1008.31244478802
 30
0.0
 11
-51.77055040947519
 21
-1008.31244478802
 31
0.0
  0
LINE
  5
239
330
3F
100
AcDbEntity
  8
1
  6
Continuous
 62
     2
100
AcDbLine
 10
-51.77055040947519
 20
-999.32244478802
 30
0.0
 11
-59.10198955878278
 21
-1008.31244478802
 31
0.0
  0
LINE
  5
23A
330
3F
100
AcDbEntity
  8
1
  6
Continuous
 62
     3
100
AcDbLine
 10
-51.77055040947519
 20
-1008.31244478802
 30
0.0
 11
-59.10198955878278
 21
-1008.31244478802
 31
0.0
  0
LINE
  5
23B
330
3F
100
AcDbEntity
  8
1
  6
Continuous
 62
     3
100
AcDbLine
 10
-49.43626998412893
 20
-1011.81244478802
 30
0.0
 11
-49.43626998412893
 21
-1008.31244478802
 31
0.0
  0
LINE
  5
23C
330
3F
100
AcDbEntity
  8
1
  6
Continuous
 62
     3
100
AcDbLine
 10
-61.43626998412893
 20
-1011.81244478802
 30
0.0
 11
-61.43626998412881
 21
-1008.31244478802
 31
0.0
  0
LINE
  5
23D
330
3F
100
AcDbEntity
  8
1
  6
DASH_CENTER
 62
     1
100
AcDbLine
 10
-55.43626998412893
 20
-995.31244478802
 30
0.0
 11
-55.43626998412893
 21
-1016.17272380885
 31
0.0
  0
LINE
  5
23E
330
3F
100
AcDbEntity
  8
1
  6
DOT_CENTER
 62
     1
100
AcDbLine
 10
-252.5173510652099
 20
-936.81244478802
 30
0.0
 11
-252.5173510652099
 21
-954.81244478802
 31
0.0
  0
LINE
  5
23F
330
3F
100
AcDbEntity
  8
1
  6
Continuous
 62
     3
100
AcDbLine
 10
-256.1830706398637
 20
-941.06244478802
 30
0.0
 11
-248.8516314905561
 21
-941.06244478802
 31
0.0
  0
LINE
  5
240
330
3F
100
AcDbEntity
  8
1
  6
Continuous
 62
     3
100
AcDbLine
 10
-248.8516314905561
 20
-950.56244478802
 30
0.0
 11
-256.1830706398637
 21
-950.56244478802
 31
0.0
  0
LINE
  5
241
330
3F
100
AcDbEntity
  8
1
  6
Continuous
 62
     3
100
AcDbLine
 10
-247.7673510652099
 20
-942.1467252133662
 30
0.0
 11
-247.7673510652099
 21
-944.81244478802
 31
0.0
  0
LINE
  5
242
330
3F
100
AcDbEntity
  8
1
  6
Continuous
 62
     3
100
AcDbLine
 10
-257.2673510652099
 20
-949.4781643626737
 30
0.0
 11
-257.2673510652099
 21
-942.1467252133662
 31
0.0
  0
LINE
  5
243
330
3F
100
AcDbEntity
  8
1
  6
DOT_CENTER
 62
     1
100
AcDbLine
 10
-242.91735106521
 20
-945.81244478802
 30
0.0
 11
-262.11735106521
 21
-945.81244478802
 31
0.0
  0
LINE
  5
244
330
3F
100
AcDbEntity
  8
1
  6
Continuous
 62
     3
100
AcDbLine
 10
-247.7673510652099
 20
-944.81244478802
 30
0.0
 11
-247.7673510652099
 21
-949.4781643626737
 31
0.0
  0
LINE
  5
245
330
3F
100
AcDbEntity
  8
1
  6
Continuous
 62
     3
100
AcDbLine
 10
-257.2673510652099
 20
-1008.31244478802
 30
0.0
 11
-257.2673510652098
 21
-999.81244478802
 31
0.0
  0
LINE
  5
246
330
3F
100
AcDbEntity
  8
1
  6
Continuous
 62
     3
100
AcDbLine
 10
-246.5173510652099
 20
-1008.31244478802
 30
0.0
 11
-247.7673510652099
 21
-1008.31244478802
 31
0.0
  0
LINE
  5
247
330
3F
100
AcDbEntity
  8
1
  6
Continuous
 62
     3
100
AcDbLine
 10
-256.1830706398638
 20
-1008.31244478802
 30
0.0
 11
-257.2673510652099
 21
-1008.31244478802
 31
0.0
  0
LINE
  5
248
330
3F
100
AcDbEntity
  8
1
  6
Continuous
 62
     3
100
AcDbLine
 10
-257.2673510652099
 20
-1008.31244478802
 30
0.0
 11
-258.5173510652098
 21
-1008.31244478802
 31
0.0
  0
LINE
  5
249
330
3F
100
AcDbEntity
  8
1
  6
Continuous
 62
     3
100
AcDbLine
 10
-257.2673510652099
 20
-999.32244478802
 30
0.0
 11
-257.2673510652099
 21
-998.6011199226148
 31
0.0
  0
LINE
  5
24A
330
3F
100
AcDbEntity
  8
1
  6
Continuous
 62
     3
100
AcDbLine
 10
-248.2673510652099
 20
-998.31244478802
 30
0.0
 11
-256.7673510652099
 21
-998.31244478802
 31
0.0
  0
LINE
  5
24B
330
3F
100
AcDbEntity
  8
1
  6
Continuous
 62
     3
100
AcDbLine
 10
-256.1830706398638
 20
-999.32244478802
 30
0.0
 11
-256.1830706398638
 21
-1008.31244478802
 31
0.0
  0
LINE
  5
24C
330
3F
100
AcDbEntity
  8
1
  6
Continuous
 62
     3
100
AcDbLine
 10
-247.7673510652099
 20
-999.32244478802
 30
0.0
 11
-247.7673510652099
 21
-1008.31244478802
 31
0.0
  0
LINE
  5
24D
330
3F
100
AcDbEntity
  8
1
  6
Continuous
 62
     3
100
AcDbLine
 10
-256.7673510652099
 20
-998.31244478802
 30
0.0
 11
-257.2673510652099
 21
-998.6011199226148
 31
0.0
  0
LINE
  5
24E
330
3F
100
AcDbEntity
  8
1
  6
Continuous
 62
     3
100
AcDbLine
 10
-247.7673510652098
 20
-998.6011199226148
 30
0.0
 11
-248.2673510652099
 21
-998.31244478802
 31
0.0
  0
LINE
  5
24F
330
3F
100
AcDbEntity
  8
1
  6
Continuous
 62
     3
100
AcDbLine
 10
-247.7673510652099
 20
-999.32244478802
 30
0.0
 11
-248.8516314905562
 21
-999.32244478802
 31
0.0
  0
LINE
  5
250
330
3F
100
AcDbEntity
  8
1
  6
Continuous
 62
     3
100
AcDbLine
 10
-248.8516314905562
 20
-1008.31244478802
 30
0.0
 11
-248.8516314905562
 21
-999.32244478802
 31
0.0
  0
LINE
  5
251
330
3F
100
AcDbEntity
  8
1
  6
Continuous
 62
     3
100
AcDbLine
 10
-247.7673510652098
 20
-998.6011199226148
 30
0.0
 11
-247.7673510652099
 21
-999.32244478802
 31
0.0
  0
LINE
  5
252
330
3F
100
AcDbEntity
  8
1
  6
Continuous
 62
     3
100
AcDbLine
 10
-256.1830706398638
 20
-999.32244478802
 30
0.0
 11
-257.2673510652099
 21
-999.32244478802
 31
0.0
  0
LINE
  5
253
330
3F
100
AcDbEntity
  8
1
  6
Continuous
 62
     3
100
AcDbLine
 10
-257.2673510652098
 20
-999.81244478802
 30
0.0
 11
-257.2673510652099
 21
-999.32244478802
 31
0.0
  0
LINE
  5
254
330
3F
100
AcDbEntity
  8
1
  6
Continuous
 62
     2
100
AcDbLine
 10
-248.8516314905562
 20
-1008.31244478802
 30
0.0
 11
-256.1830706398638
 21
-999.32244478802
 31
0.0
  0
LINE
  5
255
330
3F
100
AcDbEntity
  8
1
  6
Continuous
 62
     3
100
AcDbLine
 10
-247.7673510652099
 20
-1008.31244478802
 30
0.0
 11
-248.8516314905562
 21
-1008.31244478802
 31
0.0
  0
LINE
  5
256
330
3F
100
AcDbEntity
  8
1
  6
Continuous
 62
     2
100
AcDbLine
 10
-248.8516314905562
 20
-999.32244478802
 30
0.0
 11
-256.1830706398638
 21
-1008.31244478802
 31
0.0
  0
LINE
  5
257
330
3F
100
AcDbEntity
  8
1
  6
Continuous
 62
     3
100
AcDbLine
 10
-248.8516314905562
 20
-1008.31244478802
 30
0.0
 11
-256.1830706398638
 21
-1008.31244478802
 31
0.0
  0
LINE
  5
258
330
3F
100
AcDbEntity
  8
1
  6
Continuous
 62
     3
100
AcDbLine
 10
-246.5173510652099
 20
-1011.81244478802
 30
0.0
 11
-246.5173510652099
 21
-1008.31244478802
 31
0.0
  0
LINE
  5
259
330
3F
100
AcDbEntity
  8
1
  6
Continuous
 62
     3
100
AcDbLine
 10
-258.5173510652099
 20
-1011.81244478802
 30
0.0
 11
-258.5173510652098
 21
-1008.31244478802
 31
0.0
  0
LINE
  5
25A
330
3F
100
AcDbEntity
  8
1
  6
DASH_CENTER
 62
     1
100
AcDbLine
 10
-252.5173510652099
 20
-995.31244478802
 30
0.0
 11
-252.5173510652099
 21
-1016.17272380885
 31
0.0
  0
LINE
  5
25B
330
3F
100
AcDbEntity
  8
1
  6
DASH_CENTER
 62
     1
100
AcDbLine
 10
-347.329225823906
 20
-995.31244478802
 30
0.0
 11
-347.329225823906
 21
-1016.17272380885
 31
0.0
  0
LINE
  5
25C
330
3F
100
AcDbEntity
  8
1
  6
Continuous
 62
     3
100
AcDbLine
 10
-353.329225823906
 20
-1011.81244478802
 30
0.0
 11
-353.3292258239059
 21
-1008.31244478802
 31
0.0
  0
LINE
  5
25D
330
3F
100
AcDbEntity
  8
1
  6
Continuous
 62
     3
100
AcDbLine
 10
-341.329225823906
 20
-1011.81244478802
 30
0.0
 11
-341.329225823906
 21
-1008.31244478802
 31
0.0
  0
LINE
  5
25E
330
3F
100
AcDbEntity
  8
1
  6
Continuous
 62
     3
100
AcDbLine
 10
-343.6635062492522
 20
-1008.31244478802
 30
0.0
 11
-350.9949453985598
 21
-1008.31244478802
 31
0.0
  0
LINE
  5
25F
330
3F
100
AcDbEntity
  8
1
  6
Continuous
 62
     2
100
AcDbLine
 10
-343.6635062492522
 20
-999.32244478802
 30
0.0
 11
-350.9949453985598
 21
-1008.31244478802
 31
0.0
  0
LINE
  5
260
330
3F
100
AcDbEntity
  8
1
  6
Continuous
 62
     3
100
AcDbLine
 10
-342.579225823906
 20
-1008.31244478802
 30
0.0
 11
-343.6635062492522
 21
-1008.31244478802
 31
0.0
  0
LINE
  5
261
330
3F
100
AcDbEntity
  8
1
  6
Continuous
 62
     2
100
AcDbLine
 10
-343.6635062492522
 20
-1008.31244478802
 30
0.0
 11
-350.9949453985598
 21
-999.32244478802
 31
0.0
  0
LINE
  5
262
330
3F
100
AcDbEntity
  8
1
  6
Continuous
 62
     3
100
AcDbLine
 10
-352.0792258239059
 20
-999.81244478802
 30
0.0
 11
-352.079225823906
 21
-999.32244478802
 31
0.0
  0
LINE
  5
263
330
3F
100
AcDbEntity
  8
1
  6
Continuous
 62
     3
100
AcDbLine
 10
-350.9949453985598
 20
-999.32244478802
 30
0.0
 11
-352.079225823906
 21
-999.32244478802
 31
0.0
  0
LINE
  5
264
330
3F
100
AcDbEntity
  8
1
  6
Continuous
 62
     3
100
AcDbLine
 10
-342.5792258239059
 20
-998.6011199226148
 30
0.0
 11
-342.579225823906
 21
-999.32244478802
 31
0.0
  0
LINE
  5
265
330
3F
100
AcDbEntity
  8
1
  6
Continuous
 62
     3
100
AcDbLine
 10
-343.6635062492522
 20
-1008.31244478802
 30
0.0
 11
-343.6635062492522
 21
-999.32244478802
 31
0.0
  0
LINE
  5
266
330
3F
100
AcDbEntity
  8
1
  6
Continuous
 62
     3
100
AcDbLine
 10
-342.579225823906
 20
-999.32244478802
 30
0.0
 11
-343.6635062492522
 21
-999.32244478802
 31
0.0
  0
LINE
  5
267
330
3F
100
AcDbEntity
  8
1
  6
Continuous
 62
     3
100
AcDbLine
 10
-342.5792258239059
 20
-998.6011199226148
 30
0.0
 11
-343.079225823906
 21
-998.31244478802
 31
0.0
  0
LINE
  5
268
330
3F
100
AcDbEntity
  8
1
  6
Continuous
 62
     3
100
AcDbLine
 10
-351.579225823906
 20
-998.31244478802
 30
0.0
 11
-352.079225823906
 21
-998.6011199226148
 31
0.0
  0
LINE
  5
269
330
3F
100
AcDbEntity
  8
1
  6
Continuous
 62
     3
100
AcDbLine
 10
-342.579225823906
 20
-999.32244478802
 30
0.0
 11
-342.579225823906
 21
-1008.31244478802
 31
0.0
  0
LINE
  5
26A
330
3F
100
AcDbEntity
  8
1
  6
Continuous
 62
     3
100
AcDbLine
 10
-350.9949453985598
 20
-999.32244478802
 30
0.0
 11
-350.9949453985598
 21
-1008.31244478802
 31
0.0
  0
LINE
  5
26B
330
3F
100
AcDbEntity
  8
1
  6
Continuous
 62
     3
100
AcDbLine
 10
-343.079225823906
 20
-998.31244478802
 30
0.0
 11
-351.579225823906
 21
-998.31244478802
 31
0.0
  0
LINE
  5
26C
330
3F
100
AcDbEntity
  8
1
  6
Continuous
 62
     3
100
AcDbLine
 10
-352.079225823906
 20
-999.32244478802
 30
0.0
 11
-352.079225823906
 21
-998.6011199226148
 31
0.0
  0
LINE
  5
26D
330
3F
100
AcDbEntity
  8
1
  6
Continuous
 62
     3
100
AcDbLine
 10
-352.079225823906
 20
-1008.31244478802
 30
0.0
 11
-353.3292258239059
 21
-1008.31244478802
 31
0.0
  0
LINE
  5
26E
330
3F
100
AcDbEntity
  8
1
  6
Continuous
 62
     3
100
AcDbLine
 10
-350.9949453985598
 20
-1008.31244478802
 30
0.0
 11
-352.079225823906
 21
-1008.31244478802
 31
0.0
  0
LINE
  5
26F
330
3F
100
AcDbEntity
  8
1
  6
Continuous
 62
     3
100
AcDbLine
 10
-341.329225823906
 20
-1008.31244478802
 30
0.0
 11
-342.579225823906
 21
-1008.31244478802
 31
0.0
  0
LINE
  5
270
330
3F
100
AcDbEntity
  8
1
  6
Continuous
 62
     3
100
AcDbLine
 10
-352.079225823906
 20
-1008.31244478802
 30
0.0
 11
-352.0792258239059
 21
-999.81244478802
 31
0.0
  0
LINE
  5
271
330
3F
100
AcDbEntity
  8
1
  6
DASH_CENTER
 62
     1
100
AcDbLine
 10
-153.9768105246695
 20
-995.31244478802
 30
0.0
 11
-153.9768105246695
 21
-1016.17272380885
 31
0.0
  0
LINE
  5
272
330
3F
100
AcDbEntity
  8
1
  6
Continuous
 62
     3
100
AcDbLine
 10
-159.9768105246695
 20
-1011.81244478802
 30
0.0
 11
-159.9768105246693
 21
-1008.31244478802
 31
0.0
  0
LINE
  5
273
330
3F
100
AcDbEntity
  8
1
  6
Continuous
 62
     3
100
AcDbLine
 10
-147.9768105246695
 20
-1011.81244478802
 30
0.0
 11
-147.9768105246695
 21
-1008.31244478802
 31
0.0
  0
LINE
  5
274
330
3F
100
AcDbEntity
  8
1
  6
Continuous
 62
     3
100
AcDbLine
 10
-150.3110909500157
 20
-1008.31244478802
 30
0.0
 11
-157.6425300993233
 21
-1008.31244478802
 31
0.0
  0
LINE
  5
275
330
3F
100
AcDbEntity
  8
1
  6
Continuous
 62
     2
100
AcDbLine
 10
-150.3110909500157
 20
-999.32244478802
 30
0.0
 11
-157.6425300993233
 21
-1008.31244478802
 31
0.0
  0
LINE
  5
276
330
3F
100
AcDbEntity
  8
1
  6
Continuous
 62
     3
100
AcDbLine
 10
-149.2268105246695
 20
-1008.31244478802
 30
0.0
 11
-150.3110909500157
 21
-1008.31244478802
 31
0.0
  0
LINE
  5
277
330
3F
100
AcDbEntity
  8
1
  6
Continuous
 62
     2
100
AcDbLine
 10
-150.3110909500157
 20
-1008.31244478802
 30
0.0
 11
-157.6425300993233
 21
-999.32244478802
 31
0.0
  0
LINE
  5
278
330
3F
100
AcDbEntity
  8
1
  6
Continuous
 62
     3
100
AcDbLine
 10
-158.7268105246693
 20
-999.81244478802
 30
0.0
 11
-158.7268105246695
 21
-999.32244478802
 31
0.0
  0
LINE
  5
279
330
3F
100
AcDbEntity
  8
1
  6
Continuous
 62
     3
100
AcDbLine
 10
-157.6425300993233
 20
-999.32244478802
 30
0.0
 11
-158.7268105246695
 21
-999.32244478802
 31
0.0
  0
LINE
  5
27A
330
3F
100
AcDbEntity
  8
1
  6
Continuous
 62
     3
100
AcDbLine
 10
-149.2268105246693
 20
-998.6011199226148
 30
0.0
 11
-149.2268105246695
 21
-999.32244478802
 31
0.0
  0
LINE
  5
27B
330
3F
100
AcDbEntity
  8
1
  6
Continuous
 62
     3
100
AcDbLine
 10
-150.3110909500157
 20
-1008.31244478802
 30
0.0
 11
-150.3110909500157
 21
-999.32244478802
 31
0.0
  0
LINE
  5
27C
330
3F
100
AcDbEntity
  8
1
  6
Continuous
 62
     3
100
AcDbLine
 10
-149.2268105246695
 20
-999.32244478802
 30
0.0
 11
-150.3110909500157
 21
-999.32244478802
 31
0.0
  0
LINE
  5
27D
330
3F
100
AcDbEntity
  8
1
  6
Continuous
 62
     3
100
AcDbLine
 10
-149.2268105246693
 20
-998.6011199226148
 30
0.0
 11
-149.7268105246695
 21
-998.31244478802
 31
0.0
  0
LINE
  5
27E
330
3F
100
AcDbEntity
  8
1
  6
Continuous
 62
     3
100
AcDbLine
 10
-158.2268105246695
 20
-998.31244478802
 30
0.0
 11
-158.7268105246695
 21
-998.6011199226148
 31
0.0
  0
LINE
  5
27F
330
3F
100
AcDbEntity
  8
1
  6
Continuous
 62
     3
100
AcDbLine
 10
-149.2268105246695
 20
-999.32244478802
 30
0.0
 11
-149.2268105246695
 21
-1008.31244478802
 31
0.0
  0
LINE
  5
280
330
3F
100
AcDbEntity
  8
1
  6
Continuous
 62
     3
100
AcDbLine
 10
-157.6425300993233
 20
-999.32244478802
 30
0.0
 11
-157.6425300993233
 21
-1008.31244478802
 31
0.0
  0
LINE
  5
281
330
3F
100
AcDbEntity
  8
1
  6
Continuous
 62
     3
100
AcDbLine
 10
-149.7268105246695
 20
-998.31244478802
 30
0.0
 11
-158.2268105246695
 21
-998.31244478802
 31
0.0
  0
LINE
  5
282
330
3F
100
AcDbEntity
  8
1
  6
Continuous
 62
     3
100
AcDbLine
 10
-158.7268105246695
 20
-999.32244478802
 30
0.0
 11
-158.7268105246695
 21
-998.6011199226148
 31
0.0
  0
LINE
  5
283
330
3F
100
AcDbEntity
  8
1
  6
Continuous
 62
     3
100
AcDbLine
 10
-158.7268105246695
 20
-1008.31244478802
 30
0.0
 11
-159.9768105246693
 21
-1008.31244478802
 31
0.0
  0
LINE
  5
284
330
3F
100
AcDbEntity
  8
1
  6
Continuous
 62
     3
100
AcDbLine
 10
-157.6425300993233
 20
-1008.31244478802
 30
0.0
 11
-158.7268105246695
 21
-1008.31244478802
 31
0.0
  0
LINE
  5
285
330
3F
100
AcDbEntity
  8
1
  6
Continuous
 62
     3
100
AcDbLine
 10
-147.9768105246695
 20
-1008.31244478802
 30
0.0
 11
-149.2268105246695
 21
-1008.31244478802
 31
0.0
  0
LINE
  5
286
330
3F
100
AcDbEntity
  8
1
  6
Continuous
 62
     3
100
AcDbLine
 10
-158.7268105246695
 20
-1008.31244478802
 30
0.0
 11
-158.7268105246693
 21
-999.81244478802
 31
0.0
  0
ARC
  5
287
330
3F
100
AcDbEntity
  8
1
  6
Continuous
 62
     3
100
AcDbCircle
 10
-55.43626998412893
 20
-1008.276240129106
 30
0.0
 40
9.675120206491121
100
AcDbArc
 50
67.73561128814286
 51
112.2643887118578
  0
ARC
  5
288
330
3F
100
AcDbEntity
  8
1
  6
Continuous
 62
     3
100
AcDbCircle
 10
-252.5173510652099
 20
-1008.276240129106
 30
0.0
 40
9.67512020649111
100
AcDbArc
 50
67.73561128814301
 51
112.2643887118579
  0
ARC
  5
289
330
3F
100
AcDbEntity
  8
1
  6
Continuous
 62
     3
100
AcDbCircle
 10
-347.329225823906
 20
-1008.276240129106
 30
0.0
 40
9.675120206491142
100
AcDbArc
 50
67.73561128814255
 51
112.2643887118578
  0
ARC
  5
28A
330
3F
100
AcDbEntity
  8
1
  6
Continuous
 62
     3
100
AcDbCircle
 10
-153.9768105246695
 20
-1008.276240129106
 30
0.0
 40
9.675120206491142
100
AcDbArc
 50
67.73561128814255
 51
112.2643887118575
  0
CIRCLE
  5
28B
330
3F
100
AcDbEntity
  8
1
  6
Continuous
 62
     3
100
AcDbCircle
 10
-252.5173510652099
 20
-945.81244478802
 30
0.0
 40
5.999999999999941
  0
CIRCLE
  5
28C
330
3F
100
AcDbEntity
  8
1
  6
Continuous
 62
     3
100
AcDbCircle
 10
-252.5173510652099
 20
-945.81244478802
 30
0.0
 40
4.250000000000085
  0
ENDBLK
  5
41
330
3F
100
AcDbEntity
  8
0
100
AcDbBlockEnd
  0
BLOCK
  5
43
330
42
100
AcDbEntity
  8
0
100
AcDbBlockBegin
  2
Top__4
 70
     0
 71
     0
 10
214.937044601524
 20
-1125.785611925981
 30
0.0
  3
Top__4
  1

  0
POINT
  5
28D
330
42
100
AcDbEntity
  8
1
 62
     3
 60
     1
100
AcDbPoint
 10
310.082833566548
 20
-1125.746057860127
 30
0.0
  0
XLINE
  5
28E
330
42
100
AcDbEntity
  8
1
  6
DOT_CENTER
 62
     3
 60
     1
100
AcDbXline
 10
302.1757597891744
 20
-1112.15209221929
 30
0.0
 11
0.0
 21
1.0
 31
0.0
  0
ENDBLK
  5
44
330
42
100
AcDbEntity
  8
0
100
AcDbBlockEnd
  0
BLOCK
  5
47
330
45
100
AcDbEntity
  8
0
100
AcDbBlockBegin
  2
TOP__5
 70
     0
 71
     0
 10
-252.5173510652099
 20
-945.81244478802
 30
0.0
  3
TOP__5
  1

  0
INSERT
  5
46
330
45
100
AcDbEntity
  8
0
100
AcDbBlockReference
  2
Top__4
 10
214.937044601524
 20
-1125.785611925981
 30
0.0
  0
ENDBLK
  5
48
330
45
100
AcDbEntity
  8
0
100
AcDbBlockEnd
  0
BLOCK
  5
29A
330
291
100
AcDbEntity
  8
0
100
AcDbBlockBegin
  2
*D08
 70
     1
 71
     0
 10
0.0
 20
0.0
 30
0.0
  3
*D08
  1

  0
LINE
  5
292
330
291
100
AcDbEntity
  8
1
  6
Continuous
 62
     2
100
AcDbLine
 10
-306.223029573581
 20
-1023.31244478802
 30
0.0
 11
-306.223029573581
 21
-998.31244478802
 31
0.0
  0
LINE
  5
293
330
291
100
AcDbEntity
  8
1
  6
Continuous
 62
     2
100
AcDbLine
 10
-273.5173510652099
 20
-1023.31244478802
 30
0.0
 11
-307.223029573581
 21
-1023.31244478802
 31
0.0
  0
LINE
  5
294
330
291
100
AcDbEntity
  8
1
  6
Continuous
 62
     2
100
AcDbLine
 10
-257.7673510652099
 20
-998.31244478802
 30
0.0
 11
-307.223029573581
 21
-998.31244478802
 31
0.0
  0
LINE
  5
295
330
291
100
AcDbEntity
  8
1
 62
     2
100
AcDbLine
 10
-306.223029573581
 20
-1023.31244478802
 30
0.0
 11
-307.1608517470899
 21
-1019.81244478802
 31
0.0
  0
LINE
  5
296
330
291
100
AcDbEntity
  8
1
 62
     2
100
AcDbLine
 10
-306.223029573581
 20
-1023.31244478802
 30
0.0
 11
-305.285207400072
 21
-1019.81244478802
 31
0.0
  0
LINE
  5
297
330
291
100
AcDbEntity
  8
1
 62
     2
100
AcDbLine
 10
-306.223029573581
 20
-998.31244478802
 30
0.0
 11
-305.285207400072
 21
-1001.81244478802
 31
0.0
  0
LINE
  5
298
330
291
100
AcDbEntity
  8
1
 62
     2
100
AcDbLine
 10
-306.223029573581
 20
-998.31244478802
 30
0.0
 11
-307.1608517470899
 21
-1001.81244478802
 31
0.0
  0
MTEXT
  5
299
330
291
100
AcDbEntity
  8
1
 62
     2
100
AcDbMText
 10
-307.823029573581
 20
-1012.20962946336
 30
0.0
 40
3.5
 41
0.0
 71
     7
 72
     1
  1
25
  7
CONVERTER_4
 11
0.0
 21
1.0
 31
0.0
 73
     1
 44
0.60024009603842
  0
ENDBLK
  5
29B
330
291
100
AcDbEntity
  8
0
100
AcDbBlockEnd
  0
BLOCK
  5
29D
330
29C
100
AcDbEntity
  8
0
100
AcDbBlockBegin
  2
_Open30
 70
     0
 71
     0
 10
0.0
 20
0.0
 30
0.0
  3
_Open30
  1

  0
LINE
  5
29F
330
29C
100
AcDbEntity
  8
0
  6
ByBlock
 62
     0
370
    -2
100
AcDbLine
 10
-1.0
 20
0.267949
 30
0.0
 11
0.0
 21
0.0
 31
0.0
  0
LINE
  5
2A0
330
29C
100
AcDbEntity
  8
0
  6
ByBlock
 62
     0
370
    -2
100
AcDbLine
 10
0.0
 20
0.0
 30
0.0
 11
-1.0
 21
-0.267949
 31
0.0
  0
LINE
  5
2A1
330
29C
100
AcDbEntity
  8
0
  6
ByBlock
 62
     0
370
    -2
100
AcDbLine
 10
0.0
 20
0.0
 30
0.0
 11
-1.0
 21
0.0
 31
0.0
  0
ENDBLK
  5
29E
330
29C
100
AcDbEntity
  8
0
100
AcDbBlockEnd
  0
BLOCK
  5
2AD
330
2A4
100
AcDbEntity
  8
0
100
AcDbBlockBegin
  2
*D110
 70
     1
 71
     0
 10
0.0
 20
0.0
 30
0.0
  3
*D110
  1

  0
LINE
  5
2A5
330
2A4
100
AcDbEntity
  8
1
  6
Continuous
 62
     2
100
AcDbLine
 10
-306.0173510652099
 20
-1023.31244478802
 30
0.0
 11
-306.0173510652099
 21
-1076.81244478802
 31
0.0
  0
LINE
  5
2A6
330
2A4
100
AcDbEntity
  8
1
  6
Continuous
 62
     2
100
AcDbLine
 10
-273.5173510652099
 20
-1023.31244478802
 30
0.0
 11
-307.0173510652099
 21
-1023.31244478802
 31
0.0
  0
LINE
  5
2A7
330
2A4
100
AcDbEntity
  8
1
  6
Continuous
 62
     2
100
AcDbLine
 10
-299.0173510652099
 20
-1076.81244478802
 30
0.0
 11
-307.0173510652099
 21
-1076.81244478802
 31
0.0
  0
LINE
  5
2A8
330
2A4
100
AcDbEntity
  8
1
 62
     2
100
AcDbLine
 10
-306.0173510652099
 20
-1023.31244478802
 30
0.0
 11
-305.0795288917009
 21
-1026.81244478802
 31
0.0
  0
LINE
  5
2A9
330
2A4
100
AcDbEntity
  8
1
 62
     2
100
AcDbLine
 10
-306.0173510652099
 20
-1023.31244478802
 30
0.0
 11
-306.9551732387188
 21
-1026.81244478802
 31
0.0
  0
LINE
  5
2AA
330
2A4
100
AcDbEntity
  8
1
 62
     2
100
AcDbLine
 10
-306.0173510652099
 20
-1076.81244478802
 30
0.0
 11
-306.9551732387188
 21
-1073.31244478802
 31
0.0
  0
LINE
  5
2AB
330
2A4
100
AcDbEntity
  8
1
 62
     2
100
AcDbLine
 10
-306.0173510652099
 20
-1076.81244478802
 30
0.0
 11
-305.0795288917009
 21
-1073.31244478802
 31
0.0
  0
MTEXT
  5
2AC
330
2A4
100
AcDbEntity
  8
1
 62
     2
100
AcDbMText
 10
-307.6173510652099
 20
-1054.92052591829
 30
0.0
 40
3.5
 41
0.0
 71
     7
 72
     1
  1
53.5
  7
CONVERTER_4
 11
0.0
 21
1.0
 31
0.0
 73
     1
 44
0.60024009603842
  0
ENDBLK
  5
2AE
330
2A4
100
AcDbEntity
  8
0
100
AcDbBlockEnd
  0
BLOCK
  5
2BA
330
2B1
100
AcDbEntity
  8
0
100
AcDbBlockBegin
  2
*D211
 70
     1
 71
     0
 10
0.0
 20
0.0
 30
0.0
  3
*D211
  1

  0
LINE
  5
2B2
330
2B1
100
AcDbEntity
  8
1
  6
Continuous
 62
     2
100
AcDbLine
 10
-294.5173510652099
 20
-1121.04488829586
 30
0.0
 11
-209.5173510652099
 21
-1121.04488829586
 31
0.0
  0
LINE
  5
2B3
330
2B1
100
AcDbEntity
  8
1
  6
Continuous
 62
     2
100
AcDbLine
 10
-294.5173510652099
 20
-1098.31244478802
 30
0.0
 11
-294.5173510652099
 21
-1122.04488829586
 31
0.0
  0
LINE
  5
2B4
330
2B1
100
AcDbEntity
  8
1
  6
Continuous
 62
     2
100
AcDbLine
 10
-209.5173510652099
 20
-1098.31244478802
 30
0.0
 11
-209.5173510652099
 21
-1122.04488829586
 31
0.0
  0
LINE
  5
2B5
330
2B1
100
AcDbEntity
  8
1
 62
     2
100
AcDbLine
 10
-294.5173510652099
 20
-1121.04488829586
 30
0.0
 11
-291.0173510652099
 21
-1120.107066122351
 31
0.0
  0
LINE
  5
2B6
330
2B1
100
AcDbEntity
  8
1
 62
     2
100
AcDbLine
 10
-294.5173510652099
 20
-1121.04488829586
 30
0.0
 11
-291.0173510652099
 21
-1121.982710469369
 31
0.0
  0
LINE
  5
2B7
330
2B1
100
AcDbEntity
  8
1
 62
     2
100
AcDbLine
 10
-209.5173510652099
 20
-1121.04488829586
 30
0.0
 11
-213.0173510652099
 21
-1121.982710469369
 31
0.0
  0
LINE
  5
2B8
330
2B1
100
AcDbEntity
  8
1
 62
     2
100
AcDbLine
 10
-209.5173510652099
 20
-1121.04488829586
 30
0.0
 11
-213.0173510652099
 21
-1120.107066122351
 31
0.0
  0
MTEXT
  5
2B9
330
2B1
100
AcDbEntity
  8
1
 62
     2
100
AcDbMText
 10
-253.302778447964
 20
-1119.44488829586
 30
0.0
 40
3.5
 41
0.0
 71
     7
 72
     1
  1
85
  7
CONVERTER_4
 11
0.9999999999970621
 21
2.424068405545307E-6
 31
0.0
 73
     1
 44
0.60024009603842
  0
ENDBLK
  5
2BB
330
2B1
100
AcDbEntity
  8
0
100
AcDbBlockEnd
  0
BLOCK
  5
2C7
330
2BE
100
AcDbEntity
  8
0
100
AcDbBlockBegin
  2
*D312
 70
     1
 71
     0
 10
0.0
 20
0.0
 30
0.0
  3
*D312
  1

  0
LINE
  5
2BF
330
2BE
100
AcDbEntity
  8
1
  6
Continuous
 62
     2
100
AcDbLine
 10
-294.5173510652099
 20
-1110.31244478802
 30
0.0
 11
-252.5173510652099
 21
-1110.31244478802
 31
0.0
  0
LINE
  5
2C0
330
2BE
100
AcDbEntity
  8
1
  6
Continuous
 62
     2
100
AcDbLine
 10
-294.5173510652099
 20
-1098.31244478802
 30
0.0
 11
-294.5173510652099
 21
-1111.31244478802
 31
0.0
  0
LINE
  5
2C1
330
2BE
100
AcDbEntity
  8
1
  6
Continuous
 62
     2
100
AcDbLine
 10
-252.5173510652099
 20
-1103.31244478802
 30
0.0
 11
-252.5173510652099
 21
-1111.31244478802
 31
0.0
  0
LINE
  5
2C2
330
2BE
100
AcDbEntity
  8
1
 62
     2
100
AcDbLine
 10
-294.5173510652099
 20
-1110.31244478802
 30
0.0
 11
-291.0173510652099
 21
-1109.374622614511
 31
0.0
  0
LINE
  5
2C3
330
2BE
100
AcDbEntity
  8
1
 62
     2
100
AcDbLine
 10
-294.5173510652099
 20
-1110.31244478802
 30
0.0
 11
-291.0173510652099
 21
-1111.250266961529
 31
0.0
  0
LINE
  5
2C4
330
2BE
100
AcDbEntity
  8
1
 62
     2
100
AcDbLine
 10
-252.5173510652099
 20
-1110.31244478802
 30
0.0
 11
-256.0173510652099
 21
-1111.250266961529
 31
0.0
  0
LINE
  5
2C5
330
2BE
100
AcDbEntity
  8
1
 62
     2
100
AcDbLine
 10
-252.5173510652099
 20
-1110.31244478802
 30
0.0
 11
-256.0173510652099
 21
-1109.374622614511
 31
0.0
  0
MTEXT
  5
2C6
330
2BE
100
AcDbEntity
  8
1
 62
     2
100
AcDbMText
 10
-277.156228345687
 20
-1108.71244478802
 30
0.0
 40
3.5
 41
0.0
 71
     7
 72
     1
  1
42
  7
CONVERTER_4
 11
0.9999999999970621
 21
2.424068405545307E-6
 31
0.0
 73
     1
 44
0.60024009603842
  0
ENDBLK
  5
2C8
330
2BE
100
AcDbEntity
  8
0
100
AcDbBlockEnd
  0
ENDSEC
  0
SECTION
  2
ENTITIES
  0
INSERT
  5
49
330
1F
100
AcDbEntity
  8
0
100
AcDbBlockReference
  2
Top__1
 10
149.958331977702
 20
-1076.65330111686
 30
0.0
  0
INSERT
  5
4A
330
1F
100
AcDbEntity
  8
0
100
AcDbBlockReference
  2
Top__2
 10
285.5843385951921
 20
-800.610027500906
 30
0.0
  0
INSERT
  5
4B
330
1F
100
AcDbEntity
  8
0
100
AcDbBlockReference
  2
Top__3
 10
156.531157721009
 20
-790.037384601348
 30
0.0
  0
INSERT
  5
4C
330
1F
100
AcDbEntity
  8
1
100
AcDbBlockReference
  2
_2
 10
-422.5699444074461
 20
-596.6193529016481
 30
0.0
  0
INSERT
  5
4D
330
1F
100
AcDbEntity
  8
1
100
AcDbBlockReference
  2
_3
 10
-338.0173510652099
 20
-589.479631922478
 30
0.0
  0
INSERT
  5
4E
330
1F
100
AcDbEntity
  8
0
100
AcDbBlockReference
  2
TOP__5
 10
-252.5173510652099
 20
-945.81244478802
 30
0.0
  0
TEXT
  5
290
330
1F
100
AcDbEntity
  8
1
 62
     3
100
AcDbText
 10
-373.5214297646131
 20
-1118.519785376607
 30
0.0
 40
5.0
  1
VY5302A0023
 41
1.08
  7
CONVERTER_5
100
AcDbText
  0
DIMENSION
  5
2A3
330
1F
100
AcDbEntity
  8
1
100
AcDbDimension
  2
*D08
 10
-306.223029573581
 20
-1023.31244478802
 30
0.0
 11
-309.573029573581
 21
-1009.58462946336
 31
0.0
 70
    32
  1
<>
 71
     5
 42
-1.0
 53
90.0
  3
ME10_DIM_0
100
AcDbAlignedDimension
 13
-256.7673510652099
 23
-998.31244478802
 33
0.0
 14
-272.5173510652099
 24
-1023.31244478802
 34
0.0
 50
90.0
100
AcDbRotatedDimension
  0
DIMENSION
  5
2B0
330
1F
100
AcDbEntity
  8
1
100
AcDbDimension
  2
*D110
 10
-306.0173510652099
 20
-1023.31244478802
 30
0.0
 11
-309.3673510652099
 21
-1050.15177591829
 31
0.0
 70
    32
  1
<>
 71
     5
 42
-1.0
 53
90.0
  3
ME10_DIM_1
100
AcDbAlignedDimension
 13
-298.0173510652099
 23
-1076.81244478802
 33
0.0
 14
-272.5173510652099
 24
-1023.31244478802
 34
0.0
 50
90.0
100
AcDbRotatedDimension
  0
DIMENSION
  5
2BD
330
1F
100
AcDbEntity
  8
1
100
AcDbDimension
  2
*D211
 10
-294.5173510652099
 20
-1121.04488829586
 30
0.0
 11
-250.677778447964
 21
-1117.69488829586
 31
0.0
 70
    32
  1
<>
 71
     5
 42
-1.0
 53
0.00013888888889
  3
ME10_DIM_2
100
AcDbAlignedDimension
 13
-209.5173510652099
 23
-1097.31244478802
 33
0.0
 14
-294.5173510652099
 24
-1097.31244478802
 34
0.0
100
AcDbRotatedDimension
  0
DIMENSION
  5
2CA
330
1F
100
AcDbEntity
  8
1
100
AcDbDimension
  2
*D312
 10
-294.5173510652099
 20
-1110.31244478802
 30
0.0
 11
-274.531228345687
 21
-1106.96244478802
 31
0.0
 70
    32
  1
<>
 71
     5
 42
-1.0
 53
0.00013888888889
  3
ME10_DIM_3
100
AcDbAlignedDimension
 13
-252.5173510652099
 23
-1102.31244478802
 33
0.0
 14
-294.5173510652099
 24
-1097.31244478802
 34
0.0
100
AcDbRotatedDimension
  0
ENDSEC
  0
SECTION
  2
OBJECTS
  0
DICTIONARY
  5
C
330
0
100
AcDbDictionary
281
     1
  3
ACAD_GROUP
350
D
  3
ACAD_LAYOUT
350
1A
  3
ACAD_MLINESTYLE
350
17
  3
ACAD_PLOTSETTINGS
350
19
  3
ACAD_PLOTSTYLENAME
350
E
  0
DICTIONARY
  5
D
102
{ACAD_REACTORS
330
C
102
}
330
C
100
AcDbDictionary
281
     1
  0
DICTIONARY
  5
1A
102
{ACAD_REACTORS
330
C
102
}
330
C
100
AcDbDictionary
281
     1
  3
Layout1
350
1E
  3
Layout2
350
26
  3
Model
350
22
  0
DICTIONARY
  5
17
102
{ACAD_REACTORS
330
C
102
}
330
C
100
AcDbDictionary
281
     1
  3
Standard
350
18
  0
DICTIONARY
  5
19
102
{ACAD_REACTORS
330
C
102
}
330
C
100
AcDbDictionary
281
     1
  0
ACDBDICTIONARYWDFLT
  5
E
102
{ACAD_REACTORS
330
C
102
}
330
C
100
AcDbDictionary
281
     1
  3
Normal
350
F
100
AcDbDictionaryWithDefault
340
F
  0
LAYOUT
  5
1E
102
{ACAD_REACTORS
330
1A
102
}
330
1A
100
AcDbPlotSettings
  1

  2

  4

  6

 40
0.0
 41
0.0
 42
0.0
 43
0.0
 44
0.0
 45
0.0
 46
0.0
 47
0.0
 48
0.0
 49
0.0
140
0.0
141
0.0
142
1.0
143
1.0
 70
   688
 72
     0
 73
     0
 74
     5
  7

 75
    16
147
1.0
148
0.0
149
0.0
100
AcDbLayout
  1
Layout1
 70
     1
 71
     1
 10
0.0
 20
0.0
 11
0.0
 21
0.0
 12
0.0
 22
0.0
 32
0.0
 14
0.0
 24
0.0
 34
0.0
 15
0.0
 25
0.0
 35
0.0
146
0.0
 13
0.0
 23
0.0
 33
0.0
 16
1.0
 26
0.0
 36
0.0
 17
0.0
 27
1.0
 37
0.0
 76
     0
330
1B
  0
LAYOUT
  5
26
102
{ACAD_REACTORS
330
1A
102
}
330
1A
100
AcDbPlotSettings
  1

  2

  4

  6

 40
0.0
 41
0.0
 42
0.0
 43
0.0
 44
0.0
 45
0.0
 46
0.0
 47
0.0
 48
0.0
 49
0.0
140
0.0
141
0.0
142
1.0
143
1.0
 70
   688
 72
     0
 73
     0
 74
     5
  7

 75
    16
147
1.0
148
0.0
149
0.0
100
AcDbLayout
  1
Layout2
 70
     1
 71
     2
 10
0.0
 20
0.0
 11
0.0
 21
0.0
 12
0.0
 22
0.0
 32
0.0
 14
0.0
 24
0.0
 34
0.0
 15
0.0
 25
0.0
 35
0.0
146
0.0
 13
0.0
 23
0.0
 33
0.0
 16
1.0
 26
0.0
 36
0.0
 17
0.0
 27
1.0
 37
0.0
 76
     0
330
23
  0
LAYOUT
  5
22
102
{ACAD_REACTORS
330
1A
102
}
330
1A
100
AcDbPlotSettings
  1

  2

  4

  6

 40
0.0
 41
0.0
 42
0.0
 43
0.0
 44
0.0
 45
0.0
 46
0.0
 47
0.0
 48
0.0
 49
0.0
140
0.0
141
0.0
142
1.0
143
1.0
 70
  1712
 72
     0
 73
     0
 74
     0
  7

 75
     0
147
1.0
148
0.0
149
0.0
100
AcDbLayout
  1
Model
 70
     1
 71
     0
 10
0.0
 20
0.0
 11
0.0
 21
0.0
 12
0.0
 22
0.0
 32
0.0
 14
-373.5214297646131
 24
-1122.04488829586
 34
0.0
 15
-9.93626998412896
 25
-917.8124447880199
 35
0.0
146
0.0
 13
0.0
 23
0.0
 33
0.0
 16
1.0
 26
0.0
 36
0.0
 17
0.0
 27
1.0
 37
0.0
 76
     0
330
1F
  0
MLINESTYLE
  5
18
102
{ACAD_REACTORS
330
17
102
}
330
17
100
AcDbMlineStyle
  2
Standard
 70
     0
  3

 62
   256
 51
90.0
 52
90.0
 71
     2
 49
0.5
 62
   256
  6
BYLAYER
 49
-0.5
 62
   256
  6
BYLAYER
  0
ACDBPLACEHOLDER
  5
F
102
{ACAD_REACTORS
330
E
102
}
330
E
  0
ENDSEC
  0
EOF
