  0
SECTION
  2
HEADER
  9
$ACADVER
  1
AC1015
  9
$ACADMAINTVER
 70
     6
  9
$DWGCODEPAGE
  3
ANSI_1252
  9
$INSBASE
 10
0.0
 20
0.0
 30
0.0
  9
$EXTMIN
 10
-386.329225823906
 20
-1398.98391120817
 30
0.0
  9
$EXTMAX
 10
19.48264893479015
 20
-1171.85662201397
 30
0.0
  9
$LIMMIN
 10
0.0
 20
0.0
  9
$LIMMAX
 10
12.0
 20
9.0
  9
$ORTHOMODE
 70
     0
  9
$REGENMODE
 70
     1
  9
$FILLMODE
 70
     1
  9
$QTEXTMODE
 70
     0
  9
$MIRRTEXT
 70
     1
  9
$LTSCALE
 40
1.0
  9
$ATTMODE
 70
     1
  9
$TEXTSIZE
 40
0.2
  9
$TRACEWID
 40
0.05
  9
$TEXTSTYLE
  7
Standard
  9
$CLAYER
  8
0
  9
$CELTYPE
  6
ByLayer
  9
$CECOLOR
 62
   256
  9
$CELTSCALE
 40
1.0
  9
$DISPSILH
 70
     0
  9
$DIMSCALE
 40
1.0
  9
$DIMASZ
 40
0.18
  9
$DIMEXO
 40
0.0625
  9
$DIMDLI
 40
0.38
  9
$DIMRND
 40
0.0
  9
$DIMDLE
 40
0.0
  9
$DIMEXE
 40
0.18
  9
$DIMTP
 40
0.0
  9
$DIMTM
 40
0.0
  9
$DIMTXT
 40
0.18
  9
$DIMCEN
 40
0.09
  9
$DIMTSZ
 40
0.0
  9
$DIMTOL
 70
     0
  9
$DIMLIM
 70
     0
  9
$DIMTIH
 70
     1
  9
$DIMTOH
 70
     1
  9
$DIMSE1
 70
     0
  9
$DIMSE2
 70
     0
  9
$DIMTAD
 70
     0
  9
$DIMZIN
 70
     0
  9
$DIMBLK
  1

  9
$DIMASO
 70
     1
  9
$DIMSHO
 70
     1
  9
$DIMPOST
  1

  9
$DIMAPOST
  1

  9
$DIMALT
 70
     0
  9
$DIMALTD
 70
     2
  9
$DIMALTF
 40
25.4
  9
$DIMLFAC
 40
1.0
  9
$DIMTOFL
 70
     0
  9
$DIMTVP
 40
0.0
  9
$DIMTIX
 70
     0
  9
$DIMSOXD
 70
     0
  9
$DIMSAH
 70
     0
  9
$DIMBLK1
  1

  9
$DIMBLK2
  1

  9
$DIMSTYLE
  2
Standard
  9
$DIMCLRD
 70
     0
  9
$DIMCLRE
 70
     0
  9
$DIMCLRT
 70
     0
  9
$DIMTFAC
 40
1.0
  9
$DIMGAP
 40
0.09
  9
$DIMJUST
 70
     0
  9
$DIMSD1
 70
     0
  9
$DIMSD2
 70
     0
  9
$DIMTOLJ
 70
     1
  9
$DIMTZIN
 70
     0
  9
$DIMALTZ
 70
     0
  9
$DIMALTTZ
 70
     0
  9
$DIMUPT
 70
     0
  9
$DIMDEC
 70
     4
  9
$DIMTDEC
 70
     4
  9
$DIMALTU
 70
     2
  9
$DIMALTTD
 70
     2
  9
$DIMTXSTY
  7
Standard
  9
$DIMAUNIT
 70
     0
  9
$DIMADEC
 70
     0
  9
$DIMALTRND
 40
0.0
  9
$DIMAZIN
 70
     0
  9
$DIMDSEP
 70
    46
  9
$DIMATFIT
 70
     3
  9
$DIMFRAC
 70
     0
  9
$DIMLDRBLK
  1

  9
$DIMLUNIT
 70
     2
  9
$DIMLWD
 70
    -2
  9
$DIMLWE
 70
    -2
  9
$DIMTMOVE
 70
     0
  9
$LUNITS
 70
     2
  9
$LUPREC
 70
     4
  9
$SKETCHINC
 40
0.1
  9
$FILLETRAD
 40
0.5
  9
$AUNITS
 70
     0
  9
$AUPREC
 70
     0
  9
$MENU
  1
.
  9
$ELEVATION
 40
0.0
  9
$PELEVATION
 40
0.0
  9
$THICKNESS
 40
0.0
  9
$LIMCHECK
 70
     0
  9
$CHAMFERA
 40
0.5
  9
$CHAMFERB
 40
0.5
  9
$CHAMFERC
 40
1.0
  9
$CHAMFERD
 40
0.0
  9
$SKPOLY
 70
     0
  9
$TDCREATE
 40
2455063.687661123
  9
$TDUCREATE
 40
2455063.312661123
  9
$TDUPDATE
 40
2455063.687661134
  9
$TDUUPDATE
 40
2455063.312661134
  9
$TDINDWG
 40
0.0000000116
  9
$TDUSRTIMER
 40
0.0000000116
  9
$USRTIMER
 70
     1
  9
$ANGBASE
 50
0.0
  9
$ANGDIR
 70
     0
  9
$PDMODE
 70
     0
  9
$PDSIZE
 40
0.0
  9
$PLINEWID
 40
0.0
  9
$SPLFRAME
 70
     0
  9
$SPLINETYPE
 70
     6
  9
$SPLINESEGS
 70
     8
  9
$HANDSEED
  5
3EC
  9
$SURFTAB1
 70
     6
  9
$SURFTAB2
 70
     6
  9
$SURFTYPE
 70
     6
  9
$SURFU
 70
     6
  9
$SURFV
 70
     6
  9
$UCSBASE
  2

  9
$UCSNAME
  2

  9
$UCSORG
 10
0.0
 20
0.0
 30
0.0
  9
$UCSXDIR
 10
1.0
 20
0.0
 30
0.0
  9
$UCSYDIR
 10
0.0
 20
1.0
 30
0.0
  9
$UCSORTHOREF
  2

  9
$UCSORTHOVIEW
 70
     0
  9
$UCSORGTOP
 10
0.0
 20
0.0
 30
0.0
  9
$UCSORGBOTTOM
 10
0.0
 20
0.0
 30
0.0
  9
$UCSORGLEFT
 10
0.0
 20
0.0
 30
0.0
  9
$UCSORGRIGHT
 10
0.0
 20
0.0
 30
0.0
  9
$UCSORGFRONT
 10
0.0
 20
0.0
 30
0.0
  9
$UCSORGBACK
 10
0.0
 20
0.0
 30
0.0
  9
$PUCSBASE
  2

  9
$PUCSNAME
  2

  9
$PUCSORG
 10
0.0
 20
0.0
 30
0.0
  9
$PUCSXDIR
 10
1.0
 20
0.0
 30
0.0
  9
$PUCSYDIR
 10
0.0
 20
1.0
 30
0.0
  9
$PUCSORTHOREF
  2

  9
$PUCSORTHOVIEW
 70
     0
  9
$PUCSORGTOP
 10
0.0
 20
0.0
 30
0.0
  9
$PUCSORGBOTTOM
 10
0.0
 20
0.0
 30
0.0
  9
$PUCSORGLEFT
 10
0.0
 20
0.0
 30
0.0
  9
$PUCSORGRIGHT
 10
0.0
 20
0.0
 30
0.0
  9
$PUCSORGFRONT
 10
0.0
 20
0.0
 30
0.0
  9
$PUCSORGBACK
 10
0.0
 20
0.0
 30
0.0
  9
$USERI1
 70
     0
  9
$USERI2
 70
     0
  9
$USERI3
 70
     0
  9
$USERI4
 70
     0
  9
$USERI5
 70
     0
  9
$USERR1
 40
14.0
  9
$USERR2
 40
0.0
  9
$USERR3
 40
0.0
  9
$USERR4
 40
0.0
  9
$USERR5
 40
0.0
  9
$WORLDVIEW
 70
     1
  9
$SHADEDGE
 70
     3
  9
$SHADEDIF
 70
    70
  9
$TILEMODE
 70
     1
  9
$MAXACTVP
 70
    64
  9
$PINSBASE
 10
0.0
 20
0.0
 30
0.0
  9
$PLIMCHECK
 70
     0
  9
$PEXTMIN
 10
1.00000000000000E+20
 20
1.00000000000000E+20
 30
1.00000000000000E+20
  9
$PEXTMAX
 10
-1.00000000000000E+20
 20
-1.00000000000000E+20
 30
-1.00000000000000E+20
  9
$PLIMMIN
 10
0.0
 20
0.0
  9
$PLIMMAX
 10
12.0
 20
9.0
  9
$UNITMODE
 70
     0
  9
$VISRETAIN
 70
     1
  9
$PLINEGEN
 70
     0
  9
$PSLTSCALE
 70
     1
  9
$TREEDEPTH
 70
  3020
  9
$CMLSTYLE
  2
Standard
  9
$CMLJUST
 70
     0
  9
$CMLSCALE
 40
1.0
  9
$PROXYGRAPHICS
 70
     1
  9
$MEASUREMENT
 70
     1
  9
$CELWEIGHT
370
    -1
  9
$ENDCAPS
280
     0
  9
$JOINSTYLE
280
     0
  9
$LWDISPLAY
290
     0
  9
$INSUNITS
 70
     1
  9
$HYPERLINKBASE
  1

  9
$STYLESHEET
  1

  9
$XEDIT
290
     1
  9
$CEPSNTYPE
380
     0
  9
$PSTYLEMODE
290
     1
  9
$FINGERPRINTGUID
  2
{FAC26A13-FB37-4DCE-9C88-76AEE934715A}
  9
$VERSIONGUID
  2
{FAEB1C32-E019-11D5-929B-00C0DF256EC4}
  9
$EXTNAMES
290
     1
  9
$PSVPSCALE
 40
0.0
  9
$OLESTARTUP
290
     0
  0
ENDSEC
  0
SECTION
  2
CLASSES
  0
CLASS
  1
ACDBDICTIONARYWDFLT
  2
AcDbDictionaryWithDefault
  3
ObjectDBX Classes
 90
        0
280
     0
281
     0
  0
CLASS
  1

  2
exOdDbCircle
  3

 90
        0
280
     0
281
     1
  0
CLASS
  1

  2
exOdDbSpline
  3

 90
        0
280
     0
281
     1
  0
CLASS
  1

  2
exOdDbPolyline
  3

 90
        0
280
     0
281
     1
  0
CLASS
  1
ACDBPLACEHOLDER
  2
AcDbPlaceHolder
  3
ObjectDBX Classes
 90
        0
280
     0
281
     0
  0
CLASS
  1
LAYOUT
  2
AcDbLayout
  3
ObjectDBX Classes
 90
        0
280
     0
281
     0
  0
ENDSEC
  0
SECTION
  2
TABLES
  0
TABLE
  2
VPORT
  5
8
330
0
100
AcDbSymbolTable
 70
     1
  0
VPORT
  5
29
330
8
100
AcDbSymbolTableRecord
100
AcDbViewportTableRecord
  2
*Active
 70
     0
 10
0.0
 20
0.0
 11
1.0
 21
1.0
 12
-183.4232884445579
 22
-1285.42026661107
 13
0.0
 23
0.0
 14
0.5
 24
0.5
 15
0.5
 25
0.5
 16
0.0
 26
0.0
 36
1.0
 17
0.0
 27
0.0
 37
0.0
 40
278.5293758789492
 41
1.60267857142857
 42
50.0
 43
0.0
 44
0.0
 50
0.0
 51
0.0
 71
     0
 72
   100
 73
     1
 74
     3
 75
     0
 76
     0
 77
     0
 78
     0
281
     0
 65
     1
110
0.0
120
0.0
130
0.0
111
1.0
121
0.0
131
0.0
112
0.0
122
1.0
132
0.0
 79
     0
146
0.0
  0
ENDTAB
  0
TABLE
  2
LTYPE
  5
5
330
0
100
AcDbSymbolTable
 70
     8
  0
LTYPE
  5
14
330
5
100
AcDbSymbolTableRecord
100
AcDbLinetypeTableRecord
  2
ByBlock
 70
     0
  3

 72
    65
 73
     0
 40
0.0
  0
LTYPE
  5
15
330
5
100
AcDbSymbolTableRecord
100
AcDbLinetypeTableRecord
  2
ByLayer
 70
     0
  3

 72
    65
 73
     0
 40
0.0
  0
LTYPE
  5
16
330
5
100
AcDbSymbolTableRecord
100
AcDbLinetypeTableRecord
  2
Continuous
 70
     0
  3
Solid line
 72
    65
 73
     0
 40
0.0
  0
LTYPE
  5
2A
330
5
100
AcDbSymbolTableRecord
100
AcDbLinetypeTableRecord
  2
DASHED
 70
     0
  3
Dashed
 72
    65
 73
     2
 40
15.0
 49
7.0
 74
     0
 49
-8.0
 74
     0
  0
LTYPE
  5
2B
330
5
100
AcDbSymbolTableRecord
100
AcDbLinetypeTableRecord
  2
DOTTED
 70
     0
  3
Dotted
 72
    65
 73
     2
 40
1.0
 49
0.0
 74
     0
 49
-1.0
 74
     0
  0
LTYPE
  5
2C
330
5
100
AcDbSymbolTableRecord
100
AcDbLinetypeTableRecord
  2
DOT_CENTER
 70
     0
  3
Dot_Center
 72
    65
 73
     4
 40
14.0
 49
12.0
 74
     0
 49
-1.0
 74
     0
 49
0.0
 74
     0
 49
-1.0
 74
     0
  0
LTYPE
  5
2D
330
5
100
AcDbSymbolTableRecord
100
AcDbLinetypeTableRecord
  2
LONG_DASHED
 70
     0
  3
Long_Dashed
 72
    65
 73
     2
 40
15.0
 49
10.0
 74
     0
 49
-5.0
 74
     0
  0
LTYPE
  5
2E
330
5
100
AcDbSymbolTableRecord
100
AcDbLinetypeTableRecord
  2
DASH_CENTER
 70
     0
  3
Dash_Center
 72
    65
 73
     4
 40
14.0
 49
11.0
 74
     0
 49
-1.0
 74
     0
 49
1.0
 74
     0
 49
-1.0
 74
     0
  0
LTYPE
  5
2F
330
5
100
AcDbSymbolTableRecord
100
AcDbLinetypeTableRecord
  2
PHANTOM
 70
     0
  3
Phantom
 72
    65
 73
     6
 40
13.0
 49
10.0
 74
     0
 49
-1.0
 74
     0
 49
0.0
 74
     0
 49
-1.0
 74
     0
 49
0.0
 74
     0
 49
-1.0
 74
     0
  0
LTYPE
  5
30
330
5
100
AcDbSymbolTableRecord
100
AcDbLinetypeTableRecord
  2
CENTER_DASH_DASH
 70
     0
  3
Center_Dash_Dash
 72
    65
 73
     6
 40
14.0
 49
9.0
 74
     0
 49
-1.0
 74
     0
 49
1.0
 74
     0
 49
-1.0
 74
     0
 49
1.0
 74
     0
 49
-1.0
 74
     0
  0
ENDTAB
  0
TABLE
  2
LAYER
  5
2
330
0
100
AcDbSymbolTable
 70
     3
  0
LAYER
  5
10
330
2
100
AcDbSymbolTableRecord
100
AcDbLayerTableRecord
  2
0
 70
     0
 62
     7
  6
Continuous
370
    -3
390
F
  0
LAYER
  5
31
330
2
100
AcDbSymbolTableRecord
100
AcDbLayerTableRecord
  2
1
 70
     0
 62
     7
  6
Continuous
370
    -3
390
F
  0
LAYER
  5
32
330
2
100
AcDbSymbolTableRecord
100
AcDbLayerTableRecord
  2
6_ALL_DRFT_GEOM
 70
     0
 62
     7
  6
Continuous
370
    -3
390
F
  0
ENDTAB
  0
TABLE
  2
STYLE
  5
3
330
0
100
AcDbSymbolTable
 70
     4
  0
STYLE
  5
11
330
3
100
AcDbSymbolTableRecord
100
AcDbTextStyleTableRecord
  2
Standard
 70
     0
 40
0.0
 41
1.0
 50
0.0
 71
     0
 42
0.2
  3
txt
  4

  0
STYLE
  5
2DB
330
3
100
AcDbSymbolTableRecord
100
AcDbTextStyleTableRecord
  2
CONVERTER_1
 70
     0
 40
0.0
 41
0.855
 50
0.0
 71
     0
 42
0.2
  3
complex.shx
  4

  0
STYLE
  5
38C
330
3
100
AcDbSymbolTableRecord
100
AcDbTextStyleTableRecord
  2
CONVERTER_2
 70
     0
 40
0.0
 41
0.9
 50
0.0
 71
     0
 42
0.2
  3
txt.shx
  4

  0
STYLE
  5
3B0
330
3
100
AcDbSymbolTableRecord
100
AcDbTextStyleTableRecord
  2
CONVERTER_3
 70
     0
 40
0.0
 41
1.08
 50
0.0
 71
     0
 42
0.2
  3
txt.shx
  4

  0
ENDTAB
  0
TABLE
  2
VIEW
  5
6
330
0
100
AcDbSymbolTable
 70
     0
  0
ENDTAB
  0
TABLE
  2
UCS
  5
7
330
0
100
AcDbSymbolTable
 70
     0
  0
ENDTAB
  0
TABLE
  2
APPID
  5
9
330
0
100
AcDbSymbolTable
 70
     1
  0
APPID
  5
12
330
9
100
AcDbSymbolTableRecord
100
AcDbRegAppTableRecord
  2
ACAD
 70
     0
  0
ENDTAB
  0
TABLE
  2
DIMSTYLE
  5
A
330
0
100
AcDbSymbolTable
 70
     5
100
AcDbDimStyleTable
  0
DIMSTYLE
105
27
330
A
100
AcDbSymbolTableRecord
100
AcDbDimStyleTableRecord
  2
Standard
 70
     0
340
11
  0
DIMSTYLE
105
3C3
102
{ACAD_REACTORS
330
3C4
102
}
330
A
100
AcDbSymbolTableRecord
100
AcDbDimStyleTableRecord
  2
ME10_DIM_0
 70
     0
 41
3.5
 42
1.0
 44
1.0
 73
     0
 74
     0
 77
     1
 78
     8
140
3.5
147
1.6
172
     1
173
     1
176
     2
177
     2
178
     2
271
     3
340
38C
343
3BD
344
3BD
  0
DIMSTYLE
105
3D0
102
{ACAD_REACTORS
330
3D1
102
}
330
A
100
AcDbSymbolTableRecord
100
AcDbDimStyleTableRecord
  2
ME10_DIM_1
 70
     0
 41
3.5
 42
1.0
 44
1.0
 73
     0
 74
     0
 77
     1
 78
     8
140
3.5
147
1.6
172
     1
173
     1
176
     2
177
     2
178
     2
271
     3
340
38C
343
3BD
344
3BD
  0
DIMSTYLE
105
3DD
102
{ACAD_REACTORS
330
3DE
102
}
330
A
100
AcDbSymbolTableRecord
100
AcDbDimStyleTableRecord
  2
ME10_DIM_2
 70
     0
 41
3.5
 42
1.0
 44
1.0
 73
     0
 74
     0
 77
     1
 78
     8
140
3.5
147
1.6
172
     1
173
     1
176
     2
177
     2
178
     2
271
     3
340
38C
343
3BD
344
3BD
  0
DIMSTYLE
105
3EA
102
{ACAD_REACTORS
330
3EB
102
}
330
A
100
AcDbSymbolTableRecord
100
AcDbDimStyleTableRecord
  2
ME10_DIM_3
 70
     0
 41
3.5
 42
1.0
 44
1.0
 73
     0
 74
     0
 77
     1
 78
     8
140
3.5
147
1.6
172
     1
173
     1
176
     2
177
     2
178
     2
271
     3
340
38C
343
3BD
344
3BD
  0
ENDTAB
  0
TABLE
  2
BLOCK_RECORD
  5
1
330
0
100
AcDbSymbolTable
 70
    12
  0
BLOCK_RECORD
  5
1F
330
1
100
AcDbSymbolTableRecord
100
AcDbBlockTableRecord
  2
*Model_Space
340
22
  0
BLOCK_RECORD
  5
1B
330
1
100
AcDbSymbolTableRecord
100
AcDbBlockTableRecord
  2
*Paper_Space
340
1E
  0
BLOCK_RECORD
  5
23
330
1
100
AcDbSymbolTableRecord
100
AcDbBlockTableRecord
  2
*Paper_Space0
340
26
  0
BLOCK_RECORD
  5
33
330
1
100
AcDbSymbolTableRecord
100
AcDbBlockTableRecord
  2
Top__1
340
0
102
{BLKREFS
331
45
102
}
  0
BLOCK_RECORD
  5
36
330
1
100
AcDbSymbolTableRecord
100
AcDbBlockTableRecord
  2
Top__2
340
0
102
{BLKREFS
331
46
102
}
  0
BLOCK_RECORD
  5
39
330
1
100
AcDbSymbolTableRecord
100
AcDbBlockTableRecord
  2
Top__3
340
0
102
{BLKREFS
331
47
102
}
  0
BLOCK_RECORD
  5
3C
330
1
100
AcDbSymbolTableRecord
100
AcDbBlockTableRecord
  2
_3
340
0
102
{BLKREFS
331
48
102
}
  0
BLOCK_RECORD
  5
3F
330
1
100
AcDbSymbolTableRecord
100
AcDbBlockTableRecord
  2
_2
340
0
102
{BLKREFS
331
49
102
}
  0
BLOCK_RECORD
  5
42
330
1
100
AcDbSymbolTableRecord
100
AcDbBlockTableRecord
  2
Top__4
340
0
102
{BLKREFS
331
4A
102
}
  0
BLOCK_RECORD
  5
3B2
330
1
100
AcDbSymbolTableRecord
100
AcDbBlockTableRecord
  2
*D07
340
0
  0
BLOCK_RECORD
  5
3BD
330
1
100
AcDbSymbolTableRecord
100
AcDbBlockTableRecord
  2
_Open30
340
0
  0
BLOCK_RECORD
  5
3C5
330
1
100
AcDbSymbolTableRecord
100
AcDbBlockTableRecord
  2
*D19
340
0
  0
BLOCK_RECORD
  5
3D2
330
1
100
AcDbSymbolTableRecord
100
AcDbBlockTableRecord
  2
*D210
340
0
  0
BLOCK_RECORD
  5
3DF
330
1
100
AcDbSymbolTableRecord
100
AcDbBlockTableRecord
  2
*D311
340
0
  0
ENDTAB
  0
ENDSEC
  0
SECTION
  2
BLOCKS
  0
BLOCK
  5
20
330
1F
100
AcDbEntity
  8
0
100
AcDbBlockBegin
  2
*Model_Space
 70
     0
 71
     0
 10
0.0
 20
0.0
 30
0.0
  3
*Model_Space
  1

  0
ENDBLK
  5
21
330
1F
100
AcDbEntity
  8
0
100
AcDbBlockEnd
  0
BLOCK
  5
1C
330
1B
100
AcDbEntity
 67
     1
  8
0
100
AcDbBlockBegin
  2
*Paper_Space
 70
     0
 71
     0
 10
0.0
 20
0.0
 30
0.0
  3
*Paper_Space
  1

  0
ENDBLK
  5
1D
330
1B
100
AcDbEntity
 67
     1
  8
0
100
AcDbBlockEnd
  0
BLOCK
  5
24
330
23
100
AcDbEntity
  8
0
100
AcDbBlockBegin
  2
*Paper_Space0
 70
     0
 71
     0
 10
0.0
 20
0.0
 30
0.0
  3
*Paper_Space0
  1

  0
ENDBLK
  5
25
330
23
100
AcDbEntity
  8
0
100
AcDbBlockEnd
  0
BLOCK
  5
34
330
33
100
AcDbEntity
  8
0
100
AcDbBlockBegin
  2
Top__1
 70
     0
 71
     0
 10
252.467418777474
 20
-1752.13297564388
 30
0.0
  3
Top__1
  1

  0
LINE
  5
4B
330
33
100
AcDbEntity
  8
1
  6
Continuous
 62
     3
100
AcDbLine
 10
-201.5173510652099
 20
-1224.85662201397
 30
0.0
 11
-201.5173510652099
 21
-1221.33262201397
 31
0.0
  0
LINE
  5
4C
330
33
100
AcDbEntity
  8
1
  6
Continuous
 62
     3
100
AcDbLine
 10
-201.5173510652099
 20
-1224.85662201397
 30
0.0
 11
-201.5173510652099
 21
-1221.33262201397
 31
0.0
  0
LINE
  5
4D
330
33
100
AcDbEntity
  8
1
  6
Continuous
 62
     3
100
AcDbLine
 10
-201.5173510652099
 20
-1224.85662201397
 30
0.0
 11
-202.6720516035892
 21
-1226.85662201397
 31
0.0
  0
LINE
  5
4E
330
33
100
AcDbEntity
  8
1
  6
Continuous
 62
     3
100
AcDbLine
 10
-202.6720516035892
 20
-1176.85662201397
 30
0.0
 11
-201.5173510652099
 21
-1178.85662201397
 31
0.0
  0
LINE
  5
4F
330
33
100
AcDbEntity
  8
1
  6
DASH_CENTER
 62
     1
100
AcDbLine
 10
-42.01735106520988
 20
-1348.18511502428
 30
0.0
 11
-87.01735106520988
 21
-1348.18511502428
 31
0.0
  0
LINE
  5
50
330
33
100
AcDbEntity
  8
1
  6
Continuous
 62
     3
100
AcDbLine
 10
-61.01735106520988
 20
-1372.98511502428
 30
0.0
 11
-61.01735106520988
 21
-1376.68511502428
 31
0.0
  0
LINE
  5
51
330
33
100
AcDbEntity
  8
1
  6
Continuous
 62
     3
100
AcDbLine
 10
-61.01735106520988
 20
-1319.68511502428
 30
0.0
 11
-61.01735106520988
 21
-1323.38511502428
 31
0.0
  0
LINE
  5
52
330
33
100
AcDbEntity
  8
1
  6
Continuous
 62
     3
100
AcDbLine
 10
-81.86265052683064
 20
-1375.18511502428
 30
0.0
 11
-65.01735106520988
 21
-1375.18511502428
 31
0.0
  0
LINE
  5
53
330
33
100
AcDbEntity
  8
1
  6
Continuous
 62
     3
100
AcDbLine
 10
-81.86265052683064
 20
-1321.18511502428
 30
0.0
 11
-65.01735106520988
 21
-1321.18511502428
 31
0.0
  0
LINE
  5
54
330
33
100
AcDbEntity
  8
1
  6
Continuous
 62
     3
100
AcDbLine
 10
-83.01735106520988
 20
-1323.18511502428
 30
0.0
 11
-81.86265052683064
 21
-1321.18511502428
 31
0.0
  0
LINE
  5
55
330
33
100
AcDbEntity
  8
1
  6
Continuous
 62
     3
100
AcDbLine
 10
-83.01735106520988
 20
-1373.18511502428
 30
0.0
 11
-81.86265052683064
 21
-1375.18511502428
 31
0.0
  0
LINE
  5
56
330
33
100
AcDbEntity
  8
1
  6
Continuous
 62
     3
100
AcDbLine
 10
-64.01735106520988
 20
-1319.68511502428
 30
0.0
 11
-61.01735106520988
 21
-1319.68511502428
 31
0.0
  0
LINE
  5
57
330
33
100
AcDbEntity
  8
1
  6
Continuous
 62
     3
100
AcDbLine
 10
-61.01735106520988
 20
-1376.68511502428
 30
0.0
 11
-64.01735106520988
 21
-1376.68511502428
 31
0.0
  0
LINE
  5
58
330
33
100
AcDbEntity
  8
1
  6
Continuous
 62
     3
100
AcDbLine
 10
-83.01735106520988
 20
-1323.18511502428
 30
0.0
 11
-83.01735106520988
 21
-1328.70911502428
 31
0.0
  0
LINE
  5
59
330
33
100
AcDbEntity
  8
1
  6
Continuous
 62
     3
100
AcDbLine
 10
-83.01735106520988
 20
-1328.70911502428
 30
0.0
 11
-83.01735106520988
 21
-1367.66111502428
 31
0.0
  0
LINE
  5
5A
330
33
100
AcDbEntity
  8
1
  6
Continuous
 62
     3
100
AcDbLine
 10
-83.01735106520988
 20
-1367.66111502428
 30
0.0
 11
-83.01735106520988
 21
-1373.18511502428
 31
0.0
  0
LINE
  5
5B
330
33
100
AcDbEntity
  8
1
  6
Continuous
 62
     3
100
AcDbLine
 10
-65.01735106520988
 20
-1320.68511502428
 30
0.0
 11
-65.01735106520988
 21
-1321.18511502428
 31
0.0
  0
LINE
  5
5C
330
33
100
AcDbEntity
  8
1
  6
Continuous
 62
     3
100
AcDbLine
 10
-65.01735106520988
 20
-1375.18511502428
 30
0.0
 11
-65.01735106520988
 21
-1375.68511502428
 31
0.0
  0
LINE
  5
5D
330
33
100
AcDbEntity
  8
1
  6
Continuous
 62
     3
100
AcDbLine
 10
-65.01735106520988
 20
-1375.68511502428
 30
0.0
 11
-65.01735106520988
 21
-1321.18511502428
 31
0.0
  0
LINE
  5
5E
330
33
100
AcDbEntity
  8
1
  6
Continuous
 62
     3
100
AcDbLine
 10
-77.8550392144075
 20
-1331.98511502428
 30
0.0
 11
-65.01735106520988
 21
-1331.98511502428
 31
0.0
  0
LINE
  5
5F
330
33
100
AcDbEntity
  8
1
  6
Continuous
 62
     3
100
AcDbLine
 10
-77.8550392144075
 20
-1364.38511502428
 30
0.0
 11
-65.01735106520991
 21
-1364.38511502428
 31
0.0
  0
LINE
  5
60
330
33
100
AcDbEntity
  8
1
  6
DASH_CENTER
 62
     1
100
AcDbLine
 10
-142.5173510652099
 20
-1313.98511502428
 30
0.0
 11
-142.5173510652099
 21
-1382.38511502428
 31
0.0
  0
LINE
  5
61
330
33
100
AcDbEntity
  8
1
  6
DASH_CENTER
 62
     1
100
AcDbLine
 10
-108.3173510652102
 20
-1348.18511502428
 30
0.0
 11
-176.7173510652096
 21
-1348.18511502428
 31
0.0
  0
LINE
  5
62
330
33
100
AcDbEntity
  8
1
  6
Continuous
 62
     3
100
AcDbLine
 10
-167.5173510652099
 20
-1337.987075997095
 30
0.0
 11
-167.5173510652099
 21
-1358.383154051466
 31
0.0
  0
LINE
  5
63
330
33
100
AcDbEntity
  8
1
  6
Continuous
 62
     3
100
AcDbLine
 10
-146.1855901988821
 20
-1374.934769632484
 30
0.0
 11
-163.8491119315378
 21
-1364.736730605298
 31
0.0
  0
LINE
  5
64
330
33
100
AcDbEntity
  8
1
  6
Continuous
 62
     3
100
AcDbLine
 10
-121.1855901988821
 20
-1364.736730605298
 30
0.0
 11
-138.8491119315378
 21
-1374.934769632484
 31
0.0
  0
LINE
  5
65
330
33
100
AcDbEntity
  8
1
  6
Continuous
 62
     3
100
AcDbLine
 10
-117.5173510652099
 20
-1348.18511502428
 30
0.0
 11
-117.5173510652099
 21
-1358.383154051466
 31
0.0
  0
LINE
  5
66
330
33
100
AcDbEntity
  8
1
  6
Continuous
 62
     3
100
AcDbLine
 10
-117.5173510652099
 20
-1337.987075997095
 30
0.0
 11
-117.5173510652099
 21
-1348.18511502428
 31
0.0
  0
LINE
  5
67
330
33
100
AcDbEntity
  8
1
  6
Continuous
 62
     3
100
AcDbLine
 10
-138.8491119315377
 20
-1321.435460416076
 30
0.0
 11
-121.185590198882
 21
-1331.633499443262
 31
0.0
  0
LINE
  5
68
330
33
100
AcDbEntity
  8
1
  6
Continuous
 62
     3
100
AcDbLine
 10
-163.8491119315378
 20
-1331.633499443262
 30
0.0
 11
-146.1855901988821
 21
-1321.435460416076
 31
0.0
  0
LINE
  5
69
330
33
100
AcDbEntity
  8
1
  6
Continuous
 62
     3
100
AcDbLine
 10
-219.5173510652099
 20
-1201.85662201397
 30
0.0
 11
-219.5173510652099
 21
-1227.85662201397
 31
0.0
  0
LINE
  5
6A
330
33
100
AcDbEntity
  8
1
  6
Continuous
 62
     3
100
AcDbLine
 10
-201.5173510652099
 20
-1221.33262201397
 30
0.0
 11
-201.5173510652099
 21
-1182.38062201397
 31
0.0
  0
LINE
  5
6B
330
33
100
AcDbEntity
  8
1
  6
Continuous
 62
     3
100
AcDbLine
 10
-219.5173510652099
 20
-1175.85662201397
 30
0.0
 11
-219.5173510652099
 21
-1201.85662201397
 31
0.0
  0
LINE
  5
6C
330
33
100
AcDbEntity
  8
1
  6
Continuous
 62
     3
100
AcDbLine
 10
-219.5173510652099
 20
-1364.38511502428
 30
0.0
 11
-206.6796629160123
 21
-1364.38511502428
 31
0.0
  0
LINE
  5
6D
330
33
100
AcDbEntity
  8
1
  6
Continuous
 62
     3
100
AcDbLine
 10
-219.5173510652099
 20
-1331.98511502428
 30
0.0
 11
-206.6796629160123
 21
-1331.98511502428
 31
0.0
  0
LINE
  5
6E
330
33
100
AcDbEntity
  8
1
  6
Continuous
 62
     3
100
AcDbLine
 10
-219.5173510652099
 20
-1321.18511502428
 30
0.0
 11
-219.5173510652099
 21
-1375.68511502428
 31
0.0
  0
LINE
  5
6F
330
33
100
AcDbEntity
  8
1
  6
Continuous
 62
     3
100
AcDbLine
 10
-223.5173510652099
 20
-1230.35662201397
 30
0.0
 11
-223.5173510652099
 21
-1226.65662201397
 31
0.0
  0
LINE
  5
70
330
33
100
AcDbEntity
  8
1
  6
Continuous
 62
     3
100
AcDbLine
 10
-223.5173510652099
 20
-1177.05662201397
 30
0.0
 11
-223.5173510652099
 21
-1173.35662201397
 31
0.0
  0
LINE
  5
71
330
33
100
AcDbEntity
  8
1
  6
Continuous
 62
     3
100
AcDbLine
 10
-218.5173510652099
 20
-1226.85662201397
 30
0.0
 11
-202.6720516035892
 21
-1226.85662201397
 31
0.0
  0
LINE
  5
72
330
33
100
AcDbEntity
  8
1
  6
Continuous
 62
     3
100
AcDbLine
 10
-218.5173510652099
 20
-1176.85662201397
 30
0.0
 11
-202.6720516035892
 21
-1176.85662201397
 31
0.0
  0
LINE
  5
73
330
33
100
AcDbEntity
  8
1
  6
Continuous
 62
     3
100
AcDbLine
 10
-223.5173510652099
 20
-1173.35662201397
 30
0.0
 11
-220.5173510652099
 21
-1173.35662201397
 31
0.0
  0
LINE
  5
74
330
33
100
AcDbEntity
  8
1
  6
Continuous
 62
     3
100
AcDbLine
 10
-220.5173510652099
 20
-1230.35662201397
 30
0.0
 11
-223.5173510652099
 21
-1230.35662201397
 31
0.0
  0
LINE
  5
75
330
33
100
AcDbEntity
  8
1
  6
Continuous
 62
     3
100
AcDbLine
 10
-201.5173510652099
 20
-1182.38062201397
 30
0.0
 11
-201.5173510652099
 21
-1178.85662201397
 31
0.0
  0
LINE
  5
76
330
33
100
AcDbEntity
  8
1
  6
Continuous
 62
     3
100
AcDbLine
 10
-219.5173510652099
 20
-1174.85662201397
 30
0.0
 11
-219.5173510652099
 21
-1174.35662201397
 31
0.0
  0
LINE
  5
77
330
33
100
AcDbEntity
  8
1
  6
Continuous
 62
     3
100
AcDbLine
 10
-219.5173510652099
 20
-1175.85662201397
 30
0.0
 11
-219.5173510652099
 21
-1174.85662201397
 31
0.0
  0
LINE
  5
78
330
33
100
AcDbEntity
  8
1
  6
Continuous
 62
     3
100
AcDbLine
 10
-219.5173510652099
 20
-1228.85662201397
 30
0.0
 11
-219.5173510652099
 21
-1227.85662201397
 31
0.0
  0
LINE
  5
79
330
33
100
AcDbEntity
  8
1
  6
Continuous
 62
     3
100
AcDbLine
 10
-219.5173510652099
 20
-1229.35662201397
 30
0.0
 11
-219.5173510652099
 21
-1228.85662201397
 31
0.0
  0
LINE
  5
7A
330
33
100
AcDbEntity
  8
1
  6
Continuous
 62
     3
100
AcDbLine
 10
-219.5173510652099
 20
-1375.68511502428
 30
0.0
 11
-219.5173510652099
 21
-1375.18511502428
 31
0.0
  0
LINE
  5
7B
330
33
100
AcDbEntity
  8
1
  6
Continuous
 62
     3
100
AcDbLine
 10
-219.5173510652099
 20
-1321.18511502428
 30
0.0
 11
-219.5173510652099
 21
-1320.68511502428
 31
0.0
  0
LINE
  5
7C
330
33
100
AcDbEntity
  8
1
  6
Continuous
 62
     3
100
AcDbLine
 10
-201.5173510652099
 20
-1373.18511502428
 30
0.0
 11
-201.5173510652099
 21
-1367.66111502428
 31
0.0
  0
LINE
  5
7D
330
33
100
AcDbEntity
  8
1
  6
Continuous
 62
     3
100
AcDbLine
 10
-201.5173510652099
 20
-1367.66111502428
 30
0.0
 11
-201.5173510652099
 21
-1328.70911502428
 31
0.0
  0
LINE
  5
7E
330
33
100
AcDbEntity
  8
1
  6
Continuous
 62
     3
100
AcDbLine
 10
-201.5173510652099
 20
-1328.70911502428
 30
0.0
 11
-201.5173510652099
 21
-1323.18511502428
 31
0.0
  0
LINE
  5
7F
330
33
100
AcDbEntity
  8
1
  6
Continuous
 62
     3
100
AcDbLine
 10
-220.5173510652099
 20
-1376.68511502428
 30
0.0
 11
-223.5173510652099
 21
-1376.68511502428
 31
0.0
  0
LINE
  5
80
330
33
100
AcDbEntity
  8
1
  6
Continuous
 62
     3
100
AcDbLine
 10
-223.5173510652099
 20
-1319.68511502428
 30
0.0
 11
-220.5173510652099
 21
-1319.68511502428
 31
0.0
  0
LINE
  5
81
330
33
100
AcDbEntity
  8
1
  6
Continuous
 62
     3
100
AcDbLine
 10
-202.6720516035892
 20
-1375.18511502428
 30
0.0
 11
-201.5173510652099
 21
-1373.18511502428
 31
0.0
  0
LINE
  5
82
330
33
100
AcDbEntity
  8
1
  6
Continuous
 62
     3
100
AcDbLine
 10
-202.6720516035892
 20
-1321.18511502428
 30
0.0
 11
-201.5173510652099
 21
-1323.18511502428
 31
0.0
  0
LINE
  5
83
330
33
100
AcDbEntity
  8
1
  6
Continuous
 62
     3
100
AcDbLine
 10
-219.5173510652099
 20
-1321.18511502428
 30
0.0
 11
-202.6720516035892
 21
-1321.18511502428
 31
0.0
  0
LINE
  5
84
330
33
100
AcDbEntity
  8
1
  6
Continuous
 62
     3
100
AcDbLine
 10
-219.5173510652099
 20
-1375.18511502428
 30
0.0
 11
-202.6720516035892
 21
-1375.18511502428
 31
0.0
  0
LINE
  5
85
330
33
100
AcDbEntity
  8
1
  6
Continuous
 62
     3
100
AcDbLine
 10
-223.5173510652099
 20
-1323.38511502428
 30
0.0
 11
-223.5173510652099
 21
-1319.68511502428
 31
0.0
  0
LINE
  5
86
330
33
100
AcDbEntity
  8
1
  6
Continuous
 62
     3
100
AcDbLine
 10
-223.5173510652099
 20
-1376.68511502428
 30
0.0
 11
-223.5173510652099
 21
-1372.98511502428
 31
0.0
  0
LINE
  5
87
330
33
100
AcDbEntity
  8
1
  6
DASH_CENTER
 62
     1
100
AcDbLine
 10
-197.5173510652099
 20
-1348.18511502428
 30
0.0
 11
-242.5173510652099
 21
-1348.18511502428
 31
0.0
  0
LINE
  5
88
330
33
100
AcDbEntity
  8
1
  6
Continuous
 62
     3
100
AcDbLine
 10
-206.6796629160123
 20
-1201.85662201397
 30
0.0
 11
-219.5173510652099
 21
-1201.85662201397
 31
0.0
  0
ARC
  5
89
330
33
100
AcDbEntity
  8
1
  6
Continuous
 62
     3
100
AcDbCircle
 10
-55.01735106520988
 20
-1348.18511502428
 30
0.0
 40
28.00000000000005
100
AcDbArc
 50
144.6498728594598
 51
180.0
  0
ARC
  5
8A
330
33
100
AcDbEntity
  8
1
  6
Continuous
 62
     3
100
AcDbCircle
 10
-55.01735106520988
 20
-1348.18511502428
 30
0.0
 40
28.0
100
AcDbArc
 50
180.0
 51
-144.6498728594602
  0
ARC
  5
8B
330
33
100
AcDbEntity
  8
1
  6
Continuous
 62
     3
100
AcDbCircle
 10
-142.5173510652099
 20
-1348.18511502428
 30
0.0
 40
26.99999999999995
100
AcDbArc
 50
142.1916065662731
 51
157.8083934337281
  0
ARC
  5
8C
330
33
100
AcDbEntity
  8
1
  6
Continuous
 62
     3
100
AcDbCircle
 10
-142.5173510652099
 20
-1348.18511502428
 30
0.0
 40
27.00000000000009
100
AcDbArc
 50
-157.8083934337267
 51
-142.1916065662735
  0
ARC
  5
8D
330
33
100
AcDbEntity
  8
1
  6
Continuous
 62
     3
100
AcDbCircle
 10
-142.5173510652099
 20
-1348.18511502428
 30
0.0
 40
27.00000000000011
100
AcDbArc
 50
-97.80839343372726
 51
-82.19160656627292
  0
ARC
  5
8E
330
33
100
AcDbEntity
  8
1
  6
Continuous
 62
     3
100
AcDbCircle
 10
-142.5173510652099
 20
-1348.18511502428
 30
0.0
 40
26.99999999999975
100
AcDbArc
 50
-37.80839343372665
 51
-22.19160656627325
  0
ARC
  5
8F
330
33
100
AcDbEntity
  8
1
  6
Continuous
 62
     3
100
AcDbCircle
 10
-142.5173510652099
 20
-1348.18511502428
 30
0.0
 40
26.99999999999985
100
AcDbArc
 50
22.19160656627192
 51
37.80839343372689
  0
ARC
  5
90
330
33
100
AcDbEntity
  8
1
  6
Continuous
 62
     3
100
AcDbCircle
 10
-142.5173510652099
 20
-1348.18511502428
 30
0.0
 40
27.00000000000034
100
AcDbArc
 50
82.19160656627275
 51
97.80839343372719
  0
ARC
  5
91
330
33
100
AcDbEntity
  8
1
  6
Continuous
 62
     3
100
AcDbCircle
 10
-229.5173510652099
 20
-1348.18511502428
 30
0.0
 40
27.99999999999992
100
AcDbArc
 50
-35.35012714053982
 51
0.0
  0
ARC
  5
92
330
33
100
AcDbEntity
  8
1
  6
Continuous
 62
     3
100
AcDbCircle
 10
-229.5173510652099
 20
-1348.18511502428
 30
0.0
 40
28.0
100
AcDbArc
 50
0.0
 51
35.3501271405402
  0
CIRCLE
  5
93
330
33
100
AcDbEntity
  8
1
  6
Continuous
 62
     3
100
AcDbCircle
 10
-142.5173510652099
 20
-1348.18511502428
 30
0.0
 40
28.5
  0
CIRCLE
  5
94
330
33
100
AcDbEntity
  8
1
  6
Continuous
 62
     1
100
AcDbCircle
 10
-142.5173510652099
 20
-1348.18511502428
 30
0.0
 40
20.953
  0
CIRCLE
  5
95
330
33
100
AcDbEntity
  8
1
  6
Continuous
 62
     3
100
AcDbCircle
 10
-142.5173510652099
 20
-1348.18511502428
 30
0.0
 40
19.47600000000001
  0
CIRCLE
  5
96
330
33
100
AcDbEntity
  8
1
  6
Continuous
 62
     3
100
AcDbCircle
 10
-142.5173510652099
 20
-1348.18511502428
 30
0.0
 40
25.00000000000001
  0
SPLINE
  5
97
330
33
100
AcDbEntity
  8
1
  6
Continuous
 62
     3
100
AcDbSpline
210
0.0
220
0.0
230
1.0
 70
     8
 71
     3
 72
     9
 73
     5
 74
     3
 42
0.0000000001
 43
0.0000000001
 44
0.00000001
 40
0.0
 40
0.0
 40
0.0
 40
0.0
 40
4.647606554829244
 40
8.089333814665393
 40
8.089333814665393
 40
8.089333814665393
 40
8.089333814665393
 10
-77.8550392144075
 20
-1331.98511502428
 30
0.0
 10
-79.17086490169908
 20
-1331.092265160782
 30
0.0
 10
-81.4611089447007
 20
-1329.538226429876
 30
0.0
 10
-82.55285253428916
 20
-1327.018185507679
 30
0.0
 10
-83.01735106520971
 20
-1325.945996655476
 30
0.0
 11
-77.8550392144075
 21
-1331.98511502428
 31
0.0
 11
-81.40690250678762
 21
-1328.987697162064
 31
0.0
 11
-83.01735106520971
 21
-1325.945996655476
 31
0.0
  0
SPLINE
  5
98
330
33
100
AcDbEntity
  8
1
  6
Continuous
 62
     3
100
AcDbSpline
210
0.0
220
0.0
230
1.0
 70
     8
 71
     3
 72
     9
 73
     5
 74
     3
 42
0.0000000001
 43
0.0000000001
 44
0.00000001
 40
0.0
 40
0.0
 40
0.0
 40
0.0
 40
4.647606554829538
 40
8.089333814666087
 40
8.089333814666087
 40
8.089333814666087
 40
8.089333814666087
 10
-77.8550392144075
 20
-1364.38511502428
 30
0.0
 10
-79.17086490169908
 20
-1365.277964887779
 30
0.0
 10
-81.46110894470078
 20
-1366.832003618685
 30
0.0
 10
-82.55285253428917
 20
-1369.352044540883
 30
0.0
 10
-83.01735106520971
 20
-1370.424233393085
 30
0.0
 11
-77.8550392144075
 21
-1364.38511502428
 31
0.0
 11
-81.40690250678762
 21
-1367.382532886497
 31
0.0
 11
-83.01735106520971
 21
-1370.424233393085
 31
0.0
  0
SPLINE
  5
99
330
33
100
AcDbEntity
  8
1
  6
Continuous
 62
     3
100
AcDbSpline
210
0.0
220
0.0
230
1.0
 70
     8
 71
     3
 72
     9
 73
     5
 74
     3
 42
0.0000000001
 43
0.0000000001
 44
0.00000001
 40
0.0
 40
0.0
 40
0.0
 40
0.0
 40
4.647606554829515
 40
8.089333814666066
 40
8.089333814666066
 40
8.089333814666066
 40
8.089333814666066
 10
-206.6796629160123
 20
-1364.38511502428
 30
0.0
 10
-205.3638372287207
 20
-1365.277964887779
 30
0.0
 10
-203.073593185719
 20
-1366.832003618685
 30
0.0
 10
-201.9818495961307
 20
-1369.352044540883
 30
0.0
 10
-201.5173510652101
 20
-1370.424233393085
 30
0.0
 11
-206.6796629160123
 21
-1364.38511502428
 31
0.0
 11
-203.1277996236322
 21
-1367.382532886497
 31
0.0
 11
-201.5173510652101
 21
-1370.424233393085
 31
0.0
  0
SPLINE
  5
9A
330
33
100
AcDbEntity
  8
1
  6
Continuous
 62
     3
100
AcDbSpline
210
0.0
220
0.0
230
1.0
 70
     8
 71
     3
 72
     9
 73
     5
 74
     3
 42
0.0000000001
 43
0.0000000001
 44
0.00000001
 40
0.0
 40
0.0
 40
0.0
 40
0.0
 40
4.647606554829412
 40
8.089333814666231
 40
8.089333814666231
 40
8.089333814666231
 40
8.089333814666231
 10
-206.6796629160123
 20
-1331.98511502428
 30
0.0
 10
-205.3638372287207
 20
-1331.092265160782
 30
0.0
 10
-203.0735931857189
 20
-1329.538226429875
 30
0.0
 10
-201.9818495961305
 20
-1327.018185507678
 30
0.0
 10
-201.5173510652099
 20
-1325.945996655475
 30
0.0
 11
-206.6796629160123
 21
-1331.98511502428
 31
0.0
 11
-203.1277996236321
 21
-1328.987697162063
 31
0.0
 11
-201.5173510652099
 21
-1325.945996655475
 31
0.0
  0
SPLINE
  5
9B
330
33
100
AcDbEntity
  8
1
  6
Continuous
 62
     3
100
AcDbSpline
210
0.0
220
0.0
230
1.0
 70
     8
 71
     3
 72
     9
 73
     5
 74
     3
 42
0.0000000001
 43
0.0000000001
 44
0.00000001
 40
0.0
 40
0.0
 40
0.0
 40
0.0
 40
4.647606554829369
 40
8.089333814666121
 40
8.089333814666121
 40
8.089333814666121
 40
8.089333814666121
 10
-206.6796629160123
 20
-1201.85662201397
 30
0.0
 10
-205.3638372287208
 20
-1202.749471877469
 30
0.0
 10
-203.073593185719
 20
-1204.303510608375
 30
0.0
 10
-201.9818495961306
 20
-1206.823551530572
 30
0.0
 10
-201.5173510652101
 20
-1207.895740382775
 30
0.0
 11
-206.6796629160123
 21
-1201.85662201397
 31
0.0
 11
-203.1277996236322
 21
-1204.854039876187
 31
0.0
 11
-201.5173510652101
 21
-1207.895740382775
 31
0.0
  0
SPLINE
  5
9C
330
33
100
AcDbEntity
  8
1
  6
Continuous
 62
     3
100
AcDbSpline
210
0.0
220
0.0
230
1.0
 70
     8
 71
     3
 72
     9
 73
     5
 74
     3
 42
0.0000000001
 43
0.0000000001
 44
0.00000001
 40
0.0
 40
0.0
 40
0.0
 40
0.0
 40
4.647606554828928
 40
8.08933381466548
 40
8.08933381466548
 40
8.08933381466548
 40
8.08933381466548
 10
-206.6796629160123
 20
-1201.85662201397
 30
0.0
 10
-205.3638372287207
 20
-1200.963772150472
 30
0.0
 10
-203.0735931857188
 20
-1199.409733419566
 30
0.0
 10
-201.9818495961306
 20
-1196.889692497369
 30
0.0
 10
-201.5173510652101
 20
-1195.817503645166
 30
0.0
 11
-206.6796629160123
 21
-1201.85662201397
 31
0.0
 11
-203.1277996236322
 21
-1198.859204151754
 31
0.0
 11
-201.5173510652101
 21
-1195.817503645166
 31
0.0
  0
ARC
  5
9D
330
33
100
AcDbEntity
  8
1
  6
Continuous
 62
     3
100
AcDbCircle
 10
-64.01735106520988
 20
-1320.68511502428
 30
0.0
 40
1.0
100
AcDbArc
 50
90.0
 51
180.0
  0
ARC
  5
9E
330
33
100
AcDbEntity
  8
1
  6
Continuous
 62
     3
100
AcDbCircle
 10
-64.01735106520988
 20
-1375.68511502428
 30
0.0
 40
1.0
100
AcDbArc
 50
180.0
 51
-90.0
  0
ARC
  5
9F
330
33
100
AcDbEntity
  8
1
  6
Continuous
 62
     3
100
AcDbCircle
 10
-220.5173510652099
 20
-1174.35662201397
 30
0.0
 40
1.0
100
AcDbArc
 50
0.0
 51
90.0
  0
ARC
  5
A0
330
33
100
AcDbEntity
  8
1
  6
Continuous
 62
     3
100
AcDbCircle
 10
-218.5173510652099
 20
-1175.85662201397
 30
0.0
 40
1.0
100
AcDbArc
 50
180.0
 51
-90.0
  0
ARC
  5
A1
330
33
100
AcDbEntity
  8
1
  6
Continuous
 62
     3
100
AcDbCircle
 10
-218.5173510652099
 20
-1227.85662201397
 30
0.0
 40
1.0
100
AcDbArc
 50
90.0
 51
180.0
  0
ARC
  5
A2
330
33
100
AcDbEntity
  8
1
  6
Continuous
 62
     3
100
AcDbCircle
 10
-220.5173510652099
 20
-1229.35662201397
 30
0.0
 40
1.0
100
AcDbArc
 50
-90.0
 51
0.0
  0
ARC
  5
A3
330
33
100
AcDbEntity
  8
1
  6
Continuous
 62
     3
100
AcDbCircle
 10
-220.5173510652099
 20
-1375.68511502428
 30
0.0
 40
1.0
100
AcDbArc
 50
-90.0
 51
0.0
  0
ARC
  5
A4
330
33
100
AcDbEntity
  8
1
  6
Continuous
 62
     3
100
AcDbCircle
 10
-220.5173510652099
 20
-1320.68511502428
 30
0.0
 40
1.0
100
AcDbArc
 50
0.0
 51
90.0
  0
ENDBLK
  5
35
330
33
100
AcDbEntity
  8
0
100
AcDbBlockEnd
  0
BLOCK
  5
37
330
36
100
AcDbEntity
  8
0
100
AcDbBlockBegin
  2
Top__2
 70
     0
 71
     0
 10
389.442648085003
 20
-1824.87867412555
 30
0.0
  3
Top__2
  1

  0
LINE
  5
A5
330
36
100
AcDbEntity
  8
1
  6
Continuous
 62
     3
100
AcDbLine
 10
-300.0173510652099
 20
-1178.85662201397
 30
0.0
 11
-300.0173510652099
 21
-1224.85662201397
 31
0.0
  0
LINE
  5
A6
330
36
100
AcDbEntity
  8
1
  6
Continuous
 62
     3
100
AcDbLine
 10
-298.8626505268306
 20
-1176.85662201397
 30
0.0
 11
-280.0173510652099
 21
-1176.85662201397
 31
0.0
  0
LINE
  5
A7
330
36
100
AcDbEntity
  8
1
  6
Continuous
 62
     3
100
AcDbLine
 10
-298.8626505268306
 20
-1226.85662201397
 30
0.0
 11
-300.0173510652099
 21
-1224.85662201397
 31
0.0
  0
LINE
  5
A8
330
36
100
AcDbEntity
  8
1
  6
Continuous
 62
     3
100
AcDbLine
 10
-300.0173510652099
 20
-1178.85662201397
 30
0.0
 11
-298.8626505268306
 21
-1176.85662201397
 31
0.0
  0
LINE
  5
A9
330
36
100
AcDbEntity
  8
1
  6
Continuous
 62
     3
100
AcDbLine
 10
-280.0173510652099
 20
-1201.85662201397
 30
0.0
 11
-280.0173510652099
 21
-1226.85662201397
 31
0.0
  0
LINE
  5
AA
330
36
100
AcDbEntity
  8
1
  6
Continuous
 62
     3
100
AcDbLine
 10
-280.0173510652099
 20
-1201.85662201397
 30
0.0
 11
-294.8550392144077
 21
-1201.85662201397
 31
0.0
  0
LINE
  5
AB
330
36
100
AcDbEntity
  8
1
  6
Continuous
 62
     3
100
AcDbLine
 10
-229.5173510652099
 20
-1229.35662201397
 30
0.0
 11
-229.5173510652099
 21
-1174.35662201397
 31
0.0
  0
LINE
  5
AC
330
36
100
AcDbEntity
  8
1
  6
Continuous
 62
     3
100
AcDbLine
 10
-228.5173510652099
 20
-1173.35662201397
 30
0.0
 11
-228.5173510652099
 21
-1230.35662201397
 31
0.0
  0
LINE
  5
AD
330
36
100
AcDbEntity
  8
1
  6
Continuous
 62
     3
100
AcDbLine
 10
-228.5173510652099
 20
-1173.35662201397
 30
0.0
 11
-229.5173510652099
 21
-1174.35662201397
 31
0.0
  0
LINE
  5
AE
330
36
100
AcDbEntity
  8
1
  6
Continuous
 62
     3
100
AcDbLine
 10
-224.5173510652099
 20
-1173.35662201397
 30
0.0
 11
-228.5173510652099
 21
-1173.35662201397
 31
0.0
  0
LINE
  5
AF
330
36
100
AcDbEntity
  8
1
  6
Continuous
 62
     3
100
AcDbLine
 10
-280.0173510652099
 20
-1176.85662201397
 30
0.0
 11
-280.0173510652099
 21
-1201.85662201397
 31
0.0
  0
LINE
  5
B0
330
36
100
AcDbEntity
  8
1
  6
Continuous
 62
     3
100
AcDbLine
 10
-223.5173510652099
 20
-1173.624571206401
 30
0.0
 11
-223.5173510652099
 21
-1230.088672821539
 31
0.0
  0
LINE
  5
B1
330
36
100
AcDbEntity
  8
1
  6
Continuous
 62
     3
100
AcDbLine
 10
-276.0173510652098
 20
-1177.85662201397
 30
0.0
 11
-272.2720973303483
 21
-1177.85662201397
 31
0.0
  0
LINE
  5
B2
330
36
100
AcDbEntity
  8
1
  6
Continuous
 62
     3
100
AcDbLine
 10
-280.0173510652099
 20
-1176.85662201397
 30
0.0
 11
-279.4455542954855
 21
-1177.186749032892
 31
0.0
  0
LINE
  5
B3
330
36
100
AcDbEntity
  8
1
  6
Continuous
 62
     3
100
AcDbLine
 10
-229.5173510652099
 20
-1229.35662201397
 30
0.0
 11
-228.5173510652099
 21
-1230.35662201397
 31
0.0
  0
LINE
  5
B4
330
36
100
AcDbEntity
  8
1
  6
Continuous
 62
     3
100
AcDbLine
 10
-228.5173510652099
 20
-1230.35662201397
 30
0.0
 11
-224.5173510652099
 21
-1230.35662201397
 31
0.0
  0
LINE
  5
B5
330
36
100
AcDbEntity
  8
1
  6
Continuous
 62
     3
100
AcDbLine
 10
-252.5173510652099
 20
-1229.35662201397
 30
0.0
 11
-229.5173510652099
 21
-1229.35662201397
 31
0.0
  0
LINE
  5
B6
330
36
100
AcDbEntity
  8
1
  6
Continuous
 62
     3
100
AcDbLine
 10
-272.2720973303483
 20
-1225.85662201397
 30
0.0
 11
-276.9455542954855
 21
-1225.85662201397
 31
0.0
  0
LINE
  5
B7
330
36
100
AcDbEntity
  8
1
  6
Continuous
 62
     3
100
AcDbLine
 10
-280.0173510652099
 20
-1226.85662201397
 30
0.0
 11
-298.8626505268306
 21
-1226.85662201397
 31
0.0
  0
LINE
  5
B8
330
36
100
AcDbEntity
  8
1
  6
Continuous
 62
     3
100
AcDbLine
 10
-279.4455542954855
 20
-1226.526494995048
 30
0.0
 11
-280.0173510652099
 21
-1226.85662201397
 31
0.0
  0
LINE
  5
B9
330
36
100
AcDbEntity
  8
1
  6
DOT_CENTER
 62
     1
100
AcDbLine
 10
-252.5173510652098
 20
-1171.85662201397
 30
0.0
 11
-252.5173510652098
 21
-1231.85662201397
 31
0.0
  0
LINE
  5
BA
330
36
100
AcDbEntity
  8
1
  6
Continuous
 62
     3
100
AcDbLine
 10
-276.9455542954855
 20
-1177.85662201397
 30
0.0
 11
-276.0173510652098
 21
-1177.85662201397
 31
0.0
  0
LINE
  5
BB
330
36
100
AcDbEntity
  8
1
  6
Continuous
 62
     3
100
AcDbLine
 10
-229.5173510652099
 20
-1174.35662201397
 30
0.0
 11
-252.5173510652099
 21
-1174.35662201397
 31
0.0
  0
ARC
  5
BC
330
36
100
AcDbEntity
  8
1
  6
Continuous
 62
     3
100
AcDbCircle
 10
-252.5173510652099
 20
-1176.85662201397
 30
0.0
 40
52.50000000000004
100
AcDbArc
 50
-110.0939666662779
 51
-90.0
  0
ARC
  5
BD
330
36
100
AcDbEntity
  8
1
  6
Continuous
 62
     3
100
AcDbCircle
 10
-252.5173510652099
 20
-1226.85662201397
 30
0.0
 40
52.5
100
AcDbArc
 50
90.0
 51
110.0939666662779
  0
SPLINE
  5
BE
330
36
100
AcDbEntity
  8
1
  6
Continuous
 62
     3
100
AcDbSpline
210
0.0
220
0.0
230
1.0
 70
     8
 71
     3
 72
     9
 73
     5
 74
     3
 42
0.0000000001
 43
0.0000000001
 44
0.00000001
 40
0.0
 40
0.0
 40
0.0
 40
0.0
 40
4.647606554828907
 40
8.089333814665459
 40
8.089333814665459
 40
8.089333814665459
 40
8.089333814665459
 10
-294.8550392144077
 20
-1201.85662201397
 30
0.0
 10
-296.1708649016993
 20
-1200.963772150472
 30
0.0
 10
-298.461108944701
 20
-1199.409733419565
 30
0.0
 10
-299.5528525342894
 20
-1196.889692497369
 30
0.0
 10
-300.0173510652099
 20
-1195.817503645166
 30
0.0
 11
-294.8550392144077
 21
-1201.85662201397
 31
0.0
 11
-298.4069025067878
 21
-1198.859204151754
 31
0.0
 11
-300.0173510652099
 21
-1195.817503645166
 31
0.0
  0
SPLINE
  5
BF
330
36
100
AcDbEntity
  8
1
  6
Continuous
 62
     3
100
AcDbSpline
210
0.0
220
0.0
230
1.0
 70
     8
 71
     3
 72
     9
 73
     5
 74
     3
 42
0.0000000001
 43
0.0000000001
 44
0.00000001
 40
0.0
 40
0.0
 40
0.0
 40
0.0
 40
4.647606554829347
 40
8.089333814666098
 40
8.089333814666098
 40
8.089333814666098
 40
8.089333814666098
 10
-294.8550392144077
 20
-1201.85662201397
 30
0.0
 10
-296.1708649016993
 20
-1202.749471877469
 30
0.0
 10
-298.461108944701
 20
-1204.303510608375
 30
0.0
 10
-299.5528525342894
 20
-1206.823551530573
 30
0.0
 10
-300.0173510652099
 20
-1207.895740382775
 30
0.0
 11
-294.8550392144077
 21
-1201.85662201397
 31
0.0
 11
-298.4069025067878
 21
-1204.854039876187
 31
0.0
 11
-300.0173510652099
 21
-1207.895740382775
 31
0.0
  0
ARC
  5
C0
330
36
100
AcDbEntity
  8
1
  6
Continuous
 62
     3
100
AcDbCircle
 10
-224.5173510652099
 20
-1228.35662201397
 30
0.0
 40
2.0
100
AcDbArc
 50
-90.0
 51
-59.99999999999946
  0
ARC
  5
C1
330
36
100
AcDbEntity
  8
1
  6
Continuous
 62
     3
100
AcDbCircle
 10
-276.9455542954855
 20
-1230.85662201397
 30
0.0
 40
5.0
100
AcDbArc
 50
90.0
 51
120.0000000000012
  0
ARC
  5
C2
330
36
100
AcDbEntity
  8
1
  6
Continuous
 62
     3
100
AcDbCircle
 10
-224.5173510652099
 20
-1175.35662201397
 30
0.0
 40
2.000000000000164
100
AcDbArc
 50
60.00000000000272
 51
90.0
  0
ARC
  5
C3
330
36
100
AcDbEntity
  8
1
  6
Continuous
 62
     3
100
AcDbCircle
 10
-276.9455542954855
 20
-1172.85662201397
 30
0.0
 40
4.99999999999982
100
AcDbArc
 50
-120.0000000000012
 51
-90.0
  0
ARC
  5
C4
330
36
100
AcDbEntity
  8
1
  6
Continuous
 62
     3
100
AcDbCircle
 10
-272.2720973303483
 20
-1230.85662201397
 30
0.0
 40
4.999999999999946
100
AcDbArc
 50
69.90603333372251
 51
90.0
  0
ARC
  5
C5
330
36
100
AcDbEntity
  8
1
  6
Continuous
 62
     3
100
AcDbCircle
 10
-272.2720973303483
 20
-1172.85662201397
 30
0.0
 40
5.0
100
AcDbArc
 50
-90.0
 51
-69.90603333372251
  0
ENDBLK
  5
38
330
36
100
AcDbEntity
  8
0
100
AcDbBlockEnd
  0
BLOCK
  5
3A
330
39
100
AcDbEntity
  8
0
100
AcDbBlockBegin
  2
Top__3
 70
     0
 71
     0
 10
383.9849681912639
 20
-960.81844064494
 30
0.0
  3
Top__3
  1

  0
LINE
  5
C6
330
39
100
AcDbEntity
  8
1
  6
Continuous
 62
     3
100
AcDbLine
 10
-55.01735106520988
 20
-1344.18511502428
 30
0.0
 11
-55.01735106520988
 21
-1320.68511502428
 31
0.0
  0
LINE
  5
C7
330
39
100
AcDbEntity
  8
1
  6
Continuous
 62
     3
100
AcDbLine
 10
-55.01735106520988
 20
-1352.18511502428
 30
0.0
 11
-55.01735106520988
 21
-1375.18511502428
 31
0.0
  0
LINE
  5
C8
330
39
100
AcDbEntity
  8
1
  6
Continuous
 62
     3
100
AcDbLine
 10
-56.01735106520994
 20
-1344.18511502428
 30
0.0
 11
-56.01735106520988
 21
-1319.68511502428
 31
0.0
  0
LINE
  5
C9
330
39
100
AcDbEntity
  8
1
  6
Continuous
 62
     3
100
AcDbLine
 10
-56.01735106520994
 20
-1344.18511502428
 30
0.0
 11
-9.51735106520982
 21
-1344.18511502428
 31
0.0
  0
LINE
  5
CA
330
39
100
AcDbEntity
  8
1
  6
Continuous
 62
     3
100
AcDbLine
 10
-9.51735106520982
 20
-1352.18511502428
 30
0.0
 11
-56.01735106520994
 21
-1352.18511502428
 31
0.0
  0
LINE
  5
CB
330
39
100
AcDbEntity
  8
1
  6
Continuous
 62
     3
100
AcDbLine
 10
-9.51735106520982
 20
-1344.18511502428
 30
0.0
 11
-9.51735106520982
 21
-1352.18511502428
 31
0.0
  0
LINE
  5
CC
330
39
100
AcDbEntity
  8
1
  6
Continuous
 62
     3
100
AcDbLine
 10
-44.01735106520991
 20
-1295.149216639418
 30
0.0
 11
-44.01735106520988
 21
-1315.68511502428
 31
0.0
  0
LINE
  5
CD
330
39
100
AcDbEntity
  8
1
  6
Continuous
 62
     3
100
AcDbLine
 10
-15.24765505812513
 20
-1284.18511502428
 30
0.0
 11
-13.01735106520988
 21
-1284.18511502428
 31
0.0
  0
LINE
  5
CE
330
39
100
AcDbEntity
  8
1
  6
Continuous
 62
     3
100
AcDbLine
 10
-51.01735106520991
 20
-1284.18511502428
 30
0.0
 11
-48.78704707229463
 21
-1284.18511502428
 31
0.0
  0
LINE
  5
CF
330
39
100
AcDbEntity
  8
1
  6
Continuous
 62
     3
100
AcDbLine
 10
-19.01735106520988
 20
-1279.68511502428
 30
0.0
 11
-12.01735106520988
 21
-1279.68511502428
 31
0.0
  0
LINE
  5
D0
330
39
100
AcDbEntity
  8
1
  6
Continuous
 62
     3
100
AcDbLine
 10
-45.01735106520991
 20
-1279.68511502428
 30
0.0
 11
-52.01735106520991
 21
-1279.68511502428
 31
0.0
  0
LINE
  5
D1
330
39
100
AcDbEntity
  8
1
  6
Continuous
 62
     3
100
AcDbLine
 10
-45.01735106520991
 20
-1279.68511502428
 30
0.0
 11
-19.01735106520988
 21
-1279.68511502428
 31
0.0
  0
LINE
  5
D2
330
39
100
AcDbEntity
  8
1
  6
Continuous
 62
     3
100
AcDbLine
 10
-61.01735106520988
 20
-1376.68511502428
 30
0.0
 11
-61.01735106520988
 21
-1319.68511502428
 31
0.0
  0
LINE
  5
D3
330
39
100
AcDbEntity
  8
1
  6
Continuous
 62
     3
100
AcDbLine
 10
-61.01735106520988
 20
-1321.93511502428
 30
0.0
 11
-61.01735106520988
 21
-1320.18511502428
 31
0.0
  0
LINE
  5
D4
330
39
100
AcDbEntity
  8
1
  6
Continuous
 62
     3
100
AcDbLine
 10
14.32794839641096
 20
-1375.18511502428
 30
0.0
 11
15.48264893479015
 21
-1373.18511502428
 31
0.0
  0
LINE
  5
D5
330
39
100
AcDbEntity
  8
1
  6
Continuous
 62
     3
100
AcDbLine
 10
15.48264893479015
 20
-1323.18511502428
 30
0.0
 11
14.32794839641096
 21
-1321.18511502428
 31
0.0
  0
LINE
  5
D6
330
39
100
AcDbEntity
  8
1
  6
Continuous
 62
     3
100
AcDbLine
 10
15.48264893479015
 20
-1373.18511502428
 30
0.0
 11
15.48264893479015
 21
-1323.18511502428
 31
0.0
  0
LINE
  5
D7
330
39
100
AcDbEntity
  8
1
  6
Continuous
 62
     3
100
AcDbLine
 10
-2.05324945007217
 20
-1321.18511502428
 30
0.0
 11
14.32794839641096
 21
-1321.18511502428
 31
0.0
  0
LINE
  5
D8
330
39
100
AcDbEntity
  8
1
  6
Continuous
 62
     3
100
AcDbLine
 10
-5.51735106520985
 20
-1373.18511502428
 30
0.0
 11
-2.66105505172564
 21
-1375.18511502428
 31
0.0
  0
LINE
  5
D9
330
39
100
AcDbEntity
  8
1
  6
DOT_CENTER
 62
     1
100
AcDbLine
 10
-32.01735106520988
 20
-1378.68511502428
 30
0.0
 11
-32.01735106520988
 21
-1276.18511502428
 31
0.0
  0
LINE
  5
DA
330
39
100
AcDbEntity
  8
1
  6
DOT_CENTER
 62
     1
100
AcDbLine
 10
19.48264893479015
 20
-1348.18511502428
 30
0.0
 11
-62.01735106520988
 21
-1348.18511502428
 31
0.0
  0
LINE
  5
DB
330
39
100
AcDbEntity
  8
1
  6
Continuous
 62
     3
100
AcDbLine
 10
-2.66105505172564
 20
-1375.18511502428
 30
0.0
 11
14.32794839641096
 21
-1375.18511502428
 31
0.0
  0
LINE
  5
DC
330
39
100
AcDbEntity
  8
1
  6
Continuous
 62
     3
100
AcDbLine
 10
-12.26260480007139
 20
-1324.18511502428
 30
0.0
 11
-8.58914783493427
 21
-1324.18511502428
 31
0.0
  0
LINE
  5
DD
330
39
100
AcDbEntity
  8
1
  6
Continuous
 62
     3
100
AcDbLine
 10
-6.08914783493427
 20
-1323.515242043202
 30
0.0
 11
-2.05324945007217
 21
-1321.18511502428
 31
0.0
  0
LINE
  5
DE
330
39
100
AcDbEntity
  8
1
  6
Continuous
 62
     3
100
AcDbLine
 10
-49.01735106521005
 20
-1320.68511502428
 30
0.0
 11
-55.01735106520988
 21
-1320.68511502428
 31
0.0
  0
LINE
  5
DF
330
39
100
AcDbEntity
  8
1
  6
Continuous
 62
     3
100
AcDbLine
 10
-55.01735106520988
 20
-1320.68511502428
 30
0.0
 11
-56.01735106520988
 21
-1319.68511502428
 31
0.0
  0
LINE
  5
E0
330
39
100
AcDbEntity
  8
1
  6
Continuous
 62
     3
100
AcDbLine
 10
-56.01735106520988
 20
-1319.68511502428
 30
0.0
 11
-61.01735106520988
 21
-1319.68511502428
 31
0.0
  0
LINE
  5
E1
330
39
100
AcDbEntity
  8
1
  6
Continuous
 62
     3
100
AcDbLine
 10
-20.01735106520985
 20
-1318.255614753478
 30
0.0
 11
-20.01735106520982
 21
-1295.149216639418
 31
0.0
  0
LINE
  5
E2
330
39
100
AcDbEntity
  8
1
  6
Continuous
 62
     3
100
AcDbLine
 10
-8.58914783493427
 20
-1372.18511502428
 30
0.0
 11
-12.26260480007139
 21
-1372.18511502428
 31
0.0
  0
LINE
  5
E3
330
39
100
AcDbEntity
  8
1
  6
Continuous
 62
     3
100
AcDbLine
 10
-55.01735106520988
 20
-1375.68511502428
 30
0.0
 11
-32.01735106520988
 21
-1375.68511502428
 31
0.0
  0
LINE
  5
E4
330
39
100
AcDbEntity
  8
1
  6
Continuous
 62
     3
100
AcDbLine
 10
-56.01735106520988
 20
-1376.68511502428
 30
0.0
 11
-55.01735106520988
 21
-1375.68511502428
 31
0.0
  0
LINE
  5
E5
330
39
100
AcDbEntity
  8
1
  6
Continuous
 62
     3
100
AcDbLine
 10
-61.01735106520988
 20
-1376.68511502428
 30
0.0
 11
-56.01735106520988
 21
-1376.68511502428
 31
0.0
  0
LINE
  5
E6
330
39
100
AcDbEntity
  8
1
  6
Continuous
 62
     3
100
AcDbLine
 10
-48.09749404918881
 20
-1317.395215740909
 30
0.0
 11
-44.3188879612803
 21
-1307.013580837366
 31
0.0
  0
LINE
  5
E7
330
39
100
AcDbEntity
  8
1
  6
Continuous
 62
     3
100
AcDbLine
 10
-14.66331226129924
 20
-1320.895215740909
 30
0.0
 11
-19.71581416913944
 21
-1307.013580837366
 31
0.0
  0
LINE
  5
E8
330
39
100
AcDbEntity
  8
1
  6
Continuous
 62
     3
100
AcDbLine
 10
-12.01735106520988
 20
-1283.18511502428
 30
0.0
 11
-12.01735106520988
 21
-1279.68511502428
 31
0.0
  0
LINE
  5
E9
330
39
100
AcDbEntity
  8
1
  6
Continuous
 62
     3
100
AcDbLine
 10
-18.01735106520988
 20
-1291.68511502428
 30
0.0
 11
-18.01735106520988
 21
-1287.18511502428
 31
0.0
  0
LINE
  5
EA
330
39
100
AcDbEntity
  8
1
  6
Continuous
 62
     3
100
AcDbLine
 10
-46.01735106520991
 20
-1287.18511502428
 30
0.0
 11
-46.01735106520991
 21
-1291.68511502428
 31
0.0
  0
LINE
  5
EB
330
39
100
AcDbEntity
  8
1
  6
Continuous
 62
     3
100
AcDbLine
 10
-52.01735106520991
 20
-1279.68511502428
 30
0.0
 11
-52.01735106520991
 21
-1283.18511502428
 31
0.0
  0
LINE
  5
EC
330
39
100
AcDbEntity
  8
1
  6
Continuous
 62
     3
100
AcDbLine
 10
-54.01735106520982
 20
-1279.68511502428
 30
0.0
 11
-54.01735106520982
 21
-1282.18511502428
 31
0.0
  0
LINE
  5
ED
330
39
100
AcDbEntity
  8
1
  6
Continuous
 62
     3
100
AcDbLine
 10
-52.01735106520982
 20
-1284.18511502428
 30
0.0
 11
-51.01735106520991
 21
-1284.18511502428
 31
0.0
  0
LINE
  5
EE
330
39
100
AcDbEntity
  8
1
  6
Continuous
 62
     3
100
AcDbLine
 10
-52.01735106520991
 20
-1279.68511502428
 30
0.0
 11
-54.01735106520982
 21
-1279.68511502428
 31
0.0
  0
LINE
  5
EF
330
39
100
AcDbEntity
  8
1
  6
Continuous
 62
     3
100
AcDbLine
 10
-4.51735106520985
 20
-1348.18511502428
 30
0.0
 11
-4.51735106520985
 21
-1323.18511502428
 31
0.0
  0
LINE
  5
F0
330
39
100
AcDbEntity
  8
1
  6
Continuous
 62
     3
100
AcDbLine
 10
-4.51735106520985
 20
-1373.18511502428
 30
0.0
 11
-4.51735106520985
 21
-1348.18511502428
 31
0.0
  0
LINE
  5
F1
330
39
100
AcDbEntity
  8
1
  6
Continuous
 62
     3
100
AcDbLine
 10
-30.51735106520988
 20
-1319.68511502428
 30
0.0
 11
-30.51735106520988
 21
-1307.18511502428
 31
0.0
  0
LINE
  5
F2
330
39
100
AcDbEntity
  8
1
  6
Continuous
 62
     3
100
AcDbLine
 10
-33.51735106520988
 20
-1319.68511502428
 30
0.0
 11
-33.51735106520988
 21
-1307.18511502428
 31
0.0
  0
LINE
  5
F3
330
39
100
AcDbEntity
  8
1
  6
Continuous
 62
     3
100
AcDbLine
 10
-21.42205467816453
 20
-1320.933562897318
 30
0.0
 11
-28.42205467816453
 21
-1319.933562897318
 31
0.0
  0
LINE
  5
F4
330
39
100
AcDbEntity
  8
1
  6
Continuous
 62
     3
100
AcDbLine
 10
-35.45005234277758
 20
-1319.815641351586
 30
0.0
 11
-43.69558835695287
 21
-1319.815641351586
 31
0.0
  0
LINE
  5
F5
330
39
100
AcDbEntity
  8
1
  6
Continuous
 62
     3
100
AcDbLine
 10
-56.01735106520988
 20
-1376.68511502428
 30
0.0
 11
-56.01735106520994
 21
-1352.18511502428
 31
0.0
  0
LINE
  5
F6
330
39
100
AcDbEntity
  8
1
  6
Continuous
 62
     3
100
AcDbLine
 10
-49.01735106520991
 20
-1284.18511502428
 30
0.0
 11
-15.01735106520988
 21
-1284.18511502428
 31
0.0
  0
LINE
  5
F7
330
39
100
AcDbEntity
  8
1
  6
Continuous
 62
     3
100
AcDbLine
 10
-45.01735106520991
 20
-1293.417165831849
 30
0.0
 11
-19.01735106520982
 21
-1293.417165831849
 31
0.0
  0
LINE
  5
F8
330
39
100
AcDbEntity
  8
1
  6
Continuous
 62
     3
100
AcDbLine
 10
0.64496078559253
 20
-1331.98511502428
 30
0.0
 11
10.32033708398777
 21
-1331.98511502428
 31
0.0
  0
LINE
  5
F9
330
39
100
AcDbEntity
  8
1
  6
Continuous
 62
     3
100
AcDbLine
 10
0.64496078559253
 20
-1364.38511502428
 30
0.0
 11
10.32033708398777
 21
-1364.38511502428
 31
0.0
  0
LINE
  5
FA
330
39
100
AcDbEntity
  8
1
  6
Continuous
 62
     3
100
AcDbLine
 10
-144.5173510652099
 20
-1284.18511502428
 30
0.0
 11
-140.5173510652099
 21
-1284.18511502428
 31
0.0
  0
LINE
  5
FB
330
39
100
AcDbEntity
  8
1
  6
Continuous
 62
     3
100
AcDbLine
 10
-144.5173510652099
 20
-1279.68511502428
 30
0.0
 11
-140.5173510652099
 21
-1279.68511502428
 31
0.0
  0
LINE
  5
FC
330
39
100
AcDbEntity
  8
1
  6
Continuous
 62
     3
100
AcDbLine
 10
-144.5173510652099
 20
-1284.18511502428
 30
0.0
 11
-144.5173510652099
 21
-1279.68511502428
 31
0.0
  0
LINE
  5
FD
330
39
100
AcDbEntity
  8
1
  6
Continuous
 62
     3
100
AcDbLine
 10
-140.5173510652099
 20
-1284.18511502428
 30
0.0
 11
-125.5173510652099
 21
-1284.18511502428
 31
0.0
  0
LINE
  5
FE
330
39
100
AcDbEntity
  8
1
  6
Continuous
 62
     3
100
AcDbLine
 10
-140.5173510652099
 20
-1279.68511502428
 30
0.0
 11
-129.5173510652099
 21
-1279.68511502428
 31
0.0
  0
LINE
  5
FF
330
39
100
AcDbEntity
  8
1
  6
Continuous
 62
     3
100
AcDbLine
 10
-140.5173510652099
 20
-1279.68511502428
 30
0.0
 11
-140.5173510652099
 21
-1284.18511502428
 31
0.0
  0
LINE
  5
100
330
39
100
AcDbEntity
  8
1
  6
DOT_CENTER
 62
     1
100
AcDbLine
 10
-171.5173510652099
 20
-1348.18511502428
 30
0.0
 11
-113.5173510652099
 21
-1348.18511502428
 31
0.0
  0
LINE
  5
101
330
39
100
AcDbEntity
  8
1
  6
DOT_CENTER
 62
     1
100
AcDbLine
 10
-142.5173510652099
 20
-1275.96065769834
 30
0.0
 11
-142.5173510652099
 21
-1379.18511502428
 31
0.0
  0
LINE
  5
102
330
39
100
AcDbEntity
  8
1
  6
Continuous
 62
     3
100
AcDbLine
 10
-155.5173510652099
 20
-1293.417165831849
 30
0.0
 11
-129.5173510652099
 21
-1293.417165831849
 31
0.0
  0
LINE
  5
103
330
39
100
AcDbEntity
  8
1
  6
Continuous
 62
     3
100
AcDbLine
 10
-159.5173510652099
 20
-1284.18511502428
 30
0.0
 11
-144.5173510652099
 21
-1284.18511502428
 31
0.0
  0
LINE
  5
104
330
39
100
AcDbEntity
  8
1
  6
Continuous
 62
     3
100
AcDbLine
 10
-122.5173510652099
 20
-1283.18511502428
 30
0.0
 11
-122.5173510652099
 21
-1279.68511502428
 31
0.0
  0
LINE
  5
105
330
39
100
AcDbEntity
  8
1
  6
Continuous
 62
     3
100
AcDbLine
 10
-128.5173510652099
 20
-1291.68511502428
 30
0.0
 11
-128.5173510652099
 21
-1287.18511502428
 31
0.0
  0
LINE
  5
106
330
39
100
AcDbEntity
  8
1
  6
Continuous
 62
     3
100
AcDbLine
 10
-156.5173510652099
 20
-1287.18511502428
 30
0.0
 11
-156.5173510652099
 21
-1291.68511502428
 31
0.0
  0
LINE
  5
107
330
39
100
AcDbEntity
  8
1
  6
Continuous
 62
     3
100
AcDbLine
 10
-162.5173510652099
 20
-1279.68511502428
 30
0.0
 11
-162.5173510652099
 21
-1283.18511502428
 31
0.0
  0
LINE
  5
108
330
39
100
AcDbEntity
  8
1
  6
Continuous
 62
     3
100
AcDbLine
 10
-155.5173510652099
 20
-1279.68511502428
 30
0.0
 11
-144.5173510652099
 21
-1279.68511502428
 31
0.0
  0
LINE
  5
109
330
39
100
AcDbEntity
  8
1
  6
Continuous
 62
     3
100
AcDbLine
 10
-122.5173510652099
 20
-1279.68511502428
 30
0.0
 11
-129.5173510652099
 21
-1279.68511502428
 31
0.0
  0
LINE
  5
10A
330
39
100
AcDbEntity
  8
1
  6
Continuous
 62
     3
100
AcDbLine
 10
-162.5173510652099
 20
-1279.68511502428
 30
0.0
 11
-155.5173510652099
 21
-1279.68511502428
 31
0.0
  0
LINE
  5
10B
330
39
100
AcDbEntity
  8
1
  6
Continuous
 62
     3
100
AcDbLine
 10
-125.7476550581252
 20
-1284.18511502428
 30
0.0
 11
-123.5173510652099
 21
-1284.18511502428
 31
0.0
  0
LINE
  5
10C
330
39
100
AcDbEntity
  8
1
  6
Continuous
 62
     3
100
AcDbLine
 10
-161.5173510652099
 20
-1284.18511502428
 30
0.0
 11
-159.2870470722946
 21
-1284.18511502428
 31
0.0
  0
LINE
  5
10D
330
39
100
AcDbEntity
  8
1
  6
Continuous
 62
     3
100
AcDbLine
 10
-154.5173510652099
 20
-1295.149216639418
 30
0.0
 11
-154.5173510652099
 21
-1320.485837055351
 31
0.0
  0
LINE
  5
10E
330
39
100
AcDbEntity
  8
1
  6
Continuous
 62
     3
100
AcDbLine
 10
-130.2158141691394
 20
-1307.013580837366
 30
0.0
 11
-122.6776524313503
 21
-1327.724509996138
 31
0.0
  0
LINE
  5
10F
330
39
100
AcDbEntity
  8
1
  6
Continuous
 62
     3
100
AcDbLine
 10
-154.8188879612804
 20
-1307.013580837366
 30
0.0
 11
-162.3570496990693
 21
-1327.724509996138
 31
0.0
  0
LINE
  5
110
330
39
100
AcDbEntity
  8
1
  6
Continuous
 62
     3
100
AcDbLine
 10
-141.0173510652099
 20
-1307.18511502428
 30
0.0
 11
-141.0173510652099
 21
-1319.68511502428
 31
0.0
  0
LINE
  5
111
330
39
100
AcDbEntity
  8
1
  6
Continuous
 62
     3
100
AcDbLine
 10
-144.0173510652099
 20
-1307.18511502428
 30
0.0
 11
-144.0173510652099
 21
-1319.68511502428
 31
0.0
  0
LINE
  5
112
330
39
100
AcDbEntity
  8
1
  6
Continuous
 62
     3
100
AcDbLine
 10
-130.5173510652099
 20
-1320.485837055351
 30
0.0
 11
-130.5173510652099
 21
-1295.149216639418
 31
0.0
  0
LINE
  5
113
330
39
100
AcDbEntity
  8
1
  6
Continuous
 62
     3
100
AcDbLine
 10
-345.329225823906
 20
-1320.485837055351
 30
0.0
 11
-345.3292258239059
 21
-1295.149216639418
 31
0.0
  0
LINE
  5
114
330
39
100
AcDbEntity
  8
1
  6
Continuous
 62
     3
100
AcDbLine
 10
-358.829225823906
 20
-1307.18511502428
 30
0.0
 11
-358.829225823906
 21
-1320.53572042693
 31
0.0
  0
LINE
  5
115
330
39
100
AcDbEntity
  8
1
  6
Continuous
 62
     3
100
AcDbLine
 10
-355.829225823906
 20
-1307.18511502428
 30
0.0
 11
-355.829225823906
 21
-1320.53572042693
 31
0.0
  0
LINE
  5
116
330
39
100
AcDbEntity
  8
1
  6
Continuous
 62
     3
100
AcDbLine
 10
-369.6307627199765
 20
-1307.013580837366
 30
0.0
 11
-377.7186821359305
 21
-1329.234956803068
 31
0.0
  0
LINE
  5
117
330
39
100
AcDbEntity
  8
1
  6
Continuous
 62
     3
100
AcDbLine
 10
-345.0276889278355
 20
-1307.013580837366
 30
0.0
 11
-336.9397695118813
 21
-1329.234956803068
 31
0.0
  0
LINE
  5
118
330
39
100
AcDbEntity
  8
1
  6
Continuous
 62
     3
100
AcDbLine
 10
-369.329225823906
 20
-1295.149216639418
 30
0.0
 11
-369.329225823906
 21
-1320.485837055351
 31
0.0
  0
LINE
  5
119
330
39
100
AcDbEntity
  8
1
  6
Continuous
 62
     3
100
AcDbLine
 10
-376.329225823906
 20
-1284.18511502428
 30
0.0
 11
-374.0989218309907
 21
-1284.18511502428
 31
0.0
  0
LINE
  5
11A
330
39
100
AcDbEntity
  8
1
  6
Continuous
 62
     3
100
AcDbLine
 10
-340.5595298168212
 20
-1284.18511502428
 30
0.0
 11
-338.329225823906
 21
-1284.18511502428
 31
0.0
  0
LINE
  5
11B
330
39
100
AcDbEntity
  8
1
  6
Continuous
 62
     3
100
AcDbLine
 10
-377.329225823906
 20
-1279.68511502428
 30
0.0
 11
-370.329225823906
 21
-1279.68511502428
 31
0.0
  0
LINE
  5
11C
330
39
100
AcDbEntity
  8
1
  6
Continuous
 62
     3
100
AcDbLine
 10
-337.329225823906
 20
-1279.68511502428
 30
0.0
 11
-344.329225823906
 21
-1279.68511502428
 31
0.0
  0
LINE
  5
11D
330
39
100
AcDbEntity
  8
1
  6
Continuous
 62
     3
100
AcDbLine
 10
-370.329225823906
 20
-1279.68511502428
 30
0.0
 11
-344.329225823906
 21
-1279.68511502428
 31
0.0
  0
LINE
  5
11E
330
39
100
AcDbEntity
  8
1
  6
Continuous
 62
     3
100
AcDbLine
 10
-377.329225823906
 20
-1279.68511502428
 30
0.0
 11
-377.329225823906
 21
-1283.18511502428
 31
0.0
  0
LINE
  5
11F
330
39
100
AcDbEntity
  8
1
  6
Continuous
 62
     3
100
AcDbLine
 10
-371.329225823906
 20
-1287.18511502428
 30
0.0
 11
-371.329225823906
 21
-1291.68511502428
 31
0.0
  0
LINE
  5
120
330
39
100
AcDbEntity
  8
1
  6
Continuous
 62
     3
100
AcDbLine
 10
-343.329225823906
 20
-1291.68511502428
 30
0.0
 11
-343.329225823906
 21
-1287.18511502428
 31
0.0
  0
LINE
  5
121
330
39
100
AcDbEntity
  8
1
  6
Continuous
 62
     3
100
AcDbLine
 10
-337.329225823906
 20
-1283.18511502428
 30
0.0
 11
-337.329225823906
 21
-1279.68511502428
 31
0.0
  0
LINE
  5
122
330
39
100
AcDbEntity
  8
1
  6
Continuous
 62
     3
100
AcDbLine
 10
-335.329225823906
 20
-1282.18511502428
 30
0.0
 11
-335.329225823906
 21
-1279.68511502428
 31
0.0
  0
LINE
  5
123
330
39
100
AcDbEntity
  8
1
  6
Continuous
 62
     3
100
AcDbLine
 10
-338.329225823906
 20
-1284.18511502428
 30
0.0
 11
-337.329225823906
 21
-1284.18511502428
 31
0.0
  0
LINE
  5
124
330
39
100
AcDbEntity
  8
1
  6
Continuous
 62
     3
100
AcDbLine
 10
-335.329225823906
 20
-1279.68511502428
 30
0.0
 11
-337.329225823906
 21
-1279.68511502428
 31
0.0
  0
LINE
  5
125
330
39
100
AcDbEntity
  8
1
  6
Continuous
 62
     3
100
AcDbLine
 10
-374.329225823906
 20
-1284.18511502428
 30
0.0
 11
-340.329225823906
 21
-1284.18511502428
 31
0.0
  0
LINE
  5
126
330
39
100
AcDbEntity
  8
1
  6
Continuous
 62
     3
100
AcDbLine
 10
-370.329225823906
 20
-1293.417165831849
 30
0.0
 11
-344.3292258239059
 21
-1293.417165831849
 31
0.0
  0
LINE
  5
127
330
39
100
AcDbEntity
  8
1
  6
Continuous
 62
     3
100
AcDbLine
 10
-294.8550392144076
 20
-1364.38511502428
 30
0.0
 11
-285.1796629160123
 21
-1364.38511502428
 31
0.0
  0
LINE
  5
128
330
39
100
AcDbEntity
  8
1
  6
Continuous
 62
     3
100
AcDbLine
 10
-294.8550392144076
 20
-1331.98511502428
 30
0.0
 11
-285.1796629160123
 21
-1331.98511502428
 31
0.0
  0
LINE
  5
129
330
39
100
AcDbEntity
  8
1
  6
Continuous
 62
     3
100
AcDbLine
 10
-260.24235106521
 20
-1342.18511502428
 30
0.0
 11
-254.6334919599481
 21
-1342.18511502428
 31
0.0
  0
LINE
  5
12A
330
39
100
AcDbEntity
  8
1
  6
Continuous
 62
     3
100
AcDbLine
 10
-254.6334919599481
 20
-1347.863256914388
 30
0.0
 11
-260.24235106521
 21
-1342.18511502428
 31
0.0
  0
LINE
  5
12B
330
39
100
AcDbEntity
  8
1
  6
Continuous
 62
     3
100
AcDbLine
 10
-265.5173510652099
 20
-1293.417165831849
 30
0.0
 11
-239.5173510652099
 21
-1293.417165831849
 31
0.0
  0
LINE
  5
12C
330
39
100
AcDbEntity
  8
1
  6
Continuous
 62
     3
100
AcDbLine
 10
-269.5173510652099
 20
-1284.18511502428
 30
0.0
 11
-235.5173510652099
 21
-1284.18511502428
 31
0.0
  0
LINE
  5
12D
330
39
100
AcDbEntity
  8
1
  6
Continuous
 62
     3
100
AcDbLine
 10
-263.4548510652099
 20
-1364.18511502428
 30
0.0
 11
-263.4548510652099
 21
-1357.18511502428
 31
0.0
  0
LINE
  5
12E
330
39
100
AcDbEntity
  8
1
  6
Continuous
 62
     3
100
AcDbLine
 10
-241.5798510652099
 20
-1361.56011502428
 30
0.0
 11
-241.5798510652099
 21
-1362.26011502428
 31
0.0
  0
LINE
  5
12F
330
39
100
AcDbEntity
  8
1
  6
Continuous
 62
     3
100
AcDbLine
 10
-241.7548510652099
 20
-1361.03511502428
 30
0.0
 11
-241.5798510652099
 21
-1361.56011502428
 31
0.0
  0
LINE
  5
130
330
39
100
AcDbEntity
  8
1
  6
Continuous
 62
     3
100
AcDbLine
 10
-241.9298510652099
 20
-1360.68511502428
 30
0.0
 11
-241.7548510652099
 21
-1361.03511502428
 31
0.0
  0
LINE
  5
131
330
39
100
AcDbEntity
  8
1
  6
Continuous
 62
     3
100
AcDbLine
 10
-242.1923510652099
 20
-1360.33511502428
 30
0.0
 11
-241.9298510652099
 21
-1360.68511502428
 31
0.0
  0
LINE
  5
132
330
39
100
AcDbEntity
  8
1
  6
Continuous
 62
     3
100
AcDbLine
 10
-242.4548510652099
 20
-1360.07261502428
 30
0.0
 11
-242.1923510652099
 21
-1360.33511502428
 31
0.0
  0
LINE
  5
133
330
39
100
AcDbEntity
  8
1
  6
Continuous
 62
     3
100
AcDbLine
 10
-242.7173510652099
 20
-1359.89761502428
 30
0.0
 11
-242.4548510652099
 21
-1360.07261502428
 31
0.0
  0
LINE
  5
134
330
39
100
AcDbEntity
  8
1
  6
Continuous
 62
     3
100
AcDbLine
 10
-243.1548510652099
 20
-1359.72261502428
 30
0.0
 11
-242.7173510652099
 21
-1359.89761502428
 31
0.0
  0
LINE
  5
135
330
39
100
AcDbEntity
  8
1
  6
Continuous
 62
     3
100
AcDbLine
 10
-243.5923510652099
 20
-1359.63511502428
 30
0.0
 11
-243.1548510652099
 21
-1359.72261502428
 31
0.0
  0
LINE
  5
136
330
39
100
AcDbEntity
  8
1
  6
Continuous
 62
     3
100
AcDbLine
 10
-244.0298510652099
 20
-1359.63511502428
 30
0.0
 11
-243.5923510652099
 21
-1359.63511502428
 31
0.0
  0
LINE
  5
137
330
39
100
AcDbEntity
  8
1
  6
Continuous
 62
     3
100
AcDbLine
 10
-244.4673510652099
 20
-1359.72261502428
 30
0.0
 11
-244.0298510652099
 21
-1359.63511502428
 31
0.0
  0
LINE
  5
138
330
39
100
AcDbEntity
  8
1
  6
Continuous
 62
     3
100
AcDbLine
 10
-244.9048510652099
 20
-1359.98511502428
 30
0.0
 11
-244.4673510652099
 21
-1359.72261502428
 31
0.0
  0
LINE
  5
139
330
39
100
AcDbEntity
  8
1
  6
Continuous
 62
     3
100
AcDbLine
 10
-245.3423510652099
 20
-1360.42261502428
 30
0.0
 11
-244.9048510652099
 21
-1359.98511502428
 31
0.0
  0
LINE
  5
13A
330
39
100
AcDbEntity
  8
1
  6
Continuous
 62
     3
100
AcDbLine
 10
-245.1673510652099
 20
-1359.19761502428
 30
0.0
 11
-245.3423510652099
 21
-1360.42261502428
 31
0.0
  0
LINE
  5
13B
330
39
100
AcDbEntity
  8
1
  6
Continuous
 62
     3
100
AcDbLine
 10
-244.9923510652099
 20
-1358.76011502428
 30
0.0
 11
-245.1673510652099
 21
-1359.19761502428
 31
0.0
  0
LINE
  5
13C
330
39
100
AcDbEntity
  8
1
  6
Continuous
 62
     3
100
AcDbLine
 10
-244.8173510652099
 20
-1358.49761502428
 30
0.0
 11
-244.9923510652099
 21
-1358.76011502428
 31
0.0
  0
LINE
  5
13D
330
39
100
AcDbEntity
  8
1
  6
Continuous
 62
     3
100
AcDbLine
 10
-244.4673510652099
 20
-1358.23511502428
 30
0.0
 11
-244.8173510652099
 21
-1358.49761502428
 31
0.0
  0
LINE
  5
13E
330
39
100
AcDbEntity
  8
1
  6
Continuous
 62
     3
100
AcDbLine
 10
-244.1173510652099
 20
-1358.06011502428
 30
0.0
 11
-244.4673510652099
 21
-1358.23511502428
 31
0.0
  0
LINE
  5
13F
330
39
100
AcDbEntity
  8
1
  6
Continuous
 62
     3
100
AcDbLine
 10
-243.5048510652099
 20
-1358.06011502428
 30
0.0
 11
-244.1173510652099
 21
-1358.06011502428
 31
0.0
  0
LINE
  5
140
330
39
100
AcDbEntity
  8
1
  6
Continuous
 62
     3
100
AcDbLine
 10
-243.1548510652099
 20
-1358.23511502428
 30
0.0
 11
-243.5048510652099
 21
-1358.06011502428
 31
0.0
  0
LINE
  5
141
330
39
100
AcDbEntity
  8
1
  6
Continuous
 62
     3
100
AcDbLine
 10
-242.8048510652099
 20
-1358.49761502428
 30
0.0
 11
-243.1548510652099
 21
-1358.23511502428
 31
0.0
  0
LINE
  5
142
330
39
100
AcDbEntity
  8
1
  6
Continuous
 62
     3
100
AcDbLine
 10
-242.6298510652099
 20
-1358.76011502428
 30
0.0
 11
-242.8048510652099
 21
-1358.49761502428
 31
0.0
  0
LINE
  5
143
330
39
100
AcDbEntity
  8
1
  6
Continuous
 62
     3
100
AcDbLine
 10
-242.5423510652099
 20
-1359.19761502428
 30
0.0
 11
-242.6298510652099
 21
-1358.76011502428
 31
0.0
  0
LINE
  5
144
330
39
100
AcDbEntity
  8
1
  6
Continuous
 62
     3
100
AcDbLine
 10
-241.6673510652099
 20
-1359.19761502428
 30
0.0
 11
-242.5423510652099
 21
-1359.19761502428
 31
0.0
  0
LINE
  5
145
330
39
100
AcDbEntity
  8
1
  6
Continuous
 62
     3
100
AcDbLine
 10
-241.6673510652099
 20
-1359.02261502428
 30
0.0
 11
-241.6673510652099
 21
-1359.19761502428
 31
0.0
  0
LINE
  5
146
330
39
100
AcDbEntity
  8
1
  6
Continuous
 62
     3
100
AcDbLine
 10
-241.7548510652099
 20
-1358.58511502428
 30
0.0
 11
-241.6673510652099
 21
-1359.02261502428
 31
0.0
  0
LINE
  5
147
330
39
100
AcDbEntity
  8
1
  6
Continuous
 62
     3
100
AcDbLine
 10
-241.9298510652099
 20
-1358.23511502428
 30
0.0
 11
-241.7548510652099
 21
-1358.58511502428
 31
0.0
  0
LINE
  5
148
330
39
100
AcDbEntity
  8
1
  6
Continuous
 62
     3
100
AcDbLine
 10
-242.1923510652099
 20
-1357.88511502428
 30
0.0
 11
-241.9298510652099
 21
-1358.23511502428
 31
0.0
  0
LINE
  5
149
330
39
100
AcDbEntity
  8
1
  6
Continuous
 62
     3
100
AcDbLine
 10
-242.4548510652099
 20
-1357.62261502428
 30
0.0
 11
-242.1923510652099
 21
-1357.88511502428
 31
0.0
  0
LINE
  5
14A
330
39
100
AcDbEntity
  8
1
  6
Continuous
 62
     3
100
AcDbLine
 10
-242.7173510652099
 20
-1357.44761502428
 30
0.0
 11
-242.4548510652099
 21
-1357.62261502428
 31
0.0
  0
LINE
  5
14B
330
39
100
AcDbEntity
  8
1
  6
Continuous
 62
     3
100
AcDbLine
 10
-243.1548510652099
 20
-1357.27261502428
 30
0.0
 11
-242.7173510652099
 21
-1357.44761502428
 31
0.0
  0
LINE
  5
14C
330
39
100
AcDbEntity
  8
1
  6
Continuous
 62
     3
100
AcDbLine
 10
-243.5048510652099
 20
-1357.18511502428
 30
0.0
 11
-243.1548510652099
 21
-1357.27261502428
 31
0.0
  0
LINE
  5
14D
330
39
100
AcDbEntity
  8
1
  6
Continuous
 62
     3
100
AcDbLine
 10
-244.1173510652099
 20
-1357.18511502428
 30
0.0
 11
-243.5048510652099
 21
-1357.18511502428
 31
0.0
  0
LINE
  5
14E
330
39
100
AcDbEntity
  8
1
  6
Continuous
 62
     3
100
AcDbLine
 10
-244.4673510652099
 20
-1357.27261502428
 30
0.0
 11
-244.1173510652099
 21
-1357.18511502428
 31
0.0
  0
LINE
  5
14F
330
39
100
AcDbEntity
  8
1
  6
Continuous
 62
     3
100
AcDbLine
 10
-244.9048510652099
 20
-1357.44761502428
 30
0.0
 11
-244.4673510652099
 21
-1357.27261502428
 31
0.0
  0
LINE
  5
150
330
39
100
AcDbEntity
  8
1
  6
Continuous
 62
     3
100
AcDbLine
 10
-245.1673510652099
 20
-1357.62261502428
 30
0.0
 11
-244.9048510652099
 21
-1357.44761502428
 31
0.0
  0
LINE
  5
151
330
39
100
AcDbEntity
  8
1
  6
Continuous
 62
     3
100
AcDbLine
 10
-245.4298510652099
 20
-1357.88511502428
 30
0.0
 11
-245.1673510652099
 21
-1357.62261502428
 31
0.0
  0
LINE
  5
152
330
39
100
AcDbEntity
  8
1
  6
Continuous
 62
     3
100
AcDbLine
 10
-245.6923510652099
 20
-1358.23511502428
 30
0.0
 11
-245.4298510652099
 21
-1357.88511502428
 31
0.0
  0
LINE
  5
153
330
39
100
AcDbEntity
  8
1
  6
Continuous
 62
     3
100
AcDbLine
 10
-245.8673510652099
 20
-1358.58511502428
 30
0.0
 11
-245.6923510652099
 21
-1358.23511502428
 31
0.0
  0
LINE
  5
154
330
39
100
AcDbEntity
  8
1
  6
Continuous
 62
     3
100
AcDbLine
 10
-246.0423510652099
 20
-1359.02261502428
 30
0.0
 11
-245.8673510652099
 21
-1358.58511502428
 31
0.0
  0
LINE
  5
155
330
39
100
AcDbEntity
  8
1
  6
Continuous
 62
     3
100
AcDbLine
 10
-246.1298510652099
 20
-1359.54761502428
 30
0.0
 11
-246.0423510652099
 21
-1359.02261502428
 31
0.0
  0
LINE
  5
156
330
39
100
AcDbEntity
  8
1
  6
Continuous
 62
     3
100
AcDbLine
 10
-246.2173510652099
 20
-1360.33511502428
 30
0.0
 11
-246.1298510652099
 21
-1359.54761502428
 31
0.0
  0
LINE
  5
157
330
39
100
AcDbEntity
  8
1
  6
Continuous
 62
     3
100
AcDbLine
 10
-246.2173510652099
 20
-1361.03511502428
 30
0.0
 11
-246.2173510652099
 21
-1360.33511502428
 31
0.0
  0
LINE
  5
158
330
39
100
AcDbEntity
  8
1
  6
Continuous
 62
     3
100
AcDbLine
 10
-246.1298510652099
 20
-1361.82261502428
 30
0.0
 11
-246.2173510652099
 21
-1361.03511502428
 31
0.0
  0
LINE
  5
159
330
39
100
AcDbEntity
  8
1
  6
Continuous
 62
     3
100
AcDbLine
 10
-246.0423510652099
 20
-1362.34761502428
 30
0.0
 11
-246.1298510652099
 21
-1361.82261502428
 31
0.0
  0
LINE
  5
15A
330
39
100
AcDbEntity
  8
1
  6
Continuous
 62
     3
100
AcDbLine
 10
-245.8673510652099
 20
-1362.78511502428
 30
0.0
 11
-246.0423510652099
 21
-1362.34761502428
 31
0.0
  0
LINE
  5
15B
330
39
100
AcDbEntity
  8
1
  6
Continuous
 62
     3
100
AcDbLine
 10
-245.6923510652099
 20
-1363.13511502428
 30
0.0
 11
-245.8673510652099
 21
-1362.78511502428
 31
0.0
  0
LINE
  5
15C
330
39
100
AcDbEntity
  8
1
  6
Continuous
 62
     3
100
AcDbLine
 10
-245.4298510652099
 20
-1363.48511502428
 30
0.0
 11
-245.6923510652099
 21
-1363.13511502428
 31
0.0
  0
LINE
  5
15D
330
39
100
AcDbEntity
  8
1
  6
Continuous
 62
     3
100
AcDbLine
 10
-245.1673510652099
 20
-1363.74761502428
 30
0.0
 11
-245.4298510652099
 21
-1363.48511502428
 31
0.0
  0
LINE
  5
15E
330
39
100
AcDbEntity
  8
1
  6
Continuous
 62
     3
100
AcDbLine
 10
-244.9048510652099
 20
-1363.92261502428
 30
0.0
 11
-245.1673510652099
 21
-1363.74761502428
 31
0.0
  0
LINE
  5
15F
330
39
100
AcDbEntity
  8
1
  6
Continuous
 62
     3
100
AcDbLine
 10
-244.4673510652099
 20
-1364.09761502428
 30
0.0
 11
-244.9048510652099
 21
-1363.92261502428
 31
0.0
  0
LINE
  5
160
330
39
100
AcDbEntity
  8
1
  6
Continuous
 62
     3
100
AcDbLine
 10
-244.0298510652099
 20
-1364.18511502428
 30
0.0
 11
-244.4673510652099
 21
-1364.09761502428
 31
0.0
  0
LINE
  5
161
330
39
100
AcDbEntity
  8
1
  6
Continuous
 62
     3
100
AcDbLine
 10
-243.5923510652099
 20
-1364.18511502428
 30
0.0
 11
-244.0298510652099
 21
-1364.18511502428
 31
0.0
  0
LINE
  5
162
330
39
100
AcDbEntity
  8
1
  6
Continuous
 62
     3
100
AcDbLine
 10
-243.1548510652099
 20
-1364.09761502428
 30
0.0
 11
-243.5923510652099
 21
-1364.18511502428
 31
0.0
  0
LINE
  5
163
330
39
100
AcDbEntity
  8
1
  6
Continuous
 62
     3
100
AcDbLine
 10
-242.7173510652099
 20
-1363.92261502428
 30
0.0
 11
-243.1548510652099
 21
-1364.09761502428
 31
0.0
  0
LINE
  5
164
330
39
100
AcDbEntity
  8
1
  6
Continuous
 62
     3
100
AcDbLine
 10
-242.4548510652099
 20
-1363.74761502428
 30
0.0
 11
-242.7173510652099
 21
-1363.92261502428
 31
0.0
  0
LINE
  5
165
330
39
100
AcDbEntity
  8
1
  6
Continuous
 62
     3
100
AcDbLine
 10
-242.1923510652099
 20
-1363.48511502428
 30
0.0
 11
-242.4548510652099
 21
-1363.74761502428
 31
0.0
  0
LINE
  5
166
330
39
100
AcDbEntity
  8
1
  6
Continuous
 62
     3
100
AcDbLine
 10
-241.9298510652099
 20
-1363.13511502428
 30
0.0
 11
-242.1923510652099
 21
-1363.48511502428
 31
0.0
  0
LINE
  5
167
330
39
100
AcDbEntity
  8
1
  6
Continuous
 62
     3
100
AcDbLine
 10
-241.7548510652099
 20
-1362.78511502428
 30
0.0
 11
-241.9298510652099
 21
-1363.13511502428
 31
0.0
  0
LINE
  5
168
330
39
100
AcDbEntity
  8
1
  6
Continuous
 62
     3
100
AcDbLine
 10
-241.5798510652099
 20
-1362.26011502428
 30
0.0
 11
-241.7548510652099
 21
-1362.78511502428
 31
0.0
  0
LINE
  5
169
330
39
100
AcDbEntity
  8
1
  6
Continuous
 62
     3
100
AcDbLine
 10
-243.1548510652099
 20
-1363.13511502428
 30
0.0
 11
-242.8048510652099
 21
-1362.87261502428
 31
0.0
  0
LINE
  5
16A
330
39
100
AcDbEntity
  8
1
  6
Continuous
 62
     3
100
AcDbLine
 10
-243.5923510652099
 20
-1363.31011502428
 30
0.0
 11
-243.1548510652099
 21
-1363.13511502428
 31
0.0
  0
LINE
  5
16B
330
39
100
AcDbEntity
  8
1
  6
Continuous
 62
     3
100
AcDbLine
 10
-244.0298510652099
 20
-1363.31011502428
 30
0.0
 11
-243.5923510652099
 21
-1363.31011502428
 31
0.0
  0
LINE
  5
16C
330
39
100
AcDbEntity
  8
1
  6
Continuous
 62
     3
100
AcDbLine
 10
-244.4673510652099
 20
-1363.13511502428
 30
0.0
 11
-244.0298510652099
 21
-1363.31011502428
 31
0.0
  0
LINE
  5
16D
330
39
100
AcDbEntity
  8
1
  6
Continuous
 62
     3
100
AcDbLine
 10
-244.8173510652099
 20
-1362.87261502428
 30
0.0
 11
-244.4673510652099
 21
-1363.13511502428
 31
0.0
  0
LINE
  5
16E
330
39
100
AcDbEntity
  8
1
  6
Continuous
 62
     3
100
AcDbLine
 10
-244.9923510652099
 20
-1362.61011502428
 30
0.0
 11
-244.8173510652099
 21
-1362.87261502428
 31
0.0
  0
LINE
  5
16F
330
39
100
AcDbEntity
  8
1
  6
Continuous
 62
     3
100
AcDbLine
 10
-245.1673510652099
 20
-1362.17261502428
 30
0.0
 11
-244.9923510652099
 21
-1362.61011502428
 31
0.0
  0
LINE
  5
170
330
39
100
AcDbEntity
  8
1
  6
Continuous
 62
     3
100
AcDbLine
 10
-245.1673510652099
 20
-1361.64761502428
 30
0.0
 11
-245.1673510652099
 21
-1362.17261502428
 31
0.0
  0
LINE
  5
171
330
39
100
AcDbEntity
  8
1
  6
Continuous
 62
     3
100
AcDbLine
 10
-244.9923510652099
 20
-1361.21011502428
 30
0.0
 11
-245.1673510652099
 21
-1361.64761502428
 31
0.0
  0
LINE
  5
172
330
39
100
AcDbEntity
  8
1
  6
Continuous
 62
     3
100
AcDbLine
 10
-244.8173510652099
 20
-1360.94761502428
 30
0.0
 11
-244.9923510652099
 21
-1361.21011502428
 31
0.0
  0
LINE
  5
173
330
39
100
AcDbEntity
  8
1
  6
Continuous
 62
     3
100
AcDbLine
 10
-244.4673510652099
 20
-1360.68511502428
 30
0.0
 11
-244.8173510652099
 21
-1360.94761502428
 31
0.0
  0
LINE
  5
174
330
39
100
AcDbEntity
  8
1
  6
Continuous
 62
     3
100
AcDbLine
 10
-244.0298510652099
 20
-1360.51011502428
 30
0.0
 11
-244.4673510652099
 21
-1360.68511502428
 31
0.0
  0
LINE
  5
175
330
39
100
AcDbEntity
  8
1
  6
Continuous
 62
     3
100
AcDbLine
 10
-243.5923510652099
 20
-1360.51011502428
 30
0.0
 11
-244.0298510652099
 21
-1360.51011502428
 31
0.0
  0
LINE
  5
176
330
39
100
AcDbEntity
  8
1
  6
Continuous
 62
     3
100
AcDbLine
 10
-243.1548510652099
 20
-1360.68511502428
 30
0.0
 11
-243.5923510652099
 21
-1360.51011502428
 31
0.0
  0
LINE
  5
177
330
39
100
AcDbEntity
  8
1
  6
Continuous
 62
     3
100
AcDbLine
 10
-242.8048510652099
 20
-1360.94761502428
 30
0.0
 11
-243.1548510652099
 21
-1360.68511502428
 31
0.0
  0
LINE
  5
178
330
39
100
AcDbEntity
  8
1
  6
Continuous
 62
     3
100
AcDbLine
 10
-242.6298510652099
 20
-1361.21011502428
 30
0.0
 11
-242.8048510652099
 21
-1360.94761502428
 31
0.0
  0
LINE
  5
179
330
39
100
AcDbEntity
  8
1
  6
Continuous
 62
     3
100
AcDbLine
 10
-242.4548510652099
 20
-1361.64761502428
 30
0.0
 11
-242.6298510652099
 21
-1361.21011502428
 31
0.0
  0
LINE
  5
17A
330
39
100
AcDbEntity
  8
1
  6
Continuous
 62
     3
100
AcDbLine
 10
-242.4548510652099
 20
-1362.17261502428
 30
0.0
 11
-242.4548510652099
 21
-1361.64761502428
 31
0.0
  0
LINE
  5
17B
330
39
100
AcDbEntity
  8
1
  6
Continuous
 62
     3
100
AcDbLine
 10
-242.6298510652099
 20
-1362.61011502428
 30
0.0
 11
-242.4548510652099
 21
-1362.17261502428
 31
0.0
  0
LINE
  5
17C
330
39
100
AcDbEntity
  8
1
  6
Continuous
 62
     3
100
AcDbLine
 10
-242.8048510652099
 20
-1362.87261502428
 30
0.0
 11
-242.6298510652099
 21
-1362.61011502428
 31
0.0
  0
LINE
  5
17D
330
39
100
AcDbEntity
  8
1
  6
Continuous
 62
     3
100
AcDbLine
 10
-248.4923510652099
 20
-1364.18511502428
 30
0.0
 11
-247.6173510652099
 21
-1364.18511502428
 31
0.0
  0
LINE
  5
17E
330
39
100
AcDbEntity
  8
1
  6
Continuous
 62
     3
100
AcDbLine
 10
-248.4923510652099
 20
-1359.11011502428
 30
0.0
 11
-248.4923510652099
 21
-1364.18511502428
 31
0.0
  0
LINE
  5
17F
330
39
100
AcDbEntity
  8
1
  6
Continuous
 62
     3
100
AcDbLine
 10
-250.1548510652099
 20
-1359.11011502428
 30
0.0
 11
-248.4923510652099
 21
-1359.11011502428
 31
0.0
  0
LINE
  5
180
330
39
100
AcDbEntity
  8
1
  6
Continuous
 62
     3
100
AcDbLine
 10
-250.1548510652099
 20
-1358.41011502428
 30
0.0
 11
-250.1548510652099
 21
-1359.11011502428
 31
0.0
  0
LINE
  5
181
330
39
100
AcDbEntity
  8
1
  6
Continuous
 62
     3
100
AcDbLine
 10
-249.9798510652099
 20
-1358.41011502428
 30
0.0
 11
-250.1548510652099
 21
-1358.41011502428
 31
0.0
  0
LINE
  5
182
330
39
100
AcDbEntity
  8
1
  6
Continuous
 62
     3
100
AcDbLine
 10
-249.5423510652099
 20
-1358.32261502428
 30
0.0
 11
-249.9798510652099
 21
-1358.41011502428
 31
0.0
  0
LINE
  5
183
330
39
100
AcDbEntity
  8
1
  6
Continuous
 62
     3
100
AcDbLine
 10
-249.2798510652099
 20
-1358.23511502428
 30
0.0
 11
-249.5423510652099
 21
-1358.32261502428
 31
0.0
  0
LINE
  5
184
330
39
100
AcDbEntity
  8
1
  6
Continuous
 62
     3
100
AcDbLine
 10
-248.9298510652099
 20
-1358.06011502428
 30
0.0
 11
-249.2798510652099
 21
-1358.23511502428
 31
0.0
  0
LINE
  5
185
330
39
100
AcDbEntity
  8
1
  6
Continuous
 62
     3
100
AcDbLine
 10
-248.6673510652099
 20
-1357.79761502428
 30
0.0
 11
-248.9298510652099
 21
-1358.06011502428
 31
0.0
  0
LINE
  5
186
330
39
100
AcDbEntity
  8
1
  6
Continuous
 62
     3
100
AcDbLine
 10
-248.4048510652099
 20
-1357.44761502428
 30
0.0
 11
-248.6673510652099
 21
-1357.79761502428
 31
0.0
  0
LINE
  5
187
330
39
100
AcDbEntity
  8
1
  6
Continuous
 62
     3
100
AcDbLine
 10
-248.3173510652099
 20
-1357.18511502428
 30
0.0
 11
-248.4048510652099
 21
-1357.44761502428
 31
0.0
  0
LINE
  5
188
330
39
100
AcDbEntity
  8
1
  6
Continuous
 62
     3
100
AcDbLine
 10
-247.6173510652099
 20
-1357.18511502428
 30
0.0
 11
-248.3173510652099
 21
-1357.18511502428
 31
0.0
  0
LINE
  5
189
330
39
100
AcDbEntity
  8
1
  6
Continuous
 62
     3
100
AcDbLine
 10
-247.6173510652099
 20
-1364.18511502428
 30
0.0
 11
-247.6173510652099
 21
-1357.18511502428
 31
0.0
  0
LINE
  5
18A
330
39
100
AcDbEntity
  8
1
  6
Continuous
 62
     3
100
AcDbLine
 10
-256.1048510652099
 20
-1364.18511502428
 30
0.0
 11
-256.9798510652099
 21
-1364.18511502428
 31
0.0
  0
LINE
  5
18B
330
39
100
AcDbEntity
  8
1
  6
Continuous
 62
     3
100
AcDbLine
 10
-256.1048510652099
 20
-1358.76011502428
 30
0.0
 11
-256.1048510652099
 21
-1364.18511502428
 31
0.0
  0
LINE
  5
18C
330
39
100
AcDbEntity
  8
1
  6
Continuous
 62
     3
100
AcDbLine
 10
-252.5173510652099
 20
-1364.18511502428
 30
0.0
 11
-256.1048510652099
 21
-1358.76011502428
 31
0.0
  0
LINE
  5
18D
330
39
100
AcDbEntity
  8
1
  6
Continuous
 62
     3
100
AcDbLine
 10
-251.5548510652099
 20
-1364.18511502428
 30
0.0
 11
-252.5173510652099
 21
-1364.18511502428
 31
0.0
  0
LINE
  5
18E
330
39
100
AcDbEntity
  8
1
  6
Continuous
 62
     3
100
AcDbLine
 10
-251.5548510652099
 20
-1357.18511502428
 30
0.0
 11
-251.5548510652099
 21
-1364.18511502428
 31
0.0
  0
LINE
  5
18F
330
39
100
AcDbEntity
  8
1
  6
Continuous
 62
     3
100
AcDbLine
 10
-252.4298510652099
 20
-1357.18511502428
 30
0.0
 11
-251.5548510652099
 21
-1357.18511502428
 31
0.0
  0
LINE
  5
190
330
39
100
AcDbEntity
  8
1
  6
Continuous
 62
     3
100
AcDbLine
 10
-252.4298510652099
 20
-1362.61011502428
 30
0.0
 11
-252.4298510652099
 21
-1357.18511502428
 31
0.0
  0
LINE
  5
191
330
39
100
AcDbEntity
  8
1
  6
Continuous
 62
     3
100
AcDbLine
 10
-256.0173510652099
 20
-1357.18511502428
 30
0.0
 11
-252.4298510652099
 21
-1362.61011502428
 31
0.0
  0
LINE
  5
192
330
39
100
AcDbEntity
  8
1
  6
Continuous
 62
     3
100
AcDbLine
 10
-256.9798510652099
 20
-1357.18511502428
 30
0.0
 11
-256.0173510652099
 21
-1357.18511502428
 31
0.0
  0
LINE
  5
193
330
39
100
AcDbEntity
  8
1
  6
Continuous
 62
     3
100
AcDbLine
 10
-256.9798510652099
 20
-1364.18511502428
 30
0.0
 11
-256.9798510652099
 21
-1357.18511502428
 31
0.0
  0
LINE
  5
194
330
39
100
AcDbEntity
  8
1
  6
Continuous
 62
     3
100
AcDbLine
 10
-258.3798510652099
 20
-1359.02261502428
 30
0.0
 11
-258.3798510652099
 21
-1359.54761502428
 31
0.0
  0
LINE
  5
195
330
39
100
AcDbEntity
  8
1
  6
Continuous
 62
     3
100
AcDbLine
 10
-258.4673510652099
 20
-1358.41011502428
 30
0.0
 11
-258.3798510652099
 21
-1359.02261502428
 31
0.0
  0
LINE
  5
196
330
39
100
AcDbEntity
  8
1
  6
Continuous
 62
     3
100
AcDbLine
 10
-258.8173510652099
 20
-1357.88511502428
 30
0.0
 11
-258.4673510652099
 21
-1358.41011502428
 31
0.0
  0
LINE
  5
197
330
39
100
AcDbEntity
  8
1
  6
Continuous
 62
     3
100
AcDbLine
 10
-259.1673510652099
 20
-1357.53511502428
 30
0.0
 11
-258.8173510652099
 21
-1357.88511502428
 31
0.0
  0
LINE
  5
198
330
39
100
AcDbEntity
  8
1
  6
Continuous
 62
     3
100
AcDbLine
 10
-259.6923510652099
 20
-1357.27261502428
 30
0.0
 11
-259.1673510652099
 21
-1357.53511502428
 31
0.0
  0
LINE
  5
199
330
39
100
AcDbEntity
  8
1
  6
Continuous
 62
     3
100
AcDbLine
 10
-260.3923510652099
 20
-1357.18511502428
 30
0.0
 11
-259.6923510652099
 21
-1357.27261502428
 31
0.0
  0
LINE
  5
19A
330
39
100
AcDbEntity
  8
1
  6
Continuous
 62
     3
100
AcDbLine
 10
-263.4548510652099
 20
-1357.18511502428
 30
0.0
 11
-260.3923510652099
 21
-1357.18511502428
 31
0.0
  0
LINE
  5
19B
330
39
100
AcDbEntity
  8
1
  6
Continuous
 62
     3
100
AcDbLine
 10
-263.4548510652099
 20
-1364.18511502428
 30
0.0
 11
-263.4548510652099
 21
-1357.18511502428
 31
0.0
  0
LINE
  5
19C
330
39
100
AcDbEntity
  8
1
  6
Continuous
 62
     3
100
AcDbLine
 10
-262.49235106521
 20
-1364.18511502428
 30
0.0
 11
-263.4548510652099
 21
-1364.18511502428
 31
0.0
  0
LINE
  5
19D
330
39
100
AcDbEntity
  8
1
  6
Continuous
 62
     3
100
AcDbLine
 10
-262.49235106521
 20
-1361.38511502428
 30
0.0
 11
-262.49235106521
 21
-1364.18511502428
 31
0.0
  0
LINE
  5
19E
330
39
100
AcDbEntity
  8
1
  6
Continuous
 62
     3
100
AcDbLine
 10
-260.3923510652099
 20
-1361.38511502428
 30
0.0
 11
-262.49235106521
 21
-1361.38511502428
 31
0.0
  0
LINE
  5
19F
330
39
100
AcDbEntity
  8
1
  6
Continuous
 62
     3
100
AcDbLine
 10
-259.6923510652099
 20
-1361.29761502428
 30
0.0
 11
-260.3923510652099
 21
-1361.38511502428
 31
0.0
  0
LINE
  5
1A0
330
39
100
AcDbEntity
  8
1
  6
Continuous
 62
     3
100
AcDbLine
 10
-259.1673510652099
 20
-1361.03511502428
 30
0.0
 11
-259.6923510652099
 21
-1361.29761502428
 31
0.0
  0
LINE
  5
1A1
330
39
100
AcDbEntity
  8
1
  6
Continuous
 62
     3
100
AcDbLine
 10
-258.8173510652099
 20
-1360.68511502428
 30
0.0
 11
-259.1673510652099
 21
-1361.03511502428
 31
0.0
  0
LINE
  5
1A2
330
39
100
AcDbEntity
  8
1
  6
Continuous
 62
     3
100
AcDbLine
 10
-258.4673510652099
 20
-1360.16011502428
 30
0.0
 11
-258.8173510652099
 21
-1360.68511502428
 31
0.0
  0
LINE
  5
1A3
330
39
100
AcDbEntity
  8
1
  6
Continuous
 62
     3
100
AcDbLine
 10
-258.3798510652099
 20
-1359.54761502428
 30
0.0
 11
-258.4673510652099
 21
-1360.16011502428
 31
0.0
  0
LINE
  5
1A4
330
39
100
AcDbEntity
  8
1
  6
Continuous
 62
     3
100
AcDbLine
 10
-262.49235106521
 20
-1360.51011502428
 30
0.0
 11
-260.6548510652099
 21
-1360.51011502428
 31
0.0
  0
LINE
  5
1A5
330
39
100
AcDbEntity
  8
1
  6
Continuous
 62
     3
100
AcDbLine
 10
-262.49235106521
 20
-1358.06011502428
 30
0.0
 11
-262.49235106521
 21
-1360.51011502428
 31
0.0
  0
LINE
  5
1A6
330
39
100
AcDbEntity
  8
1
  6
Continuous
 62
     3
100
AcDbLine
 10
-260.6548510652099
 20
-1358.06011502428
 30
0.0
 11
-262.49235106521
 21
-1358.06011502428
 31
0.0
  0
LINE
  5
1A7
330
39
100
AcDbEntity
  8
1
  6
Continuous
 62
     3
100
AcDbLine
 10
-260.1298510652099
 20
-1358.14761502428
 30
0.0
 11
-260.6548510652099
 21
-1358.06011502428
 31
0.0
  0
LINE
  5
1A8
330
39
100
AcDbEntity
  8
1
  6
Continuous
 62
     3
100
AcDbLine
 10
-259.6923510652099
 20
-1358.32261502428
 30
0.0
 11
-260.1298510652099
 21
-1358.14761502428
 31
0.0
  0
LINE
  5
1A9
330
39
100
AcDbEntity
  8
1
  6
Continuous
 62
     3
100
AcDbLine
 10
-259.42985106521
 20
-1358.58511502428
 30
0.0
 11
-259.6923510652099
 21
-1358.32261502428
 31
0.0
  0
LINE
  5
1AA
330
39
100
AcDbEntity
  8
1
  6
Continuous
 62
     3
100
AcDbLine
 10
-259.2548510652099
 20
-1359.02261502428
 30
0.0
 11
-259.42985106521
 21
-1358.58511502428
 31
0.0
  0
LINE
  5
1AB
330
39
100
AcDbEntity
  8
1
  6
Continuous
 62
     3
100
AcDbLine
 10
-259.2548510652099
 20
-1359.54761502428
 30
0.0
 11
-259.2548510652099
 21
-1359.02261502428
 31
0.0
  0
LINE
  5
1AC
330
39
100
AcDbEntity
  8
1
  6
Continuous
 62
     3
100
AcDbLine
 10
-259.42985106521
 20
-1359.98511502428
 30
0.0
 11
-259.2548510652099
 21
-1359.54761502428
 31
0.0
  0
LINE
  5
1AD
330
39
100
AcDbEntity
  8
1
  6
Continuous
 62
     3
100
AcDbLine
 10
-259.6923510652099
 20
-1360.24761502428
 30
0.0
 11
-259.42985106521
 21
-1359.98511502428
 31
0.0
  0
LINE
  5
1AE
330
39
100
AcDbEntity
  8
1
  6
Continuous
 62
     3
100
AcDbLine
 10
-260.1298510652099
 20
-1360.42261502428
 30
0.0
 11
-259.6923510652099
 21
-1360.24761502428
 31
0.0
  0
LINE
  5
1AF
330
39
100
AcDbEntity
  8
1
  6
Continuous
 62
     3
100
AcDbLine
 10
-260.6548510652099
 20
-1360.51011502428
 30
0.0
 11
-260.1298510652099
 21
-1360.42261502428
 31
0.0
  0
LINE
  5
1B0
330
39
100
AcDbEntity
  8
1
  6
Continuous
 62
     3
100
AcDbLine
 10
-272.24235106521
 20
-1349.83511502428
 30
0.0
 11
-272.24235106521
 21
-1346.53511502428
 31
0.0
  0
LINE
  5
1B1
330
39
100
AcDbEntity
  8
1
  6
Continuous
 62
     3
100
AcDbLine
 10
-260.24235106521
 20
-1349.83511502428
 30
0.0
 11
-272.24235106521
 21
-1349.83511502428
 31
0.0
  0
LINE
  5
1B2
330
39
100
AcDbEntity
  8
1
  6
Continuous
 62
     3
100
AcDbLine
 10
-260.24235106521
 20
-1346.53511502428
 30
0.0
 11
-260.24235106521
 21
-1349.83511502428
 31
0.0
  0
LINE
  5
1B3
330
39
100
AcDbEntity
  8
1
  6
Continuous
 62
     3
100
AcDbLine
 10
-272.24235106521
 20
-1346.53511502428
 30
0.0
 11
-260.24235106521
 21
-1346.53511502428
 31
0.0
  0
LINE
  5
1B4
330
39
100
AcDbEntity
  8
1
  6
Continuous
 62
     3
100
AcDbLine
 10
-245.2534348024209
 20
-1346.53511502428
 30
0.0
 11
-239.2534348024209
 21
-1346.53511502428
 31
0.0
  0
LINE
  5
1B5
330
39
100
AcDbEntity
  8
1
  6
Continuous
 62
     3
100
AcDbLine
 10
-245.2534348024209
 20
-1349.83511502428
 30
0.0
 11
-245.2534348024209
 21
-1346.53511502428
 31
0.0
  0
LINE
  5
1B6
330
39
100
AcDbEntity
  8
1
  6
Continuous
 62
     3
100
AcDbLine
 10
-239.2534348024209
 20
-1349.83511502428
 30
0.0
 11
-245.2534348024209
 21
-1349.83511502428
 31
0.0
  0
LINE
  5
1B7
330
39
100
AcDbEntity
  8
1
  6
Continuous
 62
     3
100
AcDbLine
 10
-239.2534348024209
 20
-1353.18511502428
 30
0.0
 11
-239.2534348024209
 21
-1349.83511502428
 31
0.0
  0
LINE
  5
1B8
330
39
100
AcDbEntity
  8
1
  6
Continuous
 62
     3
100
AcDbLine
 10
-230.5931807645765
 20
-1348.18511502428
 30
0.0
 11
-239.2534348024209
 21
-1353.18511502428
 31
0.0
  0
LINE
  5
1B9
330
39
100
AcDbEntity
  8
1
  6
Continuous
 62
     3
100
AcDbLine
 10
-239.2534348024209
 20
-1343.18511502428
 30
0.0
 11
-230.5931807645765
 21
-1348.18511502428
 31
0.0
  0
LINE
  5
1BA
330
39
100
AcDbEntity
  8
1
  6
Continuous
 62
     3
100
AcDbLine
 10
-239.2534348024209
 20
-1346.53511502428
 30
0.0
 11
-239.2534348024209
 21
-1343.18511502428
 31
0.0
  0
LINE
  5
1BB
330
39
100
AcDbEntity
  8
1
  6
Continuous
 62
     3
100
AcDbLine
 10
-246.8670385652099
 20
-1339.18511502428
 30
0.0
 11
-251.7364135652099
 21
-1339.18511502428
 31
0.0
  0
LINE
  5
1BC
330
39
100
AcDbEntity
  8
1
  6
Continuous
 62
     3
100
AcDbLine
 10
-246.8670385652099
 20
-1338.31011502428
 30
0.0
 11
-246.8670385652099
 21
-1339.18511502428
 31
0.0
  0
LINE
  5
1BD
330
39
100
AcDbEntity
  8
1
  6
Continuous
 62
     3
100
AcDbLine
 10
-250.4501635652099
 20
-1338.31011502428
 30
0.0
 11
-246.8670385652099
 21
-1338.31011502428
 31
0.0
  0
LINE
  5
1BE
330
39
100
AcDbEntity
  8
1
  6
Continuous
 62
     3
100
AcDbLine
 10
-250.2664135652099
 20
-1337.78511502428
 30
0.0
 11
-250.4501635652099
 21
-1338.31011502428
 31
0.0
  0
LINE
  5
1BF
330
39
100
AcDbEntity
  8
1
  6
Continuous
 62
     3
100
AcDbLine
 10
-249.8070385652099
 20
-1337.17261502428
 30
0.0
 11
-250.2664135652099
 21
-1337.78511502428
 31
0.0
  0
LINE
  5
1C0
330
39
100
AcDbEntity
  8
1
  6
Continuous
 62
     3
100
AcDbLine
 10
-249.1639135652099
 20
-1336.47261502428
 30
0.0
 11
-249.8070385652099
 21
-1337.17261502428
 31
0.0
  0
LINE
  5
1C1
330
39
100
AcDbEntity
  8
1
  6
Continuous
 62
     3
100
AcDbLine
 10
-248.5207885652099
 20
-1335.94761502428
 30
0.0
 11
-249.1639135652099
 21
-1336.47261502428
 31
0.0
  0
LINE
  5
1C2
330
39
100
AcDbEntity
  8
1
  6
Continuous
 62
     3
100
AcDbLine
 10
-247.7857885652099
 20
-1335.33511502428
 30
0.0
 11
-248.5207885652099
 21
-1335.94761502428
 31
0.0
  0
LINE
  5
1C3
330
39
100
AcDbEntity
  8
1
  6
Continuous
 62
     3
100
AcDbLine
 10
-247.6020385652099
 20
-1335.16011502428
 30
0.0
 11
-247.7857885652099
 21
-1335.33511502428
 31
0.0
  0
LINE
  5
1C4
330
39
100
AcDbEntity
  8
1
  6
Continuous
 62
     3
100
AcDbLine
 10
-247.2345385652099
 20
-1334.63511502428
 30
0.0
 11
-247.6020385652099
 21
-1335.16011502428
 31
0.0
  0
LINE
  5
1C5
330
39
100
AcDbEntity
  8
1
  6
Continuous
 62
     3
100
AcDbLine
 10
-247.1426635652099
 20
-1334.19761502428
 30
0.0
 11
-247.2345385652099
 21
-1334.63511502428
 31
0.0
  0
LINE
  5
1C6
330
39
100
AcDbEntity
  8
1
  6
Continuous
 62
     3
100
AcDbLine
 10
-247.1426635652099
 20
-1333.84761502428
 30
0.0
 11
-247.1426635652099
 21
-1334.19761502428
 31
0.0
  0
LINE
  5
1C7
330
39
100
AcDbEntity
  8
1
  6
Continuous
 62
     3
100
AcDbLine
 10
-247.2345385652099
 20
-1333.41011502428
 30
0.0
 11
-247.1426635652099
 21
-1333.84761502428
 31
0.0
  0
LINE
  5
1C8
330
39
100
AcDbEntity
  8
1
  6
Continuous
 62
     3
100
AcDbLine
 10
-247.6020385652099
 20
-1332.88511502428
 30
0.0
 11
-247.2345385652099
 21
-1333.41011502428
 31
0.0
  0
LINE
  5
1C9
330
39
100
AcDbEntity
  8
1
  6
Continuous
 62
     3
100
AcDbLine
 10
-247.9695385652099
 20
-1332.53511502428
 30
0.0
 11
-247.6020385652099
 21
-1332.88511502428
 31
0.0
  0
LINE
  5
1CA
330
39
100
AcDbEntity
  8
1
  6
Continuous
 62
     3
100
AcDbLine
 10
-248.5207885652099
 20
-1332.27261502428
 30
0.0
 11
-247.9695385652099
 21
-1332.53511502428
 31
0.0
  0
LINE
  5
1CB
330
39
100
AcDbEntity
  8
1
  6
Continuous
 62
     3
100
AcDbLine
 10
-248.9801635652099
 20
-1332.18511502428
 30
0.0
 11
-248.5207885652099
 21
-1332.27261502428
 31
0.0
  0
LINE
  5
1CC
330
39
100
AcDbEntity
  8
1
  6
Continuous
 62
     3
100
AcDbLine
 10
-249.5314135652099
 20
-1332.18511502428
 30
0.0
 11
-248.9801635652099
 21
-1332.18511502428
 31
0.0
  0
LINE
  5
1CD
330
39
100
AcDbEntity
  8
1
  6
Continuous
 62
     3
100
AcDbLine
 10
-249.9907885652099
 20
-1332.27261502428
 30
0.0
 11
-249.5314135652099
 21
-1332.18511502428
 31
0.0
  0
LINE
  5
1CE
330
39
100
AcDbEntity
  8
1
  6
Continuous
 62
     3
100
AcDbLine
 10
-250.5420385652099
 20
-1332.53511502428
 30
0.0
 11
-249.9907885652099
 21
-1332.27261502428
 31
0.0
  0
LINE
  5
1CF
330
39
100
AcDbEntity
  8
1
  6
Continuous
 62
     3
100
AcDbLine
 10
-250.9095385652099
 20
-1332.88511502428
 30
0.0
 11
-250.5420385652099
 21
-1332.53511502428
 31
0.0
  0
LINE
  5
1D0
330
39
100
AcDbEntity
  8
1
  6
Continuous
 62
     3
100
AcDbLine
 10
-251.2770385652099
 20
-1333.41011502428
 30
0.0
 11
-250.9095385652099
 21
-1332.88511502428
 31
0.0
  0
LINE
  5
1D1
330
39
100
AcDbEntity
  8
1
  6
Continuous
 62
     3
100
AcDbLine
 10
-251.3689135652099
 20
-1333.84761502428
 30
0.0
 11
-251.2770385652099
 21
-1333.41011502428
 31
0.0
  0
LINE
  5
1D2
330
39
100
AcDbEntity
  8
1
  6
Continuous
 62
     3
100
AcDbLine
 10
-251.3689135652099
 20
-1334.19761502428
 30
0.0
 11
-251.3689135652099
 21
-1333.84761502428
 31
0.0
  0
LINE
  5
1D3
330
39
100
AcDbEntity
  8
1
  6
Continuous
 62
     3
100
AcDbLine
 10
-250.3582885652099
 20
-1334.19761502428
 30
0.0
 11
-251.3689135652099
 21
-1334.19761502428
 31
0.0
  0
LINE
  5
1D4
330
39
100
AcDbEntity
  8
1
  6
Continuous
 62
     3
100
AcDbLine
 10
-250.3582885652099
 20
-1333.84761502428
 30
0.0
 11
-250.3582885652099
 21
-1334.19761502428
 31
0.0
  0
LINE
  5
1D5
330
39
100
AcDbEntity
  8
1
  6
Continuous
 62
     3
100
AcDbLine
 10
-250.2664135652099
 20
-1333.58511502428
 30
0.0
 11
-250.3582885652099
 21
-1333.84761502428
 31
0.0
  0
LINE
  5
1D6
330
39
100
AcDbEntity
  8
1
  6
Continuous
 62
     3
100
AcDbLine
 10
-250.0826635652099
 20
-1333.32261502428
 30
0.0
 11
-250.2664135652099
 21
-1333.58511502428
 31
0.0
  0
LINE
  5
1D7
330
39
100
AcDbEntity
  8
1
  6
Continuous
 62
     3
100
AcDbLine
 10
-249.8070385652099
 20
-1333.14761502428
 30
0.0
 11
-250.0826635652099
 21
-1333.32261502428
 31
0.0
  0
LINE
  5
1D8
330
39
100
AcDbEntity
  8
1
  6
Continuous
 62
     3
100
AcDbLine
 10
-249.4395385652099
 20
-1333.06011502428
 30
0.0
 11
-249.8070385652099
 21
-1333.14761502428
 31
0.0
  0
LINE
  5
1D9
330
39
100
AcDbEntity
  8
1
  6
Continuous
 62
     3
100
AcDbLine
 10
-249.0720385652099
 20
-1333.06011502428
 30
0.0
 11
-249.4395385652099
 21
-1333.06011502428
 31
0.0
  0
LINE
  5
1DA
330
39
100
AcDbEntity
  8
1
  6
Continuous
 62
     3
100
AcDbLine
 10
-248.7045385652099
 20
-1333.14761502428
 30
0.0
 11
-249.0720385652099
 21
-1333.06011502428
 31
0.0
  0
LINE
  5
1DB
330
39
100
AcDbEntity
  8
1
  6
Continuous
 62
     3
100
AcDbLine
 10
-248.4289135652099
 20
-1333.32261502428
 30
0.0
 11
-248.7045385652099
 21
-1333.14761502428
 31
0.0
  0
LINE
  5
1DC
330
39
100
AcDbEntity
  8
1
  6
Continuous
 62
     3
100
AcDbLine
 10
-248.2451635652099
 20
-1333.58511502428
 30
0.0
 11
-248.4289135652099
 21
-1333.32261502428
 31
0.0
  0
LINE
  5
1DD
330
39
100
AcDbEntity
  8
1
  6
Continuous
 62
     3
100
AcDbLine
 10
-248.1532885652099
 20
-1333.84761502428
 30
0.0
 11
-248.2451635652099
 21
-1333.58511502428
 31
0.0
  0
LINE
  5
1DE
330
39
100
AcDbEntity
  8
1
  6
Continuous
 62
     3
100
AcDbLine
 10
-248.1532885652099
 20
-1334.19761502428
 30
0.0
 11
-248.1532885652099
 21
-1333.84761502428
 31
0.0
  0
LINE
  5
1DF
330
39
100
AcDbEntity
  8
1
  6
Continuous
 62
     3
100
AcDbLine
 10
-248.2451635652099
 20
-1334.46011502428
 30
0.0
 11
-248.1532885652099
 21
-1334.19761502428
 31
0.0
  0
LINE
  5
1E0
330
39
100
AcDbEntity
  8
1
  6
Continuous
 62
     3
100
AcDbLine
 10
-248.4289135652099
 20
-1334.72261502428
 30
0.0
 11
-248.2451635652099
 21
-1334.46011502428
 31
0.0
  0
LINE
  5
1E1
330
39
100
AcDbEntity
  8
1
  6
Continuous
 62
     3
100
AcDbLine
 10
-249.0720385652099
 20
-1335.33511502428
 30
0.0
 11
-248.4289135652099
 21
-1334.72261502428
 31
0.0
  0
LINE
  5
1E2
330
39
100
AcDbEntity
  8
1
  6
Continuous
 62
     3
100
AcDbLine
 10
-249.6232885652099
 20
-1335.86011502428
 30
0.0
 11
-249.0720385652099
 21
-1335.33511502428
 31
0.0
  0
LINE
  5
1E3
330
39
100
AcDbEntity
  8
1
  6
Continuous
 62
     3
100
AcDbLine
 10
-250.1745385652099
 20
-1336.29761502428
 30
0.0
 11
-249.6232885652099
 21
-1335.86011502428
 31
0.0
  0
LINE
  5
1E4
330
39
100
AcDbEntity
  8
1
  6
Continuous
 62
     3
100
AcDbLine
 10
-250.7257885652099
 20
-1336.91011502428
 30
0.0
 11
-250.1745385652099
 21
-1336.29761502428
 31
0.0
  0
LINE
  5
1E5
330
39
100
AcDbEntity
  8
1
  6
Continuous
 62
     3
100
AcDbLine
 10
-251.1851635652099
 20
-1337.43511502428
 30
0.0
 11
-250.7257885652099
 21
-1336.91011502428
 31
0.0
  0
LINE
  5
1E6
330
39
100
AcDbEntity
  8
1
  6
Continuous
 62
     3
100
AcDbLine
 10
-251.5526635652099
 20
-1338.04761502428
 30
0.0
 11
-251.1851635652099
 21
-1337.43511502428
 31
0.0
  0
LINE
  5
1E7
330
39
100
AcDbEntity
  8
1
  6
Continuous
 62
     3
100
AcDbLine
 10
-251.7364135652099
 20
-1338.66011502428
 30
0.0
 11
-251.5526635652099
 21
-1338.04761502428
 31
0.0
  0
LINE
  5
1E8
330
39
100
AcDbEntity
  8
1
  6
Continuous
 62
     3
100
AcDbLine
 10
-251.7364135652099
 20
-1339.18511502428
 30
0.0
 11
-251.7364135652099
 21
-1338.66011502428
 31
0.0
  0
LINE
  5
1E9
330
39
100
AcDbEntity
  8
1
  6
Continuous
 62
     3
100
AcDbLine
 10
-255.8707885652099
 20
-1334.98511502428
 30
0.0
 11
-255.8707885652099
 21
-1335.77261502428
 31
0.0
  0
LINE
  5
1EA
330
39
100
AcDbEntity
  8
1
  6
Continuous
 62
     3
100
AcDbLine
 10
-255.5032885652099
 20
-1334.98511502428
 30
0.0
 11
-255.8707885652099
 21
-1334.98511502428
 31
0.0
  0
LINE
  5
1EB
330
39
100
AcDbEntity
  8
1
  6
Continuous
 62
     3
100
AcDbLine
 10
-255.1357885652099
 20
-1334.89761502428
 30
0.0
 11
-255.5032885652099
 21
-1334.98511502428
 31
0.0
  0
LINE
  5
1EC
330
39
100
AcDbEntity
  8
1
  6
Continuous
 62
     3
100
AcDbLine
 10
-254.8601635652099
 20
-1334.72261502428
 30
0.0
 11
-255.1357885652099
 21
-1334.89761502428
 31
0.0
  0
LINE
  5
1ED
330
39
100
AcDbEntity
  8
1
  6
Continuous
 62
     3
100
AcDbLine
 10
-254.6764135652099
 20
-1334.46011502428
 30
0.0
 11
-254.8601635652099
 21
-1334.72261502428
 31
0.0
  0
LINE
  5
1EE
330
39
100
AcDbEntity
  8
1
  6
Continuous
 62
     3
100
AcDbLine
 10
-254.5845385652099
 20
-1334.19761502428
 30
0.0
 11
-254.6764135652099
 21
-1334.46011502428
 31
0.0
  0
LINE
  5
1EF
330
39
100
AcDbEntity
  8
1
  6
Continuous
 62
     3
100
AcDbLine
 10
-254.5845385652099
 20
-1333.84761502428
 30
0.0
 11
-254.5845385652099
 21
-1334.19761502428
 31
0.0
  0
LINE
  5
1F0
330
39
100
AcDbEntity
  8
1
  6
Continuous
 62
     3
100
AcDbLine
 10
-254.6764135652099
 20
-1333.58511502428
 30
0.0
 11
-254.5845385652099
 21
-1333.84761502428
 31
0.0
  0
LINE
  5
1F1
330
39
100
AcDbEntity
  8
1
  6
Continuous
 62
     3
100
AcDbLine
 10
-254.8601635652099
 20
-1333.32261502428
 30
0.0
 11
-254.6764135652099
 21
-1333.58511502428
 31
0.0
  0
LINE
  5
1F2
330
39
100
AcDbEntity
  8
1
  6
Continuous
 62
     3
100
AcDbLine
 10
-255.1357885652099
 20
-1333.14761502428
 30
0.0
 11
-254.8601635652099
 21
-1333.32261502428
 31
0.0
  0
LINE
  5
1F3
330
39
100
AcDbEntity
  8
1
  6
Continuous
 62
     3
100
AcDbLine
 10
-255.5032885652099
 20
-1333.06011502428
 30
0.0
 11
-255.1357885652099
 21
-1333.14761502428
 31
0.0
  0
LINE
  5
1F4
330
39
100
AcDbEntity
  8
1
  6
Continuous
 62
     3
100
AcDbLine
 10
-255.8707885652099
 20
-1333.06011502428
 30
0.0
 11
-255.5032885652099
 21
-1333.06011502428
 31
0.0
  0
LINE
  5
1F5
330
39
100
AcDbEntity
  8
1
  6
Continuous
 62
     3
100
AcDbLine
 10
-256.2382885652099
 20
-1333.14761502428
 30
0.0
 11
-255.8707885652099
 21
-1333.06011502428
 31
0.0
  0
LINE
  5
1F6
330
39
100
AcDbEntity
  8
1
  6
Continuous
 62
     3
100
AcDbLine
 10
-256.5139135652099
 20
-1333.32261502428
 30
0.0
 11
-256.2382885652099
 21
-1333.14761502428
 31
0.0
  0
LINE
  5
1F7
330
39
100
AcDbEntity
  8
1
  6
Continuous
 62
     3
100
AcDbLine
 10
-256.69766356521
 20
-1333.58511502428
 30
0.0
 11
-256.5139135652099
 21
-1333.32261502428
 31
0.0
  0
LINE
  5
1F8
330
39
100
AcDbEntity
  8
1
  6
Continuous
 62
     3
100
AcDbLine
 10
-256.7895385652099
 20
-1333.84761502428
 30
0.0
 11
-256.69766356521
 21
-1333.58511502428
 31
0.0
  0
LINE
  5
1F9
330
39
100
AcDbEntity
  8
1
  6
Continuous
 62
     3
100
AcDbLine
 10
-256.7895385652099
 20
-1334.19761502428
 30
0.0
 11
-256.7895385652099
 21
-1333.84761502428
 31
0.0
  0
LINE
  5
1FA
330
39
100
AcDbEntity
  8
1
  6
Continuous
 62
     3
100
AcDbLine
 10
-257.8001635652099
 20
-1334.19761502428
 30
0.0
 11
-256.7895385652099
 21
-1334.19761502428
 31
0.0
  0
LINE
  5
1FB
330
39
100
AcDbEntity
  8
1
  6
Continuous
 62
     3
100
AcDbLine
 10
-257.8001635652099
 20
-1333.84761502428
 30
0.0
 11
-257.8001635652099
 21
-1334.19761502428
 31
0.0
  0
LINE
  5
1FC
330
39
100
AcDbEntity
  8
1
  6
Continuous
 62
     3
100
AcDbLine
 10
-257.70828856521
 20
-1333.41011502428
 30
0.0
 11
-257.8001635652099
 21
-1333.84761502428
 31
0.0
  0
LINE
  5
1FD
330
39
100
AcDbEntity
  8
1
  6
Continuous
 62
     3
100
AcDbLine
 10
-257.3407885652099
 20
-1332.88511502428
 30
0.0
 11
-257.70828856521
 21
-1333.41011502428
 31
0.0
  0
LINE
  5
1FE
330
39
100
AcDbEntity
  8
1
  6
Continuous
 62
     3
100
AcDbLine
 10
-256.9732885652099
 20
-1332.53511502428
 30
0.0
 11
-257.3407885652099
 21
-1332.88511502428
 31
0.0
  0
LINE
  5
1FF
330
39
100
AcDbEntity
  8
1
  6
Continuous
 62
     3
100
AcDbLine
 10
-256.42203856521
 20
-1332.27261502428
 30
0.0
 11
-256.9732885652099
 21
-1332.53511502428
 31
0.0
  0
LINE
  5
200
330
39
100
AcDbEntity
  8
1
  6
Continuous
 62
     3
100
AcDbLine
 10
-255.9626635652099
 20
-1332.18511502428
 30
0.0
 11
-256.42203856521
 21
-1332.27261502428
 31
0.0
  0
LINE
  5
201
330
39
100
AcDbEntity
  8
1
  6
Continuous
 62
     3
100
AcDbLine
 10
-255.4114135652099
 20
-1332.18511502428
 30
0.0
 11
-255.9626635652099
 21
-1332.18511502428
 31
0.0
  0
LINE
  5
202
330
39
100
AcDbEntity
  8
1
  6
Continuous
 62
     3
100
AcDbLine
 10
-254.9520385652099
 20
-1332.27261502428
 30
0.0
 11
-255.4114135652099
 21
-1332.18511502428
 31
0.0
  0
LINE
  5
203
330
39
100
AcDbEntity
  8
1
  6
Continuous
 62
     3
100
AcDbLine
 10
-254.4007885652099
 20
-1332.53511502428
 30
0.0
 11
-254.9520385652099
 21
-1332.27261502428
 31
0.0
  0
LINE
  5
204
330
39
100
AcDbEntity
  8
1
  6
Continuous
 62
     3
100
AcDbLine
 10
-254.0332885652099
 20
-1332.88511502428
 30
0.0
 11
-254.4007885652099
 21
-1332.53511502428
 31
0.0
  0
LINE
  5
205
330
39
100
AcDbEntity
  8
1
  6
Continuous
 62
     3
100
AcDbLine
 10
-253.6657885652099
 20
-1333.41011502428
 30
0.0
 11
-254.0332885652099
 21
-1332.88511502428
 31
0.0
  0
LINE
  5
206
330
39
100
AcDbEntity
  8
1
  6
Continuous
 62
     3
100
AcDbLine
 10
-253.5739135652099
 20
-1333.84761502428
 30
0.0
 11
-253.6657885652099
 21
-1333.41011502428
 31
0.0
  0
LINE
  5
207
330
39
100
AcDbEntity
  8
1
  6
Continuous
 62
     3
100
AcDbLine
 10
-253.5739135652099
 20
-1334.19761502428
 30
0.0
 11
-253.5739135652099
 21
-1333.84761502428
 31
0.0
  0
LINE
  5
208
330
39
100
AcDbEntity
  8
1
  6
Continuous
 62
     3
100
AcDbLine
 10
-253.6657885652099
 20
-1334.63511502428
 30
0.0
 11
-253.5739135652099
 21
-1334.19761502428
 31
0.0
  0
LINE
  5
209
330
39
100
AcDbEntity
  8
1
  6
Continuous
 62
     3
100
AcDbLine
 10
-254.0332885652099
 20
-1335.16011502428
 30
0.0
 11
-253.6657885652099
 21
-1334.63511502428
 31
0.0
  0
LINE
  5
20A
330
39
100
AcDbEntity
  8
1
  6
Continuous
 62
     3
100
AcDbLine
 10
-254.2170385652099
 20
-1335.33511502428
 30
0.0
 11
-254.0332885652099
 21
-1335.16011502428
 31
0.0
  0
LINE
  5
20B
330
39
100
AcDbEntity
  8
1
  6
Continuous
 62
     3
100
AcDbLine
 10
-253.7576635652099
 20
-1335.68511502428
 30
0.0
 11
-254.2170385652099
 21
-1335.33511502428
 31
0.0
  0
LINE
  5
20C
330
39
100
AcDbEntity
  8
1
  6
Continuous
 62
     3
100
AcDbLine
 10
-253.3901635652099
 20
-1336.21011502428
 30
0.0
 11
-253.7576635652099
 21
-1335.68511502428
 31
0.0
  0
LINE
  5
20D
330
39
100
AcDbEntity
  8
1
  6
Continuous
 62
     3
100
AcDbLine
 10
-253.2064135652099
 20
-1336.82261502428
 30
0.0
 11
-253.3901635652099
 21
-1336.21011502428
 31
0.0
  0
LINE
  5
20E
330
39
100
AcDbEntity
  8
1
  6
Continuous
 62
     3
100
AcDbLine
 10
-253.2064135652099
 20
-1337.26011502428
 30
0.0
 11
-253.2064135652099
 21
-1336.82261502428
 31
0.0
  0
LINE
  5
20F
330
39
100
AcDbEntity
  8
1
  6
Continuous
 62
     3
100
AcDbLine
 10
-253.3901635652099
 20
-1337.87261502428
 30
0.0
 11
-253.2064135652099
 21
-1337.26011502428
 31
0.0
  0
LINE
  5
210
330
39
100
AcDbEntity
  8
1
  6
Continuous
 62
     3
100
AcDbLine
 10
-253.6657885652099
 20
-1338.31011502428
 30
0.0
 11
-253.3901635652099
 21
-1337.87261502428
 31
0.0
  0
LINE
  5
211
330
39
100
AcDbEntity
  8
1
  6
Continuous
 62
     3
100
AcDbLine
 10
-254.1251635652099
 20
-1338.74761502428
 30
0.0
 11
-253.6657885652099
 21
-1338.31011502428
 31
0.0
  0
LINE
  5
212
330
39
100
AcDbEntity
  8
1
  6
Continuous
 62
     3
100
AcDbLine
 10
-254.6764135652099
 20
-1339.01011502428
 30
0.0
 11
-254.1251635652099
 21
-1338.74761502428
 31
0.0
  0
LINE
  5
213
330
39
100
AcDbEntity
  8
1
  6
Continuous
 62
     3
100
AcDbLine
 10
-255.4114135652099
 20
-1339.18511502428
 30
0.0
 11
-254.6764135652099
 21
-1339.01011502428
 31
0.0
  0
LINE
  5
214
330
39
100
AcDbEntity
  8
1
  6
Continuous
 62
     3
100
AcDbLine
 10
-255.9626635652099
 20
-1339.18511502428
 30
0.0
 11
-255.4114135652099
 21
-1339.18511502428
 31
0.0
  0
LINE
  5
215
330
39
100
AcDbEntity
  8
1
  6
Continuous
 62
     3
100
AcDbLine
 10
-256.69766356521
 20
-1339.01011502428
 30
0.0
 11
-255.9626635652099
 21
-1339.18511502428
 31
0.0
  0
LINE
  5
216
330
39
100
AcDbEntity
  8
1
  6
Continuous
 62
     3
100
AcDbLine
 10
-257.2489135652099
 20
-1338.74761502428
 30
0.0
 11
-256.69766356521
 21
-1339.01011502428
 31
0.0
  0
LINE
  5
217
330
39
100
AcDbEntity
  8
1
  6
Continuous
 62
     3
100
AcDbLine
 10
-257.70828856521
 20
-1338.31011502428
 30
0.0
 11
-257.2489135652099
 21
-1338.74761502428
 31
0.0
  0
LINE
  5
218
330
39
100
AcDbEntity
  8
1
  6
Continuous
 62
     3
100
AcDbLine
 10
-257.98391356521
 20
-1337.87261502428
 30
0.0
 11
-257.70828856521
 21
-1338.31011502428
 31
0.0
  0
LINE
  5
219
330
39
100
AcDbEntity
  8
1
  6
Continuous
 62
     3
100
AcDbLine
 10
-258.1676635652099
 20
-1337.26011502428
 30
0.0
 11
-257.98391356521
 21
-1337.87261502428
 31
0.0
  0
LINE
  5
21A
330
39
100
AcDbEntity
  8
1
  6
Continuous
 62
     3
100
AcDbLine
 10
-258.1676635652099
 20
-1336.82261502428
 30
0.0
 11
-258.1676635652099
 21
-1337.26011502428
 31
0.0
  0
LINE
  5
21B
330
39
100
AcDbEntity
  8
1
  6
Continuous
 62
     3
100
AcDbLine
 10
-257.0651635652099
 20
-1336.82261502428
 30
0.0
 11
-258.1676635652099
 21
-1336.82261502428
 31
0.0
  0
LINE
  5
21C
330
39
100
AcDbEntity
  8
1
  6
Continuous
 62
     3
100
AcDbLine
 10
-257.0651635652099
 20
-1337.17261502428
 30
0.0
 11
-257.0651635652099
 21
-1336.82261502428
 31
0.0
  0
LINE
  5
21D
330
39
100
AcDbEntity
  8
1
  6
Continuous
 62
     3
100
AcDbLine
 10
-256.9732885652099
 20
-1337.52261502428
 30
0.0
 11
-257.0651635652099
 21
-1337.17261502428
 31
0.0
  0
LINE
  5
21E
330
39
100
AcDbEntity
  8
1
  6
Continuous
 62
     3
100
AcDbLine
 10
-256.69766356521
 20
-1337.87261502428
 30
0.0
 11
-256.9732885652099
 21
-1337.52261502428
 31
0.0
  0
LINE
  5
21F
330
39
100
AcDbEntity
  8
1
  6
Continuous
 62
     3
100
AcDbLine
 10
-256.3301635652099
 20
-1338.13511502428
 30
0.0
 11
-256.69766356521
 21
-1337.87261502428
 31
0.0
  0
LINE
  5
220
330
39
100
AcDbEntity
  8
1
  6
Continuous
 62
     3
100
AcDbLine
 10
-255.8707885652099
 20
-1338.22261502428
 30
0.0
 11
-256.3301635652099
 21
-1338.13511502428
 31
0.0
  0
LINE
  5
221
330
39
100
AcDbEntity
  8
1
  6
Continuous
 62
     3
100
AcDbLine
 10
-255.5032885652099
 20
-1338.22261502428
 30
0.0
 11
-255.8707885652099
 21
-1338.22261502428
 31
0.0
  0
LINE
  5
222
330
39
100
AcDbEntity
  8
1
  6
Continuous
 62
     3
100
AcDbLine
 10
-255.0439135652099
 20
-1338.13511502428
 30
0.0
 11
-255.5032885652099
 21
-1338.22261502428
 31
0.0
  0
LINE
  5
223
330
39
100
AcDbEntity
  8
1
  6
Continuous
 62
     3
100
AcDbLine
 10
-254.6764135652099
 20
-1337.87261502428
 30
0.0
 11
-255.0439135652099
 21
-1338.13511502428
 31
0.0
  0
LINE
  5
224
330
39
100
AcDbEntity
  8
1
  6
Continuous
 62
     3
100
AcDbLine
 10
-254.4007885652099
 20
-1337.52261502428
 30
0.0
 11
-254.6764135652099
 21
-1337.87261502428
 31
0.0
  0
LINE
  5
225
330
39
100
AcDbEntity
  8
1
  6
Continuous
 62
     3
100
AcDbLine
 10
-254.3089135652099
 20
-1337.17261502428
 30
0.0
 11
-254.4007885652099
 21
-1337.52261502428
 31
0.0
  0
LINE
  5
226
330
39
100
AcDbEntity
  8
1
  6
Continuous
 62
     3
100
AcDbLine
 10
-254.3089135652099
 20
-1336.82261502428
 30
0.0
 11
-254.3089135652099
 21
-1337.17261502428
 31
0.0
  0
LINE
  5
227
330
39
100
AcDbEntity
  8
1
  6
Continuous
 62
     3
100
AcDbLine
 10
-254.4007885652099
 20
-1336.47261502428
 30
0.0
 11
-254.3089135652099
 21
-1336.82261502428
 31
0.0
  0
LINE
  5
228
330
39
100
AcDbEntity
  8
1
  6
Continuous
 62
     3
100
AcDbLine
 10
-254.6764135652099
 20
-1336.12261502428
 30
0.0
 11
-254.4007885652099
 21
-1336.47261502428
 31
0.0
  0
LINE
  5
229
330
39
100
AcDbEntity
  8
1
  6
Continuous
 62
     3
100
AcDbLine
 10
-255.0439135652099
 20
-1335.86011502428
 30
0.0
 11
-254.6764135652099
 21
-1336.12261502428
 31
0.0
  0
LINE
  5
22A
330
39
100
AcDbEntity
  8
1
  6
Continuous
 62
     3
100
AcDbLine
 10
-255.5032885652099
 20
-1335.77261502428
 30
0.0
 11
-255.0439135652099
 21
-1335.86011502428
 31
0.0
  0
LINE
  5
22B
330
39
100
AcDbEntity
  8
1
  6
Continuous
 62
     3
100
AcDbLine
 10
-255.8707885652099
 20
-1335.77261502428
 30
0.0
 11
-255.5032885652099
 21
-1335.77261502428
 31
0.0
  0
LINE
  5
22C
330
39
100
AcDbEntity
  8
1
  6
Continuous
 62
     3
100
AcDbLine
 10
-254.6334919599481
 20
-1348.18511502428
 30
0.0
 11
-254.0018254160455
 21
-1348.18511502428
 31
0.0
  0
LINE
  5
22D
330
39
100
AcDbEntity
  8
1
  6
Continuous
 62
     3
100
AcDbLine
 10
-251.0002071256367
 20
-1345.183496733871
 30
0.0
 11
-251.0002071256367
 21
-1342.18511502428
 31
0.0
  0
LINE
  5
22E
330
39
100
AcDbEntity
  8
1
  6
Continuous
 62
     3
100
AcDbLine
 10
-254.6334919599481
 20
-1348.18511502428
 30
0.0
 11
-260.24235106521
 21
-1354.18511502428
 31
0.0
  0
LINE
  5
22F
330
39
100
AcDbEntity
  8
1
  6
Continuous
 62
     3
100
AcDbLine
 10
-260.24235106521
 20
-1354.18511502428
 30
0.0
 11
-254.6334919599481
 21
-1354.18511502428
 31
0.0
  0
LINE
  5
230
330
39
100
AcDbEntity
  8
1
  6
Continuous
 62
     3
100
AcDbLine
 10
-251.0002071256367
 20
-1342.18511502428
 30
0.0
 11
-245.2534348024209
 21
-1342.18511502428
 31
0.0
  0
LINE
  5
231
330
39
100
AcDbEntity
  8
1
  6
Continuous
 62
     3
100
AcDbLine
 10
-245.2534348024209
 20
-1342.18511502428
 30
0.0
 11
-254.6334919599481
 21
-1354.18511502428
 31
0.0
  0
LINE
  5
232
330
39
100
AcDbEntity
  8
1
  6
Continuous
 62
     3
100
AcDbLine
 10
-254.6334919599481
 20
-1342.18511502428
 30
0.0
 11
-254.6334919599481
 21
-1347.863256914388
 31
0.0
  0
LINE
  5
233
330
39
100
AcDbEntity
  8
1
  6
Continuous
 62
     3
100
AcDbLine
 10
-229.5173510652099
 20
-1375.18511502428
 30
0.0
 11
-229.5173510652099
 21
-1348.18511502428
 31
0.0
  0
LINE
  5
234
330
39
100
AcDbEntity
  8
1
  6
Continuous
 62
     3
100
AcDbLine
 10
-228.5173510652099
 20
-1348.18511502428
 30
0.0
 11
-228.5173510652099
 21
-1376.68511502428
 31
0.0
  0
LINE
  5
235
330
39
100
AcDbEntity
  8
1
  6
Continuous
 62
     3
100
AcDbLine
 10
-228.5173510652099
 20
-1319.68511502428
 30
0.0
 11
-228.5173510652099
 21
-1348.18511502428
 31
0.0
  0
LINE
  5
236
330
39
100
AcDbEntity
  8
1
  6
Continuous
 62
     3
100
AcDbLine
 10
-229.5173510652099
 20
-1320.68511502428
 30
0.0
 11
-229.5173510652099
 21
-1348.18511502428
 31
0.0
  0
LINE
  5
237
330
39
100
AcDbEntity
  8
1
  6
Continuous
 62
     3
100
AcDbLine
 10
-240.8391137734669
 20
-1319.815641351586
 30
0.0
 11
-249.0846497876422
 21
-1319.815641351586
 31
0.0
  0
LINE
  5
238
330
39
100
AcDbEntity
  8
1
  6
Continuous
 62
     3
100
AcDbLine
 10
-256.1126474522553
 20
-1319.933562897318
 30
0.0
 11
-263.1126474522553
 21
-1320.933562897318
 31
0.0
  0
LINE
  5
239
330
39
100
AcDbEntity
  8
1
  6
Continuous
 62
     3
100
AcDbLine
 10
-251.0173510652099
 20
-1307.18511502428
 30
0.0
 11
-251.0173510652099
 21
-1319.68511502428
 31
0.0
  0
LINE
  5
23A
330
39
100
AcDbEntity
  8
1
  6
Continuous
 62
     3
100
AcDbLine
 10
-254.0173510652099
 20
-1307.18511502428
 30
0.0
 11
-254.0173510652099
 21
-1319.68511502428
 31
0.0
  0
LINE
  5
23B
330
39
100
AcDbEntity
  8
1
  6
Continuous
 62
     3
100
AcDbLine
 10
-280.0173510652099
 20
-1348.18511502428
 30
0.0
 11
-280.0173510652099
 21
-1373.18511502428
 31
0.0
  0
LINE
  5
23C
330
39
100
AcDbEntity
  8
1
  6
Continuous
 62
     3
100
AcDbLine
 10
-280.0173510652099
 20
-1323.18511502428
 30
0.0
 11
-280.0173510652099
 21
-1348.18511502428
 31
0.0
  0
LINE
  5
23D
330
39
100
AcDbEntity
  8
1
  6
Continuous
 62
     3
100
AcDbLine
 10
-332.329225823906
 20
-1348.18511502428
 30
0.0
 11
-332.329225823906
 21
-1358.383154051466
 31
0.0
  0
LINE
  5
23E
330
39
100
AcDbEntity
  8
1
  6
DOT_CENTER
 62
     1
100
AcDbLine
 10
-357.329225823906
 20
-1275.96065769834
 30
0.0
 11
-357.329225823906
 21
-1379.18511502428
 31
0.0
  0
LINE
  5
23F
330
39
100
AcDbEntity
  8
1
  6
Continuous
 62
     3
100
AcDbLine
 10
-378.6609866902339
 20
-1331.633499443262
 30
0.0
 11
-360.9974649575781
 21
-1321.435460416076
 31
0.0
  0
LINE
  5
240
330
39
100
AcDbEntity
  8
1
  6
Continuous
 62
     3
100
AcDbLine
 10
-353.6609866902338
 20
-1321.435460416076
 30
0.0
 11
-335.9974649575781
 21
-1331.633499443262
 31
0.0
  0
LINE
  5
241
330
39
100
AcDbEntity
  8
1
  6
Continuous
 62
     3
100
AcDbLine
 10
-335.9974649575781
 20
-1364.736730605298
 30
0.0
 11
-353.6609866902339
 21
-1374.934769632484
 31
0.0
  0
LINE
  5
242
330
39
100
AcDbEntity
  8
1
  6
Continuous
 62
     3
100
AcDbLine
 10
-360.9974649575781
 20
-1374.934769632484
 30
0.0
 11
-378.6609866902339
 21
-1364.736730605298
 31
0.0
  0
LINE
  5
243
330
39
100
AcDbEntity
  8
1
  6
Continuous
 62
     3
100
AcDbLine
 10
-332.329225823906
 20
-1337.987075997095
 30
0.0
 11
-332.329225823906
 21
-1348.18511502428
 31
0.0
  0
LINE
  5
244
330
39
100
AcDbEntity
  8
1
  6
Continuous
 62
     3
100
AcDbLine
 10
-382.329225823906
 20
-1337.987075997095
 30
0.0
 11
-382.329225823906
 21
-1358.383154051466
 31
0.0
  0
LINE
  5
245
330
39
100
AcDbEntity
  8
1
  6
DOT_CENTER
 62
     1
100
AcDbLine
 10
-386.329225823906
 20
-1348.18511502428
 30
0.0
 11
-328.329225823906
 21
-1348.18511502428
 31
0.0
  0
LINE
  5
246
330
39
100
AcDbEntity
  8
1
  6
Continuous
 62
     3
100
AcDbLine
 10
-353.6609866902339
 20
-1374.934769632484
 30
0.0
 11
-354.0945976282657
 21
-1375.18511502428
 31
0.0
  0
LINE
  5
247
330
39
100
AcDbEntity
  8
1
  6
Continuous
 62
     3
100
AcDbLine
 10
-230.51735106521
 20
-1279.68511502428
 30
0.0
 11
-232.5173510652099
 21
-1279.68511502428
 31
0.0
  0
LINE
  5
248
330
39
100
AcDbEntity
  8
1
  6
Continuous
 62
     3
100
AcDbLine
 10
-233.5173510652099
 20
-1284.18511502428
 30
0.0
 11
-232.51735106521
 21
-1284.18511502428
 31
0.0
  0
LINE
  5
249
330
39
100
AcDbEntity
  8
1
  6
Continuous
 62
     3
100
AcDbLine
 10
-230.51735106521
 20
-1282.18511502428
 30
0.0
 11
-230.51735106521
 21
-1279.68511502428
 31
0.0
  0
LINE
  5
24A
330
39
100
AcDbEntity
  8
1
  6
Continuous
 62
     3
100
AcDbLine
 10
-232.5173510652099
 20
-1283.18511502428
 30
0.0
 11
-232.5173510652099
 21
-1279.68511502428
 31
0.0
  0
LINE
  5
24B
330
39
100
AcDbEntity
  8
1
  6
Continuous
 62
     3
100
AcDbLine
 10
-238.5173510652099
 20
-1291.68511502428
 30
0.0
 11
-238.5173510652099
 21
-1287.18511502428
 31
0.0
  0
LINE
  5
24C
330
39
100
AcDbEntity
  8
1
  6
Continuous
 62
     3
100
AcDbLine
 10
-266.5173510652099
 20
-1287.18511502428
 30
0.0
 11
-266.5173510652099
 21
-1291.68511502428
 31
0.0
  0
LINE
  5
24D
330
39
100
AcDbEntity
  8
1
  6
Continuous
 62
     3
100
AcDbLine
 10
-272.5173510652099
 20
-1279.68511502428
 30
0.0
 11
-272.5173510652099
 21
-1283.18511502428
 31
0.0
  0
LINE
  5
24E
330
39
100
AcDbEntity
  8
1
  6
Continuous
 62
     3
100
AcDbLine
 10
-264.8188879612803
 20
-1307.013580837366
 30
0.0
 11
-269.8713898691206
 21
-1320.895215740909
 31
0.0
  0
LINE
  5
24F
330
39
100
AcDbEntity
  8
1
  6
Continuous
 62
     3
100
AcDbLine
 10
-240.2158141691395
 20
-1307.013580837366
 30
0.0
 11
-236.437208081231
 21
-1317.395215740909
 31
0.0
  0
LINE
  5
250
330
39
100
AcDbEntity
  8
1
  6
Continuous
 62
     3
100
AcDbLine
 10
-228.5173510652099
 20
-1376.68511502428
 30
0.0
 11
-223.5173510652099
 21
-1376.68511502428
 31
0.0
  0
LINE
  5
251
330
39
100
AcDbEntity
  8
1
  6
Continuous
 62
     3
100
AcDbLine
 10
-229.5173510652099
 20
-1375.68511502428
 30
0.0
 11
-228.5173510652099
 21
-1376.68511502428
 31
0.0
  0
LINE
  5
252
330
39
100
AcDbEntity
  8
1
  6
Continuous
 62
     3
100
AcDbLine
 10
-252.5173510652099
 20
-1375.68511502428
 30
0.0
 11
-229.5173510652099
 21
-1375.68511502428
 31
0.0
  0
LINE
  5
253
330
39
100
AcDbEntity
  8
1
  6
Continuous
 62
     3
100
AcDbLine
 10
-272.2720973303484
 20
-1372.18511502428
 30
0.0
 11
-275.9455542954855
 21
-1372.18511502428
 31
0.0
  0
LINE
  5
254
330
39
100
AcDbEntity
  8
1
  6
Continuous
 62
     3
100
AcDbLine
 10
-264.5173510652099
 20
-1295.149216639418
 30
0.0
 11
-264.5173510652099
 21
-1318.255614753478
 31
0.0
  0
LINE
  5
255
330
39
100
AcDbEntity
  8
1
  6
Continuous
 62
     3
100
AcDbLine
 10
-223.5173510652099
 20
-1319.68511502428
 30
0.0
 11
-228.5173510652099
 21
-1319.68511502428
 31
0.0
  0
LINE
  5
256
330
39
100
AcDbEntity
  8
1
  6
Continuous
 62
     3
100
AcDbLine
 10
-228.5173510652099
 20
-1319.68511502428
 30
0.0
 11
-229.5173510652099
 21
-1320.68511502428
 31
0.0
  0
LINE
  5
257
330
39
100
AcDbEntity
  8
1
  6
Continuous
 62
     3
100
AcDbLine
 10
-229.5173510652099
 20
-1320.68511502428
 30
0.0
 11
-235.5173510652097
 21
-1320.68511502428
 31
0.0
  0
LINE
  5
258
330
39
100
AcDbEntity
  8
1
  6
Continuous
 62
     3
100
AcDbLine
 10
-282.4814526803476
 20
-1321.18511502428
 30
0.0
 11
-278.4455542954855
 21
-1323.515242043202
 31
0.0
  0
LINE
  5
259
330
39
100
AcDbEntity
  8
1
  6
Continuous
 62
     3
100
AcDbLine
 10
-275.9455542954855
 20
-1324.18511502428
 30
0.0
 11
-272.2720973303484
 21
-1324.18511502428
 31
0.0
  0
LINE
  5
25A
330
39
100
AcDbEntity
  8
1
  6
Continuous
 62
     3
100
AcDbLine
 10
-298.8626505268308
 20
-1375.18511502428
 30
0.0
 11
-281.8736470786942
 21
-1375.18511502428
 31
0.0
  0
LINE
  5
25B
330
39
100
AcDbEntity
  8
1
  6
DOT_CENTER
 62
     1
100
AcDbLine
 10
-222.5173510652099
 20
-1348.18511502428
 30
0.0
 11
-304.0173510652099
 21
-1348.18511502428
 31
0.0
  0
LINE
  5
25C
330
39
100
AcDbEntity
  8
1
  6
DOT_CENTER
 62
     1
100
AcDbLine
 10
-252.5173510652099
 20
-1276.18511502428
 30
0.0
 11
-252.5173510652099
 21
-1378.68511502428
 31
0.0
  0
LINE
  5
25D
330
39
100
AcDbEntity
  8
1
  6
Continuous
 62
     3
100
AcDbLine
 10
-281.8736470786942
 20
-1375.18511502428
 30
0.0
 11
-279.0173510652099
 21
-1373.18511502428
 31
0.0
  0
LINE
  5
25E
330
39
100
AcDbEntity
  8
1
  6
Continuous
 62
     3
100
AcDbLine
 10
-298.8626505268308
 20
-1321.18511502428
 30
0.0
 11
-282.4814526803476
 21
-1321.18511502428
 31
0.0
  0
LINE
  5
25F
330
39
100
AcDbEntity
  8
1
  6
Continuous
 62
     3
100
AcDbLine
 10
-300.0173510652099
 20
-1323.18511502428
 30
0.0
 11
-300.0173510652099
 21
-1373.18511502428
 31
0.0
  0
LINE
  5
260
330
39
100
AcDbEntity
  8
1
  6
Continuous
 62
     3
100
AcDbLine
 10
-298.8626505268308
 20
-1321.18511502428
 30
0.0
 11
-300.0173510652099
 21
-1323.18511502428
 31
0.0
  0
LINE
  5
261
330
39
100
AcDbEntity
  8
1
  6
Continuous
 62
     3
100
AcDbLine
 10
-300.0173510652099
 20
-1373.18511502428
 30
0.0
 11
-298.8626505268308
 21
-1375.18511502428
 31
0.0
  0
LINE
  5
262
330
39
100
AcDbEntity
  8
1
  6
Continuous
 62
     3
100
AcDbLine
 10
-223.5173510652099
 20
-1320.18511502428
 30
0.0
 11
-223.5173510652099
 21
-1321.93511502428
 31
0.0
  0
LINE
  5
263
330
39
100
AcDbEntity
  8
1
  6
Continuous
 62
     3
100
AcDbLine
 10
-223.5173510652099
 20
-1319.68511502428
 30
0.0
 11
-223.5173510652099
 21
-1376.68511502428
 31
0.0
  0
LINE
  5
264
330
39
100
AcDbEntity
  8
1
  6
Continuous
 62
     3
100
AcDbLine
 10
-265.5173510652099
 20
-1279.68511502428
 30
0.0
 11
-239.5173510652099
 21
-1279.68511502428
 31
0.0
  0
LINE
  5
265
330
39
100
AcDbEntity
  8
1
  6
Continuous
 62
     3
100
AcDbLine
 10
-232.5173510652099
 20
-1279.68511502428
 30
0.0
 11
-239.5173510652099
 21
-1279.68511502428
 31
0.0
  0
LINE
  5
266
330
39
100
AcDbEntity
  8
1
  6
Continuous
 62
     3
100
AcDbLine
 10
-272.5173510652099
 20
-1279.68511502428
 30
0.0
 11
-265.5173510652099
 21
-1279.68511502428
 31
0.0
  0
LINE
  5
267
330
39
100
AcDbEntity
  8
1
  6
Continuous
 62
     3
100
AcDbLine
 10
-235.7476550581252
 20
-1284.18511502428
 30
0.0
 11
-233.5173510652099
 21
-1284.18511502428
 31
0.0
  0
LINE
  5
268
330
39
100
AcDbEntity
  8
1
  6
Continuous
 62
     3
100
AcDbLine
 10
-271.5173510652099
 20
-1284.18511502428
 30
0.0
 11
-269.2870470722946
 21
-1284.18511502428
 31
0.0
  0
LINE
  5
269
330
39
100
AcDbEntity
  8
1
  6
Continuous
 62
     3
100
AcDbLine
 10
-240.5173510652099
 20
-1315.68511502428
 30
0.0
 11
-240.5173510652099
 21
-1295.149216639418
 31
0.0
  0
ARC
  5
26A
330
39
100
AcDbEntity
  8
1
  6
Continuous
 62
     3
100
AcDbCircle
 10
-32.01735106520988
 20
-1323.18511502428
 30
0.0
 40
52.5
100
AcDbArc
 50
-90.0
 51
-69.90603333372214
  0
ARC
  5
26B
330
39
100
AcDbEntity
  8
1
  6
Continuous
 62
     3
100
AcDbCircle
 10
-32.01735106520988
 20
-1323.18511502428
 30
0.0
 40
52.49999999999954
100
AcDbArc
 50
-74.87833468509086
 51
-69.90603333372214
  0
ARC
  5
26C
330
39
100
AcDbEntity
  8
1
  6
Continuous
 62
     3
100
AcDbCircle
 10
-32.01735106520988
 20
-1373.18511502428
 30
0.0
 40
52.50000000000004
100
AcDbArc
 50
69.90603333372214
 51
72.80335131374054
  0
ARC
  5
26D
330
39
100
AcDbEntity
  8
1
  6
Continuous
 62
     3
100
AcDbCircle
 10
23.48264893479015
 20
-1348.18511502428
 30
0.0
 40
28.00000000000005
100
AcDbArc
 50
144.6498728594598
 51
180.0
  0
ARC
  5
26E
330
39
100
AcDbEntity
  8
1
  6
Continuous
 62
     3
100
AcDbCircle
 10
23.48264893479015
 20
-1348.18511502428
 30
0.0
 40
28.0
100
AcDbArc
 50
180.0
 51
-144.6498728594602
  0
ARC
  5
26F
330
39
100
AcDbEntity
  8
1
  6
Continuous
 62
     3
100
AcDbCircle
 10
-12.51735106520985
 20
-1348.18511502428
 30
0.0
 40
28.0
100
AcDbArc
 50
0.0
 51
35.3501271405402
  0
ARC
  5
270
330
39
100
AcDbEntity
  8
1
  6
Continuous
 62
     3
100
AcDbCircle
 10
-12.51735106520985
 20
-1348.18511502428
 30
0.0
 40
27.99999999999992
100
AcDbArc
 50
-35.35012714053982
 51
0.0
  0
ARC
  5
271
330
39
100
AcDbEntity
  8
1
  6
Continuous
 62
     3
100
AcDbCircle
 10
-125.5173510652099
 20
-1320.485837055351
 30
0.0
 40
5.000000000000014
100
AcDbArc
 50
180.0
 51
-155.6764657913506
  0
ARC
  5
272
330
39
100
AcDbEntity
  8
1
  6
Continuous
 62
     3
100
AcDbCircle
 10
-159.5173510652099
 20
-1320.485837055351
 30
0.0
 40
4.99999999999982
100
AcDbArc
 50
-24.32353420864943
 51
0.0
  0
ARC
  5
273
330
39
100
AcDbEntity
  8
1
  6
Continuous
 62
     3
100
AcDbCircle
 10
-357.329225823906
 20
-1348.18511502428
 30
0.0
 40
27.50000000000018
100
AcDbArc
 50
58.46112734646619
 51
121.5388726535339
  0
ARC
  5
274
330
39
100
AcDbEntity
  8
1
  6
Continuous
 62
     3
100
AcDbCircle
 10
-374.329225823906
 20
-1320.485837055351
 30
0.0
 40
4.999999999999703
100
AcDbArc
 50
-58.4611273464642
 51
0.0
  0
ARC
  5
275
330
39
100
AcDbEntity
  8
1
  6
Continuous
 62
     3
100
AcDbCircle
 10
-357.329225823906
 20
-1348.18511502428
 30
0.0
 40
27.50000000000021
100
AcDbArc
 50
121.5388726535339
 51
180.0
  0
ARC
  5
276
330
39
100
AcDbEntity
  8
1
  6
Continuous
 62
     3
100
AcDbCircle
 10
-357.329225823906
 20
-1348.18511502428
 30
0.0
 40
27.5
100
AcDbArc
 50
180.0
 51
58.46112734646619
  0
ARC
  5
277
330
39
100
AcDbEntity
  8
1
  6
Continuous
 62
     3
100
AcDbCircle
 10
-340.329225823906
 20
-1320.485837055351
 30
0.0
 40
5.0
100
AcDbArc
 50
180.0
 51
-121.5388726535364
  0
ARC
  5
278
330
39
100
AcDbEntity
  8
1
  6
Continuous
 62
     3
100
AcDbCircle
 10
-272.0173510652099
 20
-1348.18511502428
 30
0.0
 40
28.0
100
AcDbArc
 50
180.0
 51
-144.6498728594603
  0
ARC
  5
279
330
39
100
AcDbEntity
  8
1
  6
Continuous
 62
     3
100
AcDbCircle
 10
-272.0173510652099
 20
-1348.18511502428
 30
0.0
 40
28.00000000000014
100
AcDbArc
 50
144.6498728594599
 51
180.0
  0
ARC
  5
27A
330
39
100
AcDbEntity
  8
1
  6
Continuous
 62
     3
100
AcDbCircle
 10
-308.0173510652099
 20
-1348.18511502428
 30
0.0
 40
27.99999999999987
100
AcDbArc
 50
-35.35012714053989
 51
0.0
  0
ARC
  5
27B
330
39
100
AcDbEntity
  8
1
  6
Continuous
 62
     3
100
AcDbCircle
 10
-308.0173510652099
 20
-1348.18511502428
 30
0.0
 40
28.0
100
AcDbArc
 50
0.0
 51
35.35012714054027
  0
ARC
  5
27C
330
39
100
AcDbEntity
  8
1
  6
Continuous
 62
     3
100
AcDbCircle
 10
-357.329225823906
 20
-1348.18511502428
 30
0.0
 40
26.99999999999984
100
AcDbArc
 50
22.19160656627193
 51
37.80839343372691
  0
ARC
  5
27D
330
39
100
AcDbEntity
  8
1
  6
Continuous
 62
     3
100
AcDbCircle
 10
-357.329225823906
 20
-1348.18511502428
 30
0.0
 40
27.00000000000009
100
AcDbArc
 50
-157.8083934337267
 51
-142.1916065662736
  0
ARC
  5
27E
330
39
100
AcDbEntity
  8
1
  6
Continuous
 62
     3
100
AcDbCircle
 10
-357.329225823906
 20
-1348.18511502428
 30
0.0
 40
26.99999999999982
100
AcDbArc
 50
-37.80839343372653
 51
-22.19160656627327
  0
ARC
  5
27F
330
39
100
AcDbEntity
  8
1
  6
Continuous
 62
     3
100
AcDbCircle
 10
-357.329225823906
 20
-1348.18511502428
 30
0.0
 40
27.0
100
AcDbArc
 50
142.1916065662732
 51
157.8083934337281
  0
ARC
  5
280
330
39
100
AcDbEntity
  8
1
  6
Continuous
 62
     3
100
AcDbCircle
 10
-357.329225823906
 20
-1348.18511502428
 30
0.0
 40
27.0000000000001
100
AcDbArc
 50
-97.80839343372708
 51
-82.19160656627305
  0
ARC
  5
281
330
39
100
AcDbEntity
  8
1
  6
Continuous
 62
     3
100
AcDbCircle
 10
-357.329225823906
 20
-1348.18511502428
 30
0.0
 40
27.00000000000033
100
AcDbArc
 50
82.19160656627287
 51
97.80839343372702
  0
ARC
  5
282
330
39
100
AcDbEntity
  8
1
  6
Continuous
 62
     3
100
AcDbCircle
 10
-252.5173510652099
 20
-1373.18511502428
 30
0.0
 40
52.50000000000001
100
AcDbArc
 50
107.1966486862595
 51
110.0939666662779
  0
ARC
  5
283
330
39
100
AcDbEntity
  8
1
  6
Continuous
 62
     3
100
AcDbCircle
 10
-252.5173510652099
 20
-1323.18511502428
 30
0.0
 40
52.50000000000004
100
AcDbArc
 50
-110.0939666662779
 51
-105.1216653149091
  0
ARC
  5
284
330
39
100
AcDbEntity
  8
1
  6
Continuous
 62
     3
100
AcDbCircle
 10
-252.5173510652099
 20
-1323.18511502428
 30
0.0
 40
52.50000000000004
100
AcDbArc
 50
-110.0939666662779
 51
-90.0
  0
CIRCLE
  5
285
330
39
100
AcDbEntity
  8
1
  6
Continuous
 62
     3
100
AcDbCircle
 10
-357.329225823906
 20
-1348.18511502428
 30
0.0
 40
25.0
  0
CIRCLE
  5
286
330
39
100
AcDbEntity
  8
1
  6
Continuous
 62
     1
100
AcDbCircle
 10
-357.329225823906
 20
-1348.18511502428
 30
0.0
 40
20.95300000000009
  0
CIRCLE
  5
287
330
39
100
AcDbEntity
  8
1
  6
Continuous
 62
     3
100
AcDbCircle
 10
-357.329225823906
 20
-1348.18511502428
 30
0.0
 40
19.476
  0
SPLINE
  5
288
330
39
100
AcDbEntity
  8
1
  6
Continuous
 62
     3
100
AcDbSpline
210
0.0
220
0.0
230
1.0
 70
     8
 71
     3
 72
     9
 73
     5
 74
     3
 42
0.0000000001
 43
0.0000000001
 44
0.00000001
 40
0.0
 40
0.0
 40
0.0
 40
0.0
 40
4.647606554829244
 40
8.089333814665393
 40
8.089333814665393
 40
8.089333814665393
 40
8.089333814665393
 10
0.6449607855925308
 20
-1331.98511502428
 30
0.0
 10
-0.6708649016990336
 20
-1331.092265160782
 30
0.0
 10
-2.961108944700658
 20
-1329.538226429876
 30
0.0
 10
-4.05285253428913
 20
-1327.018185507679
 30
0.0
 10
-4.517351065209681
 20
-1325.945996655476
 30
0.0
 11
0.6449607855925308
 21
-1331.98511502428
 31
0.0
 11
-2.906902506787588
 21
-1328.987697162064
 31
0.0
 11
-4.517351065209681
 21
-1325.945996655476
 31
0.0
  0
SPLINE
  5
289
330
39
100
AcDbEntity
  8
1
  6
Continuous
 62
     3
100
AcDbSpline
210
0.0
220
0.0
230
1.0
 70
     8
 71
     3
 72
     9
 73
     5
 74
     3
 42
0.0000000001
 43
0.0000000001
 44
0.00000001
 40
0.0
 40
0.0
 40
0.0
 40
0.0
 40
4.647606554829538
 40
8.089333814666087
 40
8.089333814666087
 40
8.089333814666087
 40
8.089333814666087
 10
0.6449607855925308
 20
-1364.38511502428
 30
0.0
 10
-0.6708649016990411
 20
-1365.277964887779
 30
0.0
 10
-2.961108944700732
 20
-1366.832003618685
 30
0.0
 10
-4.052852534289142
 20
-1369.352044540883
 30
0.0
 10
-4.517351065209681
 20
-1370.424233393085
 30
0.0
 11
0.6449607855925308
 21
-1364.38511502428
 31
0.0
 11
-2.906902506787588
 21
-1367.382532886497
 31
0.0
 11
-4.517351065209681
 21
-1370.424233393085
 31
0.0
  0
SPLINE
  5
28A
330
39
100
AcDbEntity
  8
1
  6
Continuous
 62
     3
100
AcDbSpline
210
0.0
220
0.0
230
1.0
 70
     8
 71
     3
 72
     9
 73
     5
 74
     3
 42
0.0000000001
 43
0.0000000001
 44
0.00000001
 40
0.0
 40
0.0
 40
0.0
 40
0.0
 40
4.647606554829536
 40
8.089333814666087
 40
8.089333814666087
 40
8.089333814666087
 40
8.089333814666087
 10
10.32033708398777
 20
-1364.38511502428
 30
0.0
 10
11.63616277127934
 20
-1365.277964887778
 30
0.0
 10
13.92640681428103
 20
-1366.832003618685
 30
0.0
 10
15.01815040386944
 20
-1369.352044540883
 30
0.0
 10
15.48264893478998
 20
-1370.424233393085
 30
0.0
 11
10.32033708398777
 21
-1364.38511502428
 31
0.0
 11
13.87220037636789
 21
-1367.382532886497
 31
0.0
 11
15.48264893478998
 21
-1370.424233393085
 31
0.0
  0
SPLINE
  5
28B
330
39
100
AcDbEntity
  8
1
  6
Continuous
 62
     3
100
AcDbSpline
210
0.0
220
0.0
230
1.0
 70
     8
 71
     3
 72
     9
 73
     5
 74
     3
 42
0.0000000001
 43
0.0000000001
 44
0.00000001
 40
0.0
 40
0.0
 40
0.0
 40
0.0
 40
4.647606554829422
 40
8.089333814666233
 40
8.089333814666233
 40
8.089333814666233
 40
8.089333814666233
 10
10.32033708398777
 20
-1331.98511502428
 30
0.0
 10
11.63616277127936
 20
-1331.092265160782
 30
0.0
 10
13.92640681428118
 20
-1329.538226429875
 30
0.0
 10
15.01815040386959
 20
-1327.018185507678
 30
0.0
 10
15.48264893479015
 20
-1325.945996655475
 30
0.0
 11
10.32033708398777
 21
-1331.98511502428
 31
0.0
 11
13.87220037636793
 21
-1328.987697162063
 31
0.0
 11
15.48264893479015
 21
-1325.945996655475
 31
0.0
  0
SPLINE
  5
28C
330
39
100
AcDbEntity
  8
1
  6
Continuous
 62
     3
100
AcDbSpline
210
0.0
220
0.0
230
1.0
 70
     8
 71
     3
 72
     9
 73
     5
 74
     3
 42
0.0000000001
 43
0.0000000001
 44
0.00000001
 40
0.0
 40
0.0
 40
0.0
 40
0.0
 40
4.64760655482939
 40
8.089333814666169
 40
8.089333814666169
 40
8.089333814666169
 40
8.089333814666169
 10
-294.8550392144076
 20
-1331.98511502428
 30
0.0
 10
-296.1708649016993
 20
-1331.092265160782
 30
0.0
 10
-298.4611089447009
 20
-1329.538226429875
 30
0.0
 10
-299.5528525342893
 20
-1327.018185507678
 30
0.0
 10
-300.0173510652099
 20
-1325.945996655475
 30
0.0
 11
-294.8550392144076
 21
-1331.98511502428
 31
0.0
 11
-298.4069025067877
 21
-1328.987697162063
 31
0.0
 11
-300.0173510652099
 21
-1325.945996655475
 31
0.0
  0
SPLINE
  5
28D
330
39
100
AcDbEntity
  8
1
  6
Continuous
 62
     3
100
AcDbSpline
210
0.0
220
0.0
230
1.0
 70
     8
 71
     3
 72
     9
 73
     5
 74
     3
 42
0.0000000001
 43
0.0000000001
 44
0.00000001
 40
0.0
 40
0.0
 40
0.0
 40
0.0
 40
4.647606554829493
 40
8.08933381466607
 40
8.08933381466607
 40
8.08933381466607
 40
8.08933381466607
 10
-294.8550392144076
 20
-1364.38511502428
 30
0.0
 10
-296.1708649016992
 20
-1365.277964887779
 30
0.0
 10
-298.4611089447009
 20
-1366.832003618686
 30
0.0
 10
-299.5528525342892
 20
-1369.352044540882
 30
0.0
 10
-300.0173510652098
 20
-1370.424233393085
 30
0.0
 11
-294.8550392144076
 21
-1364.38511502428
 31
0.0
 11
-298.4069025067877
 21
-1367.382532886497
 31
0.0
 11
-300.0173510652098
 21
-1370.424233393085
 31
0.0
  0
SPLINE
  5
28E
330
39
100
AcDbEntity
  8
1
  6
Continuous
 62
     3
100
AcDbSpline
210
0.0
220
0.0
230
1.0
 70
     8
 71
     3
 72
     9
 73
     5
 74
     3
 42
0.0000000001
 43
0.0000000001
 44
0.00000001
 40
0.0
 40
0.0
 40
0.0
 40
0.0
 40
4.647606554829538
 40
8.089333814666087
 40
8.089333814666087
 40
8.089333814666087
 40
8.089333814666087
 10
-285.1796629160123
 20
-1364.38511502428
 30
0.0
 10
-283.8638372287207
 20
-1365.277964887779
 30
0.0
 10
-281.5735931857191
 20
-1366.832003618685
 30
0.0
 10
-280.4818495961307
 20
-1369.352044540883
 30
0.0
 10
-280.0173510652101
 20
-1370.424233393085
 30
0.0
 11
-285.1796629160123
 21
-1364.38511502428
 31
0.0
 11
-281.6277996236322
 21
-1367.382532886497
 31
0.0
 11
-280.0173510652101
 21
-1370.424233393085
 31
0.0
  0
SPLINE
  5
28F
330
39
100
AcDbEntity
  8
1
  6
Continuous
 62
     3
100
AcDbSpline
210
0.0
220
0.0
230
1.0
 70
     8
 71
     3
 72
     9
 73
     5
 74
     3
 42
0.0000000001
 43
0.0000000001
 44
0.00000001
 40
0.0
 40
0.0
 40
0.0
 40
0.0
 40
4.647606554829434
 40
8.089333814666265
 40
8.089333814666265
 40
8.089333814666265
 40
8.089333814666265
 10
-285.1796629160123
 20
-1331.98511502428
 30
0.0
 10
-283.8638372287207
 20
-1331.092265160781
 30
0.0
 10
-281.573593185719
 20
-1329.538226429875
 30
0.0
 10
-280.4818495961305
 20
-1327.018185507678
 30
0.0
 10
-280.0173510652099
 20
-1325.945996655475
 30
0.0
 11
-285.1796629160123
 21
-1331.98511502428
 31
0.0
 11
-281.6277996236321
 21
-1328.987697162063
 31
0.0
 11
-280.0173510652099
 21
-1325.945996655475
 31
0.0
  0
XLINE
  5
290
330
39
100
AcDbEntity
  8
1
  6
DOT_CENTER
 62
     3
 60
     1
100
AcDbXline
 10
506.8339277260238
 20
-931.31844064494
 30
0.0
 11
0.0
 21
1.0
 31
0.0
  0
ARC
  5
291
330
39
100
AcDbEntity
  8
1
  6
Continuous
 62
     3
100
AcDbCircle
 10
-8.58914783493427
 20
-1319.18511502428
 30
0.0
 40
5.0
100
AcDbArc
 50
-90.0
 51
-59.99999999999881
  0
ARC
  5
292
330
39
100
AcDbEntity
  8
1
  6
Continuous
 62
     3
100
AcDbCircle
 10
-12.26260480007139
 20
-1319.18511502428
 30
0.0
 40
4.999999999999986
100
AcDbArc
 50
-110.0939666662788
 51
-90.0
  0
ARC
  5
293
330
39
100
AcDbEntity
  8
1
  6
Continuous
 62
     3
100
AcDbCircle
 10
-8.58914783493427
 20
-1377.18511502428
 30
0.0
 40
4.999999999999932
100
AcDbArc
 50
53.13010235415703
 51
90.0
  0
ARC
  5
294
330
39
100
AcDbEntity
  8
1
  6
Continuous
 62
     3
100
AcDbCircle
 10
-12.26260480007139
 20
-1377.18511502428
 30
0.0
 40
5.0
100
AcDbArc
 50
90.0
 51
110.0939666662788
  0
ARC
  5
295
330
39
100
AcDbEntity
  8
1
  6
Continuous
 62
     3
100
AcDbCircle
 10
-52.79595715311837
 20
-1315.68511502428
 30
0.0
 40
5.0
100
AcDbArc
 50
-90.00000000000122
 51
-20.00000000000546
  0
ARC
  5
296
330
39
100
AcDbEntity
  8
1
  6
Continuous
 62
     3
100
AcDbCircle
 10
-49.01735106520988
 20
-1315.68511502428
 30
0.0
 40
5.0
100
AcDbArc
 50
-90.00000000000196
 51
0.0
  0
ARC
  5
297
330
39
100
AcDbEntity
  8
1
  6
Continuous
 62
     3
100
AcDbCircle
 10
-49.01735106520991
 20
-1305.303480120738
 30
0.0
 40
4.999999999999924
100
AcDbArc
 50
-19.9999999999955
 51
0.0
  0
ARC
  5
298
330
39
100
AcDbEntity
  8
1
  6
Continuous
 62
     3
100
AcDbCircle
 10
-15.01735106520985
 20
-1305.303480120738
 30
0.0
 40
5.000000000000002
100
AcDbArc
 50
180.0
 51
-160.0000000000045
  0
ARC
  5
299
330
39
100
AcDbEntity
  8
1
  6
Continuous
 62
     3
100
AcDbCircle
 10
-9.96484915736974
 20
-1319.18511502428
 30
0.0
 40
5.000000000000135
100
AcDbArc
 50
-159.9999999999943
 51
-90.0
  0
ARC
  5
29A
330
39
100
AcDbEntity
  8
1
  6
Continuous
 62
     3
100
AcDbCircle
 10
-15.01735106520985
 20
-1318.255614753478
 30
0.0
 40
5.000000000000002
100
AcDbArc
 50
180.0
 51
-107.1966486862587
  0
ARC
  5
29B
330
39
100
AcDbEntity
  8
1
  6
Continuous
 62
     3
100
AcDbCircle
 10
-13.01735106520988
 20
-1283.18511502428
 30
0.0
 40
1.0
100
AcDbArc
 50
-90.0
 51
0.0
  0
ARC
  5
29C
330
39
100
AcDbEntity
  8
1
  6
Continuous
 62
     3
100
AcDbCircle
 10
-15.01735106520988
 20
-1287.18511502428
 30
0.0
 40
3.0
100
AcDbArc
 50
90.0
 51
180.0
  0
ARC
  5
29D
330
39
100
AcDbEntity
  8
1
  6
Continuous
 62
     3
100
AcDbCircle
 10
-49.01735106520988
 20
-1287.18511502428
 30
0.0
 40
2.999999999999972
100
AcDbArc
 50
0.0
 51
90.00000000000054
  0
ARC
  5
29E
330
39
100
AcDbEntity
  8
1
  6
Continuous
 62
     3
100
AcDbCircle
 10
-51.01735106520988
 20
-1283.18511502428
 30
0.0
 40
1.000000000000028
100
AcDbArc
 50
180.0
 51
-90.00000000000163
  0
ARC
  5
29F
330
39
100
AcDbEntity
  8
1
  6
Continuous
 62
     3
100
AcDbCircle
 10
-52.01735106520982
 20
-1282.18511502428
 30
0.0
 40
2.0
100
AcDbArc
 50
180.0
 51
-90.0
  0
ARC
  5
2A0
330
39
100
AcDbEntity
  8
1
  6
Continuous
 62
     3
100
AcDbCircle
 10
-20.01735106520988
 20
-1291.68511502428
 30
0.0
 40
1.999999999999997
100
AcDbArc
 50
-59.99999999999796
 51
0.0
  0
ARC
  5
2A1
330
39
100
AcDbEntity
  8
1
  6
Continuous
 62
     3
100
AcDbCircle
 10
-18.01735106520982
 20
-1295.149216639418
 30
0.0
 40
2.000000000000164
100
AcDbArc
 50
119.9999999999973
 51
180.0
  0
ARC
  5
2A2
330
39
100
AcDbEntity
  8
1
  6
Continuous
 62
     3
100
AcDbCircle
 10
-44.01735106520988
 20
-1291.68511502428
 30
0.0
 40
2.000000000000028
100
AcDbArc
 50
180.0
 51
-120.0000000000013
  0
ARC
  5
2A3
330
39
100
AcDbEntity
  8
1
  6
Continuous
 62
     3
100
AcDbCircle
 10
-46.01735106520994
 20
-1295.149216639418
 30
0.0
 40
2.000000000000028
100
AcDbArc
 50
0.0
 51
60.000000000002
  0
ARC
  5
2A4
330
39
100
AcDbEntity
  8
1
  6
Continuous
 62
     3
100
AcDbCircle
 10
-29.51735106520988
 20
-1307.18511502428
 30
0.0
 40
1.0
100
AcDbArc
 50
90.0
 51
180.0
  0
ARC
  5
2A5
330
39
100
AcDbEntity
  8
1
  6
Continuous
 62
     3
100
AcDbCircle
 10
-29.51735106520988
 20
-1319.68511502428
 30
0.0
 40
1.0
100
AcDbArc
 50
180.0
 51
-90.0
  0
ARC
  5
2A6
330
39
100
AcDbEntity
  8
1
  6
Continuous
 62
     3
100
AcDbCircle
 10
-34.51735106520988
 20
-1319.68511502428
 30
0.0
 40
1.0
100
AcDbArc
 50
-90.0
 51
0.0
  0
ARC
  5
2A7
330
39
100
AcDbEntity
  8
1
  6
Continuous
 62
     3
100
AcDbCircle
 10
-34.51735106520988
 20
-1307.18511502428
 30
0.0
 40
1.0
100
AcDbArc
 50
0.0
 51
90.0
  0
ARC
  5
2A8
330
39
100
AcDbEntity
  8
1
  6
Continuous
 62
     3
100
AcDbCircle
 10
-140.0173510652099
 20
-1307.18511502428
 30
0.0
 40
1.0
100
AcDbArc
 50
90.0
 51
180.0
  0
ARC
  5
2A9
330
39
100
AcDbEntity
  8
1
  6
Continuous
 62
     3
100
AcDbCircle
 10
-145.0173510652099
 20
-1307.18511502428
 30
0.0
 40
1.0
100
AcDbArc
 50
0.0
 51
90.0
  0
ARC
  5
2AA
330
39
100
AcDbEntity
  8
1
  6
Continuous
 62
     3
100
AcDbCircle
 10
-128.5173510652099
 20
-1295.149216639418
 30
0.0
 40
2.000000000000164
100
AcDbArc
 50
119.9999999999973
 51
180.0
  0
ARC
  5
2AB
330
39
100
AcDbEntity
  8
1
  6
Continuous
 62
     3
100
AcDbCircle
 10
-130.5173510652099
 20
-1291.68511502428
 30
0.0
 40
1.999999999999967
100
AcDbArc
 50
-59.99999999999946
 51
0.0
  0
ARC
  5
2AC
330
39
100
AcDbEntity
  8
1
  6
Continuous
 62
     3
100
AcDbCircle
 10
-156.5173510652099
 20
-1295.149216639418
 30
0.0
 40
2.0
100
AcDbArc
 50
0.0
 51
60.00000000000272
  0
ARC
  5
2AD
330
39
100
AcDbEntity
  8
1
  6
Continuous
 62
     3
100
AcDbCircle
 10
-154.5173510652099
 20
-1291.68511502428
 30
0.0
 40
2.0
100
AcDbArc
 50
180.0
 51
-120.0000000000006
  0
ARC
  5
2AE
330
39
100
AcDbEntity
  8
1
  6
Continuous
 62
     3
100
AcDbCircle
 10
-123.5173510652099
 20
-1283.18511502428
 30
0.0
 40
1.0
100
AcDbArc
 50
-90.0
 51
0.0
  0
ARC
  5
2AF
330
39
100
AcDbEntity
  8
1
  6
Continuous
 62
     3
100
AcDbCircle
 10
-125.5173510652099
 20
-1287.18511502428
 30
0.0
 40
3.0
100
AcDbArc
 50
90.0
 51
180.0
  0
ARC
  5
2B0
330
39
100
AcDbEntity
  8
1
  6
Continuous
 62
     3
100
AcDbCircle
 10
-159.5173510652099
 20
-1287.18511502428
 30
0.0
 40
3.0
100
AcDbArc
 50
0.0
 51
90.0
  0
ARC
  5
2B1
330
39
100
AcDbEntity
  8
1
  6
Continuous
 62
     3
100
AcDbCircle
 10
-161.5173510652099
 20
-1283.18511502428
 30
0.0
 40
1.0
100
AcDbArc
 50
180.0
 51
-90.0
  0
ARC
  5
2B2
330
39
100
AcDbEntity
  8
1
  6
Continuous
 62
     3
100
AcDbCircle
 10
-125.5173510652098
 20
-1305.303480120738
 30
0.0
 40
5.0
100
AcDbArc
 50
180.0
 51
-160.0000000000045
  0
ARC
  5
2B3
330
39
100
AcDbEntity
  8
1
  6
Continuous
 62
     3
100
AcDbCircle
 10
-159.5173510652099
 20
-1305.303480120738
 30
0.0
 40
4.999999999999824
100
AcDbArc
 50
-19.99999999999592
 51
0.0
  0
ARC
  5
2B4
330
39
100
AcDbEntity
  8
1
  6
Continuous
 62
     3
100
AcDbCircle
 10
-382.4171452398601
 20
-1327.52485608644
 30
0.0
 40
4.999999999999853
100
AcDbArc
 50
-39.47194192601509
 51
-19.9999999999957
  0
ARC
  5
2B5
330
39
100
AcDbEntity
  8
1
  6
Continuous
 62
     3
100
AcDbCircle
 10
-374.329225823906
 20
-1305.303480120738
 30
0.0
 40
4.999999999999824
100
AcDbArc
 50
-19.99999999999592
 51
0.0
  0
ARC
  5
2B6
330
39
100
AcDbEntity
  8
1
  6
Continuous
 62
     3
100
AcDbCircle
 10
-332.2413064079518
 20
-1327.52485608644
 30
0.0
 40
4.999999999999824
100
AcDbArc
 50
-160.0000000000041
 51
-140.528058073976
  0
ARC
  5
2B7
330
39
100
AcDbEntity
  8
1
  6
Continuous
 62
     3
100
AcDbCircle
 10
-340.3292258239059
 20
-1305.303480120738
 30
0.0
 40
5.0
100
AcDbArc
 50
180.0
 51
-160.0000000000045
  0
ARC
  5
2B8
330
39
100
AcDbEntity
  8
1
  6
Continuous
 62
     3
100
AcDbCircle
 10
-376.329225823906
 20
-1283.18511502428
 30
0.0
 40
1.0
100
AcDbArc
 50
180.0
 51
-90.0
  0
ARC
  5
2B9
330
39
100
AcDbEntity
  8
1
  6
Continuous
 62
     3
100
AcDbCircle
 10
-374.329225823906
 20
-1287.18511502428
 30
0.0
 40
3.0
100
AcDbArc
 50
0.0
 51
90.0
  0
ARC
  5
2BA
330
39
100
AcDbEntity
  8
1
  6
Continuous
 62
     3
100
AcDbCircle
 10
-340.329225823906
 20
-1287.18511502428
 30
0.0
 40
3.0
100
AcDbArc
 50
90.0
 51
180.0
  0
ARC
  5
2BB
330
39
100
AcDbEntity
  8
1
  6
Continuous
 62
     3
100
AcDbCircle
 10
-338.329225823906
 20
-1283.18511502428
 30
0.0
 40
1.0
100
AcDbArc
 50
-90.0
 51
0.0
  0
ARC
  5
2BC
330
39
100
AcDbEntity
  8
1
  6
Continuous
 62
     3
100
AcDbCircle
 10
-337.329225823906
 20
-1282.18511502428
 30
0.0
 40
2.0
100
AcDbArc
 50
-90.0
 51
0.0
  0
ARC
  5
2BD
330
39
100
AcDbEntity
  8
1
  6
Continuous
 62
     3
100
AcDbCircle
 10
-369.329225823906
 20
-1291.68511502428
 30
0.0
 40
2.0
100
AcDbArc
 50
180.0
 51
-120.0000000000006
  0
ARC
  5
2BE
330
39
100
AcDbEntity
  8
1
  6
Continuous
 62
     3
100
AcDbCircle
 10
-371.329225823906
 20
-1295.149216639418
 30
0.0
 40
2.0
100
AcDbArc
 50
0.0
 51
60.00000000000272
  0
ARC
  5
2BF
330
39
100
AcDbEntity
  8
1
  6
Continuous
 62
     3
100
AcDbCircle
 10
-345.329225823906
 20
-1291.68511502428
 30
0.0
 40
1.999999999999996
100
AcDbArc
 50
-59.99999999999805
 51
0.0
  0
ARC
  5
2C0
330
39
100
AcDbEntity
  8
1
  6
Continuous
 62
     3
100
AcDbCircle
 10
-343.3292258239059
 20
-1295.149216639418
 30
0.0
 40
2.000000000000164
100
AcDbArc
 50
119.9999999999973
 51
180.0
  0
ARC
  5
2C1
330
39
100
AcDbEntity
  8
1
  6
Continuous
 62
     3
100
AcDbCircle
 10
-359.829225823906
 20
-1307.18511502428
 30
0.0
 40
1.0
100
AcDbArc
 50
0.0
 51
90.0
  0
ARC
  5
2C2
330
39
100
AcDbEntity
  8
1
  6
Continuous
 62
     3
100
AcDbCircle
 10
-354.829225823906
 20
-1307.18511502428
 30
0.0
 40
1.0
100
AcDbArc
 50
90.0
 51
180.0
  0
ARC
  5
2C3
330
39
100
AcDbEntity
  8
1
  6
Continuous
 62
     3
100
AcDbCircle
 10
-254.0018254160455
 20
-1345.183496733871
 30
0.0
 40
3.001618290409169
100
AcDbArc
 50
-90.0
 51
0.0
  0
ARC
  5
2C4
330
39
100
AcDbEntity
  8
1
  6
Continuous
 62
     3
100
AcDbCircle
 10
-250.0173510652099
 20
-1307.18511502428
 30
0.0
 40
1.0
100
AcDbArc
 50
90.0
 51
180.0
  0
ARC
  5
2C5
330
39
100
AcDbEntity
  8
1
  6
Continuous
 62
     3
100
AcDbCircle
 10
-250.0173510652099
 20
-1319.68511502428
 30
0.0
 40
1.0
100
AcDbArc
 50
180.0
 51
-90.0
  0
ARC
  5
2C6
330
39
100
AcDbEntity
  8
1
  6
Continuous
 62
     3
100
AcDbCircle
 10
-255.0173510652099
 20
-1319.68511502428
 30
0.0
 40
1.0
100
AcDbArc
 50
-90.0
 51
0.0
  0
ARC
  5
2C7
330
39
100
AcDbEntity
  8
1
  6
Continuous
 62
     3
100
AcDbCircle
 10
-255.0173510652099
 20
-1307.18511502428
 30
0.0
 40
1.0
100
AcDbArc
 50
0.0
 51
90.0
  0
ARC
  5
2C8
330
39
100
AcDbEntity
  8
1
  6
Continuous
 62
     3
100
AcDbCircle
 10
-238.5173510652099
 20
-1295.149216639418
 30
0.0
 40
2.000000000000164
100
AcDbArc
 50
119.9999999999973
 51
180.0
  0
ARC
  5
2C9
330
39
100
AcDbEntity
  8
1
  6
Continuous
 62
     3
100
AcDbCircle
 10
-240.5173510652099
 20
-1291.68511502428
 30
0.0
 40
1.999999999999967
100
AcDbArc
 50
-59.99999999999946
 51
0.0
  0
ARC
  5
2CA
330
39
100
AcDbEntity
  8
1
  6
Continuous
 62
     3
100
AcDbCircle
 10
-266.5173510652099
 20
-1295.149216639418
 30
0.0
 40
2.0
100
AcDbArc
 50
0.0
 51
60.00000000000272
  0
ARC
  5
2CB
330
39
100
AcDbEntity
  8
1
  6
Continuous
 62
     3
100
AcDbCircle
 10
-264.5173510652099
 20
-1291.68511502428
 30
0.0
 40
2.0
100
AcDbArc
 50
180.0
 51
-120.0000000000006
  0
ARC
  5
2CC
330
39
100
AcDbEntity
  8
1
  6
Continuous
 62
     3
100
AcDbCircle
 10
-232.51735106521
 20
-1282.18511502428
 30
0.0
 40
2.0
100
AcDbArc
 50
-90.0
 51
0.0
  0
ARC
  5
2CD
330
39
100
AcDbEntity
  8
1
  6
Continuous
 62
     3
100
AcDbCircle
 10
-233.5173510652099
 20
-1283.18511502428
 30
0.0
 40
1.0
100
AcDbArc
 50
-90.0
 51
0.0
  0
ARC
  5
2CE
330
39
100
AcDbEntity
  8
1
  6
Continuous
 62
     3
100
AcDbCircle
 10
-235.5173510652099
 20
-1287.18511502428
 30
0.0
 40
3.0
100
AcDbArc
 50
90.0
 51
180.0
  0
ARC
  5
2CF
330
39
100
AcDbEntity
  8
1
  6
Continuous
 62
     3
100
AcDbCircle
 10
-269.5173510652099
 20
-1287.18511502428
 30
0.0
 40
3.0
100
AcDbArc
 50
0.0
 51
90.0
  0
ARC
  5
2D0
330
39
100
AcDbEntity
  8
1
  6
Continuous
 62
     3
100
AcDbCircle
 10
-271.5173510652099
 20
-1283.18511502428
 30
0.0
 40
1.0
100
AcDbArc
 50
180.0
 51
-90.0
  0
ARC
  5
2D1
330
39
100
AcDbEntity
  8
1
  6
Continuous
 62
     3
100
AcDbCircle
 10
-269.5173510652099
 20
-1318.255614753478
 30
0.0
 40
5.000000000000304
100
AcDbArc
 50
-72.80335131374193
 51
0.0
  0
ARC
  5
2D2
330
39
100
AcDbEntity
  8
1
  6
Continuous
 62
     3
100
AcDbCircle
 10
-274.5698529730501
 20
-1319.18511502428
 30
0.0
 40
5.0
100
AcDbArc
 50
-90.0
 51
-20.00000000000571
  0
ARC
  5
2D3
330
39
100
AcDbEntity
  8
1
  6
Continuous
 62
     3
100
AcDbCircle
 10
-269.5173510652099
 20
-1305.303480120738
 30
0.0
 40
4.999999999999877
100
AcDbArc
 50
-19.9999999999957
 51
0.0
  0
ARC
  5
2D4
330
39
100
AcDbEntity
  8
1
  6
Continuous
 62
     3
100
AcDbCircle
 10
-235.5173510652099
 20
-1305.303480120738
 30
0.0
 40
5.0
100
AcDbArc
 50
180.0
 51
-160.0000000000044
  0
ARC
  5
2D5
330
39
100
AcDbEntity
  8
1
  6
Continuous
 62
     3
100
AcDbCircle
 10
-235.5173510652099
 20
-1315.68511502428
 30
0.0
 40
5.0
100
AcDbArc
 50
180.0
 51
-89.99999999999773
  0
ARC
  5
2D6
330
39
100
AcDbEntity
  8
1
  6
Continuous
 62
     3
100
AcDbCircle
 10
-231.7387449773014
 20
-1315.68511502428
 30
0.0
 40
5.000000000000242
100
AcDbArc
 50
-159.9999999999947
 51
-89.99999999999902
  0
ARC
  5
2D7
330
39
100
AcDbEntity
  8
1
  6
Continuous
 62
     3
100
AcDbCircle
 10
-272.2720973303484
 20
-1377.18511502428
 30
0.0
 40
4.999999999999985
100
AcDbArc
 50
69.90603333372128
 51
90.0
  0
ARC
  5
2D8
330
39
100
AcDbEntity
  8
1
  6
Continuous
 62
     3
100
AcDbCircle
 10
-275.9455542954855
 20
-1377.18511502428
 30
0.0
 40
5.0
100
AcDbArc
 50
90.0
 51
126.869897645843
  0
ARC
  5
2D9
330
39
100
AcDbEntity
  8
1
  6
Continuous
 62
     3
100
AcDbCircle
 10
-272.2720973303484
 20
-1319.18511502428
 30
0.0
 40
5.0
100
AcDbArc
 50
-90.0
 51
-69.90603333372128
  0
ARC
  5
2DA
330
39
100
AcDbEntity
  8
1
  6
Continuous
 62
     3
100
AcDbCircle
 10
-275.9455542954855
 20
-1319.18511502428
 30
0.0
 40
4.99999999999982
100
AcDbArc
 50
-120.0000000000012
 51
-90.0
  0
TEXT
  5
2DC
330
39
100
AcDbEntity
  8
1
 62
     1
100
AcDbText
 10
-53.56168288334595
 20
-1350.711706115191
 30
0.0
 40
4.8
  1
VY5302A0031
 41
0.855
  7
CONVERTER_1
100
AcDbText
  0
ENDBLK
  5
3B
330
39
100
AcDbEntity
  8
0
100
AcDbBlockEnd
  0
BLOCK
  5
3D
330
3C
100
AcDbEntity
  8
0
100
AcDbBlockBegin
  2
_3
 70
     0
 71
     0
 10
-338.0173510652099
 20
-589.479631922478
 30
0.0
  3
_3
  1

  0
LINE
  5
2DD
330
3C
100
AcDbEntity
  8
1
  6
Continuous
 62
     3
100
AcDbLine
 10
-256.1830706398637
 20
-1197.10662201397
 30
0.0
 11
-248.8516314905561
 21
-1197.10662201397
 31
0.0
  0
LINE
  5
2DE
330
3C
100
AcDbEntity
  8
1
  6
Continuous
 62
     3
100
AcDbLine
 10
-248.8516314905561
 20
-1206.60662201397
 30
0.0
 11
-256.1830706398637
 21
-1206.60662201397
 31
0.0
  0
LINE
  5
2DF
330
3C
100
AcDbEntity
  8
1
  6
Continuous
 62
     3
100
AcDbLine
 10
-247.7673510652099
 20
-1198.190902439316
 30
0.0
 11
-247.7673510652099
 21
-1200.85662201397
 31
0.0
  0
LINE
  5
2E0
330
3C
100
AcDbEntity
  8
1
  6
Continuous
 62
     3
100
AcDbLine
 10
-257.2673510652099
 20
-1205.522341588624
 30
0.0
 11
-257.2673510652099
 21
-1198.190902439316
 31
0.0
  0
LINE
  5
2E1
330
3C
100
AcDbEntity
  8
1
  6
Continuous
 62
     3
100
AcDbLine
 10
-247.7673510652099
 20
-1200.85662201397
 30
0.0
 11
-247.7673510652099
 21
-1205.522341588624
 31
0.0
  0
LINE
  5
2E2
330
3C
100
AcDbEntity
  8
1
  6
Continuous
 62
     3
100
AcDbLine
 10
-257.2673510652099
 20
-1264.68511502428
 30
0.0
 11
-257.2673510652098
 21
-1256.18511502428
 31
0.0
  0
LINE
  5
2E3
330
3C
100
AcDbEntity
  8
1
  6
Continuous
 62
     3
100
AcDbLine
 10
-246.5173510652099
 20
-1264.68511502428
 30
0.0
 11
-247.7673510652099
 21
-1264.68511502428
 31
0.0
  0
LINE
  5
2E4
330
3C
100
AcDbEntity
  8
1
  6
Continuous
 62
     3
100
AcDbLine
 10
-256.1830706398638
 20
-1264.68511502428
 30
0.0
 11
-257.2673510652099
 21
-1264.68511502428
 31
0.0
  0
LINE
  5
2E5
330
3C
100
AcDbEntity
  8
1
  6
Continuous
 62
     3
100
AcDbLine
 10
-257.2673510652099
 20
-1264.68511502428
 30
0.0
 11
-258.5173510652098
 21
-1264.68511502428
 31
0.0
  0
LINE
  5
2E6
330
3C
100
AcDbEntity
  8
1
  6
Continuous
 62
     3
100
AcDbLine
 10
-257.2673510652099
 20
-1255.69511502428
 30
0.0
 11
-257.2673510652099
 21
-1254.973790158875
 31
0.0
  0
LINE
  5
2E7
330
3C
100
AcDbEntity
  8
1
  6
Continuous
 62
     3
100
AcDbLine
 10
-248.2673510652099
 20
-1254.68511502428
 30
0.0
 11
-256.7673510652099
 21
-1254.68511502428
 31
0.0
  0
LINE
  5
2E8
330
3C
100
AcDbEntity
  8
1
  6
Continuous
 62
     3
100
AcDbLine
 10
-256.1830706398638
 20
-1255.69511502428
 30
0.0
 11
-256.1830706398638
 21
-1264.68511502428
 31
0.0
  0
LINE
  5
2E9
330
3C
100
AcDbEntity
  8
1
  6
Continuous
 62
     3
100
AcDbLine
 10
-247.7673510652099
 20
-1255.69511502428
 30
0.0
 11
-247.7673510652099
 21
-1264.68511502428
 31
0.0
  0
LINE
  5
2EA
330
3C
100
AcDbEntity
  8
1
  6
Continuous
 62
     3
100
AcDbLine
 10
-256.7673510652099
 20
-1254.68511502428
 30
0.0
 11
-257.2673510652099
 21
-1254.973790158875
 31
0.0
  0
LINE
  5
2EB
330
3C
100
AcDbEntity
  8
1
  6
Continuous
 62
     3
100
AcDbLine
 10
-247.7673510652098
 20
-1254.973790158875
 30
0.0
 11
-248.2673510652099
 21
-1254.68511502428
 31
0.0
  0
LINE
  5
2EC
330
3C
100
AcDbEntity
  8
1
  6
Continuous
 62
     3
100
AcDbLine
 10
-247.7673510652099
 20
-1255.69511502428
 30
0.0
 11
-248.8516314905562
 21
-1255.69511502428
 31
0.0
  0
LINE
  5
2ED
330
3C
100
AcDbEntity
  8
1
  6
Continuous
 62
     3
100
AcDbLine
 10
-248.8516314905562
 20
-1264.68511502428
 30
0.0
 11
-248.8516314905562
 21
-1255.69511502428
 31
0.0
  0
LINE
  5
2EE
330
3C
100
AcDbEntity
  8
1
  6
Continuous
 62
     3
100
AcDbLine
 10
-247.7673510652098
 20
-1254.973790158875
 30
0.0
 11
-247.7673510652099
 21
-1255.69511502428
 31
0.0
  0
LINE
  5
2EF
330
3C
100
AcDbEntity
  8
1
  6
Continuous
 62
     3
100
AcDbLine
 10
-256.1830706398638
 20
-1255.69511502428
 30
0.0
 11
-257.2673510652099
 21
-1255.69511502428
 31
0.0
  0
LINE
  5
2F0
330
3C
100
AcDbEntity
  8
1
  6
Continuous
 62
     3
100
AcDbLine
 10
-257.2673510652098
 20
-1256.18511502428
 30
0.0
 11
-257.2673510652099
 21
-1255.69511502428
 31
0.0
  0
LINE
  5
2F1
330
3C
100
AcDbEntity
  8
1
  6
Continuous
 62
     2
100
AcDbLine
 10
-248.8516314905562
 20
-1264.68511502428
 30
0.0
 11
-256.1830706398638
 21
-1255.69511502428
 31
0.0
  0
LINE
  5
2F2
330
3C
100
AcDbEntity
  8
1
  6
Continuous
 62
     3
100
AcDbLine
 10
-247.7673510652099
 20
-1264.68511502428
 30
0.0
 11
-248.8516314905562
 21
-1264.68511502428
 31
0.0
  0
LINE
  5
2F3
330
3C
100
AcDbEntity
  8
1
  6
Continuous
 62
     2
100
AcDbLine
 10
-248.8516314905562
 20
-1255.69511502428
 30
0.0
 11
-256.1830706398638
 21
-1264.68511502428
 31
0.0
  0
LINE
  5
2F4
330
3C
100
AcDbEntity
  8
1
  6
Continuous
 62
     3
100
AcDbLine
 10
-248.8516314905562
 20
-1264.68511502428
 30
0.0
 11
-256.1830706398638
 21
-1264.68511502428
 31
0.0
  0
LINE
  5
2F5
330
3C
100
AcDbEntity
  8
1
  6
Continuous
 62
     3
100
AcDbLine
 10
-246.5173510652099
 20
-1268.18511502428
 30
0.0
 11
-246.5173510652099
 21
-1264.68511502428
 31
0.0
  0
LINE
  5
2F6
330
3C
100
AcDbEntity
  8
1
  6
Continuous
 62
     3
100
AcDbLine
 10
-258.5173510652099
 20
-1268.18511502428
 30
0.0
 11
-258.5173510652098
 21
-1264.68511502428
 31
0.0
  0
LINE
  5
2F7
330
3C
100
AcDbEntity
  8
1
  6
DASH_CENTER
 62
     1
100
AcDbLine
 10
-252.5173510652099
 20
-1251.68511502428
 30
0.0
 11
-252.5173510652099
 21
-1272.54539404511
 31
0.0
  0
LINE
  5
2F8
330
3C
100
AcDbEntity
  8
1
  6
DASH_CENTER
 62
     1
100
AcDbLine
 10
-357.329225823906
 20
-1251.68511502428
 30
0.0
 11
-357.329225823906
 21
-1272.54539404511
 31
0.0
  0
LINE
  5
2F9
330
3C
100
AcDbEntity
  8
1
  6
Continuous
 62
     3
100
AcDbLine
 10
-363.329225823906
 20
-1268.18511502428
 30
0.0
 11
-363.3292258239059
 21
-1264.68511502428
 31
0.0
  0
LINE
  5
2FA
330
3C
100
AcDbEntity
  8
1
  6
Continuous
 62
     3
100
AcDbLine
 10
-351.329225823906
 20
-1268.18511502428
 30
0.0
 11
-351.329225823906
 21
-1264.68511502428
 31
0.0
  0
LINE
  5
2FB
330
3C
100
AcDbEntity
  8
1
  6
Continuous
 62
     3
100
AcDbLine
 10
-353.6635062492522
 20
-1264.68511502428
 30
0.0
 11
-360.9949453985598
 21
-1264.68511502428
 31
0.0
  0
LINE
  5
2FC
330
3C
100
AcDbEntity
  8
1
  6
Continuous
 62
     2
100
AcDbLine
 10
-353.6635062492522
 20
-1255.69511502428
 30
0.0
 11
-360.9949453985598
 21
-1264.68511502428
 31
0.0
  0
LINE
  5
2FD
330
3C
100
AcDbEntity
  8
1
  6
Continuous
 62
     3
100
AcDbLine
 10
-352.579225823906
 20
-1264.68511502428
 30
0.0
 11
-353.6635062492522
 21
-1264.68511502428
 31
0.0
  0
LINE
  5
2FE
330
3C
100
AcDbEntity
  8
1
  6
Continuous
 62
     2
100
AcDbLine
 10
-353.6635062492522
 20
-1264.68511502428
 30
0.0
 11
-360.9949453985598
 21
-1255.69511502428
 31
0.0
  0
LINE
  5
2FF
330
3C
100
AcDbEntity
  8
1
  6
Continuous
 62
     3
100
AcDbLine
 10
-362.0792258239059
 20
-1256.18511502428
 30
0.0
 11
-362.079225823906
 21
-1255.69511502428
 31
0.0
  0
LINE
  5
300
330
3C
100
AcDbEntity
  8
1
  6
Continuous
 62
     3
100
AcDbLine
 10
-360.9949453985598
 20
-1255.69511502428
 30
0.0
 11
-362.079225823906
 21
-1255.69511502428
 31
0.0
  0
LINE
  5
301
330
3C
100
AcDbEntity
  8
1
  6
Continuous
 62
     3
100
AcDbLine
 10
-352.5792258239059
 20
-1254.973790158875
 30
0.0
 11
-352.579225823906
 21
-1255.69511502428
 31
0.0
  0
LINE
  5
302
330
3C
100
AcDbEntity
  8
1
  6
Continuous
 62
     3
100
AcDbLine
 10
-353.6635062492522
 20
-1264.68511502428
 30
0.0
 11
-353.6635062492522
 21
-1255.69511502428
 31
0.0
  0
LINE
  5
303
330
3C
100
AcDbEntity
  8
1
  6
Continuous
 62
     3
100
AcDbLine
 10
-352.579225823906
 20
-1255.69511502428
 30
0.0
 11
-353.6635062492522
 21
-1255.69511502428
 31
0.0
  0
LINE
  5
304
330
3C
100
AcDbEntity
  8
1
  6
Continuous
 62
     3
100
AcDbLine
 10
-352.5792258239059
 20
-1254.973790158875
 30
0.0
 11
-353.079225823906
 21
-1254.68511502428
 31
0.0
  0
LINE
  5
305
330
3C
100
AcDbEntity
  8
1
  6
Continuous
 62
     3
100
AcDbLine
 10
-361.579225823906
 20
-1254.68511502428
 30
0.0
 11
-362.079225823906
 21
-1254.973790158875
 31
0.0
  0
LINE
  5
306
330
3C
100
AcDbEntity
  8
1
  6
Continuous
 62
     3
100
AcDbLine
 10
-352.579225823906
 20
-1255.69511502428
 30
0.0
 11
-352.579225823906
 21
-1264.68511502428
 31
0.0
  0
LINE
  5
307
330
3C
100
AcDbEntity
  8
1
  6
Continuous
 62
     3
100
AcDbLine
 10
-360.9949453985598
 20
-1255.69511502428
 30
0.0
 11
-360.9949453985598
 21
-1264.68511502428
 31
0.0
  0
LINE
  5
308
330
3C
100
AcDbEntity
  8
1
  6
Continuous
 62
     3
100
AcDbLine
 10
-353.079225823906
 20
-1254.68511502428
 30
0.0
 11
-361.579225823906
 21
-1254.68511502428
 31
0.0
  0
LINE
  5
309
330
3C
100
AcDbEntity
  8
1
  6
Continuous
 62
     3
100
AcDbLine
 10
-362.079225823906
 20
-1255.69511502428
 30
0.0
 11
-362.079225823906
 21
-1254.973790158875
 31
0.0
  0
LINE
  5
30A
330
3C
100
AcDbEntity
  8
1
  6
Continuous
 62
     3
100
AcDbLine
 10
-362.079225823906
 20
-1264.68511502428
 30
0.0
 11
-363.3292258239059
 21
-1264.68511502428
 31
0.0
  0
LINE
  5
30B
330
3C
100
AcDbEntity
  8
1
  6
Continuous
 62
     3
100
AcDbLine
 10
-360.9949453985598
 20
-1264.68511502428
 30
0.0
 11
-362.079225823906
 21
-1264.68511502428
 31
0.0
  0
LINE
  5
30C
330
3C
100
AcDbEntity
  8
1
  6
Continuous
 62
     3
100
AcDbLine
 10
-351.329225823906
 20
-1264.68511502428
 30
0.0
 11
-352.579225823906
 21
-1264.68511502428
 31
0.0
  0
LINE
  5
30D
330
3C
100
AcDbEntity
  8
1
  6
Continuous
 62
     3
100
AcDbLine
 10
-362.079225823906
 20
-1264.68511502428
 30
0.0
 11
-362.0792258239059
 21
-1256.18511502428
 31
0.0
  0
LINE
  5
30E
330
3C
100
AcDbEntity
  8
1
  6
Continuous
 62
     3
100
AcDbLine
 10
-36.76735106520988
 20
-1264.68511502428
 30
0.0
 11
-36.76735106520977
 21
-1256.18511502428
 31
0.0
  0
LINE
  5
30F
330
3C
100
AcDbEntity
  8
1
  6
Continuous
 62
     3
100
AcDbLine
 10
-26.01735106520988
 20
-1264.68511502428
 30
0.0
 11
-27.26735106520988
 21
-1264.68511502428
 31
0.0
  0
LINE
  5
310
330
3C
100
AcDbEntity
  8
1
  6
Continuous
 62
     3
100
AcDbLine
 10
-35.68307063986374
 20
-1264.68511502428
 30
0.0
 11
-36.76735106520988
 21
-1264.68511502428
 31
0.0
  0
LINE
  5
311
330
3C
100
AcDbEntity
  8
1
  6
Continuous
 62
     3
100
AcDbLine
 10
-36.76735106520988
 20
-1264.68511502428
 30
0.0
 11
-38.01735106520977
 21
-1264.68511502428
 31
0.0
  0
LINE
  5
312
330
3C
100
AcDbEntity
  8
1
  6
Continuous
 62
     3
100
AcDbLine
 10
-36.76735106520988
 20
-1255.69511502428
 30
0.0
 11
-36.76735106520988
 21
-1254.973790158875
 31
0.0
  0
LINE
  5
313
330
3C
100
AcDbEntity
  8
1
  6
Continuous
 62
     3
100
AcDbLine
 10
-27.76735106520988
 20
-1254.68511502428
 30
0.0
 11
-36.26735106520988
 21
-1254.68511502428
 31
0.0
  0
LINE
  5
314
330
3C
100
AcDbEntity
  8
1
  6
Continuous
 62
     3
100
AcDbLine
 10
-35.68307063986374
 20
-1255.69511502428
 30
0.0
 11
-35.68307063986374
 21
-1264.68511502428
 31
0.0
  0
LINE
  5
315
330
3C
100
AcDbEntity
  8
1
  6
Continuous
 62
     3
100
AcDbLine
 10
-27.26735106520988
 20
-1255.69511502428
 30
0.0
 11
-27.26735106520988
 21
-1264.68511502428
 31
0.0
  0
LINE
  5
316
330
3C
100
AcDbEntity
  8
1
  6
Continuous
 62
     3
100
AcDbLine
 10
-36.26735106520988
 20
-1254.68511502428
 30
0.0
 11
-36.76735106520988
 21
-1254.973790158875
 31
0.0
  0
LINE
  5
317
330
3C
100
AcDbEntity
  8
1
  6
Continuous
 62
     3
100
AcDbLine
 10
-27.26735106520977
 20
-1254.973790158875
 30
0.0
 11
-27.76735106520988
 21
-1254.68511502428
 31
0.0
  0
LINE
  5
318
330
3C
100
AcDbEntity
  8
1
  6
Continuous
 62
     3
100
AcDbLine
 10
-27.26735106520988
 20
-1255.69511502428
 30
0.0
 11
-28.35163149055614
 21
-1255.69511502428
 31
0.0
  0
LINE
  5
319
330
3C
100
AcDbEntity
  8
1
  6
Continuous
 62
     3
100
AcDbLine
 10
-28.35163149055614
 20
-1264.68511502428
 30
0.0
 11
-28.35163149055614
 21
-1255.69511502428
 31
0.0
  0
LINE
  5
31A
330
3C
100
AcDbEntity
  8
1
  6
Continuous
 62
     3
100
AcDbLine
 10
-27.26735106520977
 20
-1254.973790158875
 30
0.0
 11
-27.26735106520988
 21
-1255.69511502428
 31
0.0
  0
LINE
  5
31B
330
3C
100
AcDbEntity
  8
1
  6
Continuous
 62
     3
100
AcDbLine
 10
-35.68307063986374
 20
-1255.69511502428
 30
0.0
 11
-36.76735106520988
 21
-1255.69511502428
 31
0.0
  0
LINE
  5
31C
330
3C
100
AcDbEntity
  8
1
  6
Continuous
 62
     3
100
AcDbLine
 10
-36.76735106520977
 20
-1256.18511502428
 30
0.0
 11
-36.76735106520988
 21
-1255.69511502428
 31
0.0
  0
LINE
  5
31D
330
3C
100
AcDbEntity
  8
1
  6
Continuous
 62
     2
100
AcDbLine
 10
-28.35163149055614
 20
-1264.68511502428
 30
0.0
 11
-35.68307063986374
 21
-1255.69511502428
 31
0.0
  0
LINE
  5
31E
330
3C
100
AcDbEntity
  8
1
  6
Continuous
 62
     3
100
AcDbLine
 10
-27.26735106520988
 20
-1264.68511502428
 30
0.0
 11
-28.35163149055614
 21
-1264.68511502428
 31
0.0
  0
LINE
  5
31F
330
3C
100
AcDbEntity
  8
1
  6
Continuous
 62
     2
100
AcDbLine
 10
-28.35163149055614
 20
-1255.69511502428
 30
0.0
 11
-35.68307063986374
 21
-1264.68511502428
 31
0.0
  0
LINE
  5
320
330
3C
100
AcDbEntity
  8
1
  6
Continuous
 62
     3
100
AcDbLine
 10
-28.35163149055614
 20
-1264.68511502428
 30
0.0
 11
-35.68307063986374
 21
-1264.68511502428
 31
0.0
  0
LINE
  5
321
330
3C
100
AcDbEntity
  8
1
  6
Continuous
 62
     3
100
AcDbLine
 10
-26.01735106520988
 20
-1268.18511502428
 30
0.0
 11
-26.01735106520988
 21
-1264.68511502428
 31
0.0
  0
LINE
  5
322
330
3C
100
AcDbEntity
  8
1
  6
Continuous
 62
     3
100
AcDbLine
 10
-38.01735106520988
 20
-1268.18511502428
 30
0.0
 11
-38.01735106520977
 21
-1264.68511502428
 31
0.0
  0
LINE
  5
323
330
3C
100
AcDbEntity
  8
1
  6
DASH_CENTER
 62
     1
100
AcDbLine
 10
-32.01735106520988
 20
-1251.68511502428
 30
0.0
 11
-32.01735106520988
 21
-1272.54539404511
 31
0.0
  0
LINE
  5
324
330
3C
100
AcDbEntity
  8
1
  6
DASH_CENTER
 62
     1
100
AcDbLine
 10
-142.5173510652099
 20
-1251.68511502428
 30
0.0
 11
-142.5173510652099
 21
-1272.54539404511
 31
0.0
  0
LINE
  5
325
330
3C
100
AcDbEntity
  8
1
  6
Continuous
 62
     3
100
AcDbLine
 10
-148.5173510652099
 20
-1268.18511502428
 30
0.0
 11
-148.5173510652097
 21
-1264.68511502428
 31
0.0
  0
LINE
  5
326
330
3C
100
AcDbEntity
  8
1
  6
Continuous
 62
     3
100
AcDbLine
 10
-136.5173510652099
 20
-1268.18511502428
 30
0.0
 11
-136.5173510652099
 21
-1264.68511502428
 31
0.0
  0
LINE
  5
327
330
3C
100
AcDbEntity
  8
1
  6
Continuous
 62
     3
100
AcDbLine
 10
-138.8516314905561
 20
-1264.68511502428
 30
0.0
 11
-146.1830706398637
 21
-1264.68511502428
 31
0.0
  0
LINE
  5
328
330
3C
100
AcDbEntity
  8
1
  6
Continuous
 62
     2
100
AcDbLine
 10
-138.8516314905561
 20
-1255.69511502428
 30
0.0
 11
-146.1830706398637
 21
-1264.68511502428
 31
0.0
  0
LINE
  5
329
330
3C
100
AcDbEntity
  8
1
  6
Continuous
 62
     3
100
AcDbLine
 10
-137.7673510652099
 20
-1264.68511502428
 30
0.0
 11
-138.8516314905561
 21
-1264.68511502428
 31
0.0
  0
LINE
  5
32A
330
3C
100
AcDbEntity
  8
1
  6
Continuous
 62
     2
100
AcDbLine
 10
-138.8516314905561
 20
-1264.68511502428
 30
0.0
 11
-146.1830706398637
 21
-1255.69511502428
 31
0.0
  0
LINE
  5
32B
330
3C
100
AcDbEntity
  8
1
  6
Continuous
 62
     3
100
AcDbLine
 10
-147.2673510652097
 20
-1256.18511502428
 30
0.0
 11
-147.2673510652099
 21
-1255.69511502428
 31
0.0
  0
LINE
  5
32C
330
3C
100
AcDbEntity
  8
1
  6
Continuous
 62
     3
100
AcDbLine
 10
-146.1830706398637
 20
-1255.69511502428
 30
0.0
 11
-147.2673510652099
 21
-1255.69511502428
 31
0.0
  0
LINE
  5
32D
330
3C
100
AcDbEntity
  8
1
  6
Continuous
 62
     3
100
AcDbLine
 10
-137.7673510652097
 20
-1254.973790158875
 30
0.0
 11
-137.7673510652099
 21
-1255.69511502428
 31
0.0
  0
LINE
  5
32E
330
3C
100
AcDbEntity
  8
1
  6
Continuous
 62
     3
100
AcDbLine
 10
-138.8516314905561
 20
-1264.68511502428
 30
0.0
 11
-138.8516314905561
 21
-1255.69511502428
 31
0.0
  0
LINE
  5
32F
330
3C
100
AcDbEntity
  8
1
  6
Continuous
 62
     3
100
AcDbLine
 10
-137.7673510652099
 20
-1255.69511502428
 30
0.0
 11
-138.8516314905561
 21
-1255.69511502428
 31
0.0
  0
LINE
  5
330
330
3C
100
AcDbEntity
  8
1
  6
Continuous
 62
     3
100
AcDbLine
 10
-137.7673510652097
 20
-1254.973790158875
 30
0.0
 11
-138.2673510652099
 21
-1254.68511502428
 31
0.0
  0
LINE
  5
331
330
3C
100
AcDbEntity
  8
1
  6
Continuous
 62
     3
100
AcDbLine
 10
-146.7673510652099
 20
-1254.68511502428
 30
0.0
 11
-147.2673510652099
 21
-1254.973790158875
 31
0.0
  0
LINE
  5
332
330
3C
100
AcDbEntity
  8
1
  6
Continuous
 62
     3
100
AcDbLine
 10
-137.7673510652099
 20
-1255.69511502428
 30
0.0
 11
-137.7673510652099
 21
-1264.68511502428
 31
0.0
  0
LINE
  5
333
330
3C
100
AcDbEntity
  8
1
  6
Continuous
 62
     3
100
AcDbLine
 10
-146.1830706398637
 20
-1255.69511502428
 30
0.0
 11
-146.1830706398637
 21
-1264.68511502428
 31
0.0
  0
LINE
  5
334
330
3C
100
AcDbEntity
  8
1
  6
Continuous
 62
     3
100
AcDbLine
 10
-138.2673510652099
 20
-1254.68511502428
 30
0.0
 11
-146.7673510652099
 21
-1254.68511502428
 31
0.0
  0
LINE
  5
335
330
3C
100
AcDbEntity
  8
1
  6
Continuous
 62
     3
100
AcDbLine
 10
-147.2673510652099
 20
-1255.69511502428
 30
0.0
 11
-147.2673510652099
 21
-1254.973790158875
 31
0.0
  0
LINE
  5
336
330
3C
100
AcDbEntity
  8
1
  6
Continuous
 62
     3
100
AcDbLine
 10
-147.2673510652099
 20
-1264.68511502428
 30
0.0
 11
-148.5173510652097
 21
-1264.68511502428
 31
0.0
  0
LINE
  5
337
330
3C
100
AcDbEntity
  8
1
  6
Continuous
 62
     3
100
AcDbLine
 10
-146.1830706398637
 20
-1264.68511502428
 30
0.0
 11
-147.2673510652099
 21
-1264.68511502428
 31
0.0
  0
LINE
  5
338
330
3C
100
AcDbEntity
  8
1
  6
Continuous
 62
     3
100
AcDbLine
 10
-136.5173510652099
 20
-1264.68511502428
 30
0.0
 11
-137.7673510652099
 21
-1264.68511502428
 31
0.0
  0
LINE
  5
339
330
3C
100
AcDbEntity
  8
1
  6
Continuous
 62
     3
100
AcDbLine
 10
-147.2673510652099
 20
-1264.68511502428
 30
0.0
 11
-147.2673510652097
 21
-1256.18511502428
 31
0.0
  0
ARC
  5
33A
330
3C
100
AcDbEntity
  8
1
  6
Continuous
 62
     3
100
AcDbCircle
 10
-252.5173510652099
 20
-1264.648910365366
 30
0.0
 40
9.675120206491005
100
AcDbArc
 50
67.73561128814275
 51
112.2643887118582
  0
ARC
  5
33B
330
3C
100
AcDbEntity
  8
1
  6
Continuous
 62
     3
100
AcDbCircle
 10
-357.329225823906
 20
-1264.648910365366
 30
0.0
 40
9.675120206491037
100
AcDbArc
 50
67.73561128814229
 51
112.264388711858
  0
ARC
  5
33C
330
3C
100
AcDbEntity
  8
1
  6
Continuous
 62
     3
100
AcDbCircle
 10
-32.01735106520988
 20
-1264.648910365366
 30
0.0
 40
9.675120206491018
100
AcDbArc
 50
67.73561128814258
 51
112.2643887118581
  0
ARC
  5
33D
330
3C
100
AcDbEntity
  8
1
  6
Continuous
 62
     3
100
AcDbCircle
 10
-142.5173510652099
 20
-1264.648910365366
 30
0.0
 40
9.675120206491048
100
AcDbArc
 50
67.73561128814214
 51
112.2643887118577
  0
CIRCLE
  5
33E
330
3C
100
AcDbEntity
  8
1
  6
Continuous
 62
     3
100
AcDbCircle
 10
-252.5173510652099
 20
-1201.85662201397
 30
0.0
 40
6.000000000000011
  0
CIRCLE
  5
33F
330
3C
100
AcDbEntity
  8
1
  6
Continuous
 62
     3
100
AcDbCircle
 10
-252.5173510652099
 20
-1201.85662201397
 30
0.0
 40
4.250000000000085
  0
ENDBLK
  5
3E
330
3C
100
AcDbEntity
  8
0
100
AcDbBlockEnd
  0
BLOCK
  5
40
330
3F
100
AcDbEntity
  8
0
100
AcDbBlockBegin
  2
_2
 70
     0
 71
     0
 10
-422.5699444074461
 20
-596.6193529016481
 30
0.0
  3
_2
  1

  0
LINE
  5
340
330
3F
100
AcDbEntity
  8
6_ALL_DRFT_GEOM
  6
Continuous
 62
     3
100
AcDbLine
 10
-240.1173510652099
 20
-1201.85662201397
 30
0.0
 11
-245.0173510652099
 21
-1201.85662201397
 31
0.0
  0
LINE
  5
341
330
3F
100
AcDbEntity
  8
1
  6
Continuous
 62
     3
100
AcDbLine
 10
-238.4487510175139
 20
-1208.120366317337
 30
0.0
 11
-240.1388101141527
 21
-1207.367903527647
 31
0.0
  0
LINE
  5
342
330
3F
100
AcDbEntity
  8
1
  6
Continuous
 62
     3
100
AcDbLine
 10
-247.4414317244244
 20
-1214.41996324335
 30
0.0
 11
-246.7484095266049
 21
-1216.135253374299
 31
0.0
  0
LINE
  5
343
330
3F
100
AcDbEntity
  8
1
  6
Continuous
 62
     3
100
AcDbLine
 10
-258.7810953685773
 20
-1215.925222061666
 30
0.0
 11
-258.0286325788871
 21
-1214.235162965028
 31
0.0
  0
LINE
  5
344
330
3F
100
AcDbEntity
  8
1
  6
Continuous
 62
     3
100
AcDbLine
 10
-265.0806922945899
 20
-1206.932541354756
 30
0.0
 11
-266.7959824255385
 21
-1207.625563552575
 31
0.0
  0
LINE
  5
345
330
3F
100
AcDbEntity
  8
1
  6
Continuous
 62
     3
100
AcDbLine
 10
-257.5932704059956
 20
-1189.29328078459
 30
0.0
 11
-258.286292603815
 21
-1187.577990653642
 31
0.0
  0
LINE
  5
346
330
3F
100
AcDbEntity
  8
1
  6
Continuous
 62
     3
100
AcDbLine
 10
-266.5859511129061
 20
-1195.592877710603
 30
0.0
 11
-264.8958920162672
 21
-1196.345340500293
 31
0.0
  0
LINE
  5
347
330
3F
100
AcDbEntity
  8
1
  6
Continuous
 62
     3
100
AcDbLine
 10
-239.95400983583
 20
-1196.780702673184
 30
0.0
 11
-238.2387197048814
 21
-1196.087680475365
 31
0.0
  0
LINE
  5
348
330
3F
100
AcDbEntity
  8
1
  6
Continuous
 62
     3
100
AcDbLine
 10
-246.2536067618426
 20
-1187.788021966274
 30
0.0
 11
-247.0060695515329
 21
-1189.478081062913
 31
0.0
  0
LINE
  5
349
330
3F
100
AcDbEntity
  8
1
  6
DASH_CENTER
 62
     1
100
AcDbLine
 10
-357.329225823906
 20
-1264.648910365366
 30
0.0
 11
-357.329225823906
 21
-1282.409246723388
 31
0.0
  0
LINE
  5
34A
330
3F
100
AcDbEntity
  8
1
  6
Continuous
 62
     3
100
AcDbLine
 10
-343.829225823906
 20
-1274.68511502428
 30
0.0
 11
-343.829225823906
 21
-1279.68511502428
 31
0.0
  0
LINE
  5
34B
330
3F
100
AcDbEntity
  8
1
  6
Continuous
 62
     3
100
AcDbLine
 10
-343.41944495735
 20
-1274.68511502428
 30
0.0
 11
-351.9976858043546
 21
-1274.68511502428
 31
0.0
  0
LINE
  5
34C
330
3F
100
AcDbEntity
  8
1
  6
Continuous
 62
     3
100
AcDbLine
 10
-350.4905127692156
 20
-1274.68511502428
 30
0.0
 11
-350.4905127692156
 21
-1268.18511502428
 31
0.0
  0
LINE
  5
34D
330
3F
100
AcDbEntity
  8
1
  6
Continuous
 62
     3
100
AcDbLine
 10
-351.9976858043546
 20
-1274.68511502428
 30
0.0
 11
-351.9976858043546
 21
-1268.18511502428
 31
0.0
  0
LINE
  5
34E
330
3F
100
AcDbEntity
  8
1
  6
Continuous
 62
     3
100
AcDbLine
 10
-362.6607658434574
 20
-1268.18511502428
 30
0.0
 11
-362.6607658434574
 21
-1274.68511502428
 31
0.0
  0
LINE
  5
34F
330
3F
100
AcDbEntity
  8
1
  6
Continuous
 62
     3
100
AcDbLine
 10
-364.1679388785965
 20
-1268.18511502428
 30
0.0
 11
-364.1679388785965
 21
-1274.68511502428
 31
0.0
  0
LINE
  5
350
330
3F
100
AcDbEntity
  8
1
  6
Continuous
 62
     3
100
AcDbLine
 10
-370.829225823906
 20
-1279.68511502428
 30
0.0
 11
-370.829225823906
 21
-1274.68511502428
 31
0.0
  0
LINE
  5
351
330
3F
100
AcDbEntity
  8
1
  6
Continuous
 62
     3
100
AcDbLine
 10
-362.6607658434574
 20
-1274.68511502428
 30
0.0
 11
-371.239006690462
 21
-1274.68511502428
 31
0.0
  0
LINE
  5
352
330
3F
100
AcDbEntity
  8
1
  6
Continuous
 62
     3
100
AcDbLine
 10
-343.41944495735
 20
-1268.18511502428
 30
0.0
 11
-343.41944495735
 21
-1274.68511502428
 31
0.0
  0
LINE
  5
353
330
3F
100
AcDbEntity
  8
1
  6
Continuous
 62
     3
100
AcDbLine
 10
-343.41944495735
 20
-1268.18511502428
 30
0.0
 11
-357.329225823906
 21
-1268.18511502428
 31
0.0
  0
LINE
  5
354
330
3F
100
AcDbEntity
  8
1
  6
Continuous
 62
     3
100
AcDbLine
 10
-357.329225823906
 20
-1268.18511502428
 30
0.0
 11
-371.239006690462
 21
-1268.18511502428
 31
0.0
  0
LINE
  5
355
330
3F
100
AcDbEntity
  8
1
  6
Continuous
 62
     3
100
AcDbLine
 10
-371.239006690462
 20
-1274.68511502428
 30
0.0
 11
-371.239006690462
 21
-1268.18511502428
 31
0.0
  0
LINE
  5
356
330
3F
100
AcDbEntity
  8
1
  6
Continuous
 62
     3
100
AcDbLine
 10
-266.427131931766
 20
-1274.68511502428
 30
0.0
 11
-266.427131931766
 21
-1268.18511502428
 31
0.0
  0
LINE
  5
357
330
3F
100
AcDbEntity
  8
1
  6
Continuous
 62
     3
100
AcDbLine
 10
-252.5173510652099
 20
-1268.18511502428
 30
0.0
 11
-266.427131931766
 21
-1268.18511502428
 31
0.0
  0
LINE
  5
358
330
3F
100
AcDbEntity
  8
1
  6
Continuous
 62
     3
100
AcDbLine
 10
-238.607570198654
 20
-1268.18511502428
 30
0.0
 11
-252.5173510652099
 21
-1268.18511502428
 31
0.0
  0
LINE
  5
359
330
3F
100
AcDbEntity
  8
1
  6
Continuous
 62
     3
100
AcDbLine
 10
-238.607570198654
 20
-1268.18511502428
 30
0.0
 11
-238.607570198654
 21
-1274.68511502428
 31
0.0
  0
LINE
  5
35A
330
3F
100
AcDbEntity
  8
1
  6
Continuous
 62
     3
100
AcDbLine
 10
-257.8488910847614
 20
-1274.68511502428
 30
0.0
 11
-266.427131931766
 21
-1274.68511502428
 31
0.0
  0
LINE
  5
35B
330
3F
100
AcDbEntity
  8
1
  6
Continuous
 62
     3
100
AcDbLine
 10
-266.0173510652099
 20
-1279.68511502428
 30
0.0
 11
-266.0173510652099
 21
-1274.68511502428
 31
0.0
  0
LINE
  5
35C
330
3F
100
AcDbEntity
  8
1
  6
Continuous
 62
     3
100
AcDbLine
 10
-259.3560641199005
 20
-1268.18511502428
 30
0.0
 11
-259.3560641199005
 21
-1274.68511502428
 31
0.0
  0
LINE
  5
35D
330
3F
100
AcDbEntity
  8
1
  6
Continuous
 62
     3
100
AcDbLine
 10
-257.8488910847614
 20
-1268.18511502428
 30
0.0
 11
-257.8488910847614
 21
-1274.68511502428
 31
0.0
  0
LINE
  5
35E
330
3F
100
AcDbEntity
  8
1
  6
Continuous
 62
     3
100
AcDbLine
 10
-247.1858110456585
 20
-1274.68511502428
 30
0.0
 11
-247.1858110456585
 21
-1268.18511502428
 31
0.0
  0
LINE
  5
35F
330
3F
100
AcDbEntity
  8
1
  6
Continuous
 62
     3
100
AcDbLine
 10
-245.6786380105195
 20
-1274.68511502428
 30
0.0
 11
-245.6786380105195
 21
-1268.18511502428
 31
0.0
  0
LINE
  5
360
330
3F
100
AcDbEntity
  8
1
  6
Continuous
 62
     3
100
AcDbLine
 10
-238.607570198654
 20
-1274.68511502428
 30
0.0
 11
-247.1858110456585
 21
-1274.68511502428
 31
0.0
  0
LINE
  5
361
330
3F
100
AcDbEntity
  8
1
  6
Continuous
 62
     3
100
AcDbLine
 10
-239.0173510652099
 20
-1274.68511502428
 30
0.0
 11
-239.0173510652099
 21
-1279.68511502428
 31
0.0
  0
LINE
  5
362
330
3F
100
AcDbEntity
  8
1
  6
DASH_CENTER
 62
     1
100
AcDbLine
 10
-252.5173510652099
 20
-1264.648910365366
 30
0.0
 11
-252.5173510652099
 21
-1282.409246723388
 31
0.0
  0
LINE
  5
363
330
3F
100
AcDbEntity
  8
1
  6
Continuous
 62
     3
100
AcDbLine
 10
-45.92713193176593
 20
-1274.68511502428
 30
0.0
 11
-45.92713193176593
 21
-1268.18511502428
 31
0.0
  0
LINE
  5
364
330
3F
100
AcDbEntity
  8
1
  6
Continuous
 62
     3
100
AcDbLine
 10
-32.01735106520988
 20
-1268.18511502428
 30
0.0
 11
-45.92713193176593
 21
-1268.18511502428
 31
0.0
  0
LINE
  5
365
330
3F
100
AcDbEntity
  8
1
  6
Continuous
 62
     3
100
AcDbLine
 10
-18.10757019865395
 20
-1268.18511502428
 30
0.0
 11
-32.01735106520988
 21
-1268.18511502428
 31
0.0
  0
LINE
  5
366
330
3F
100
AcDbEntity
  8
1
  6
Continuous
 62
     3
100
AcDbLine
 10
-18.10757019865395
 20
-1268.18511502428
 30
0.0
 11
-18.10757019865395
 21
-1274.68511502428
 31
0.0
  0
LINE
  5
367
330
3F
100
AcDbEntity
  8
1
  6
Continuous
 62
     3
100
AcDbLine
 10
-37.34889108476131
 20
-1274.68511502428
 30
0.0
 11
-45.92713193176593
 21
-1274.68511502428
 31
0.0
  0
LINE
  5
368
330
3F
100
AcDbEntity
  8
1
  6
Continuous
 62
     3
100
AcDbLine
 10
-45.51735106520988
 20
-1279.68511502428
 30
0.0
 11
-45.51735106520988
 21
-1274.68511502428
 31
0.0
  0
LINE
  5
369
330
3F
100
AcDbEntity
  8
1
  6
Continuous
 62
     3
100
AcDbLine
 10
-38.8560641199004
 20
-1268.18511502428
 30
0.0
 11
-38.8560641199004
 21
-1274.68511502428
 31
0.0
  0
LINE
  5
36A
330
3F
100
AcDbEntity
  8
1
  6
Continuous
 62
     3
100
AcDbLine
 10
-37.34889108476131
 20
-1268.18511502428
 30
0.0
 11
-37.34889108476131
 21
-1274.68511502428
 31
0.0
  0
LINE
  5
36B
330
3F
100
AcDbEntity
  8
1
  6
Continuous
 62
     3
100
AcDbLine
 10
-26.68581104565845
 20
-1274.68511502428
 30
0.0
 11
-26.68581104565845
 21
-1268.18511502428
 31
0.0
  0
LINE
  5
36C
330
3F
100
AcDbEntity
  8
1
  6
Continuous
 62
     3
100
AcDbLine
 10
-25.17863801051949
 20
-1274.68511502428
 30
0.0
 11
-25.17863801051949
 21
-1268.18511502428
 31
0.0
  0
LINE
  5
36D
330
3F
100
AcDbEntity
  8
1
  6
Continuous
 62
     3
100
AcDbLine
 10
-18.10757019865395
 20
-1274.68511502428
 30
0.0
 11
-26.68581104565845
 21
-1274.68511502428
 31
0.0
  0
LINE
  5
36E
330
3F
100
AcDbEntity
  8
1
  6
Continuous
 62
     3
100
AcDbLine
 10
-18.51735106520988
 20
-1274.68511502428
 30
0.0
 11
-18.51735106520988
 21
-1279.68511502428
 31
0.0
  0
LINE
  5
36F
330
3F
100
AcDbEntity
  8
1
  6
DASH_CENTER
 62
     1
100
AcDbLine
 10
-32.01735106520988
 20
-1264.648910365366
 30
0.0
 11
-32.01735106520988
 21
-1282.409246723388
 31
0.0
  0
LINE
  5
370
330
3F
100
AcDbEntity
  8
1
  6
DASH_CENTER
 62
     1
100
AcDbLine
 10
-142.5173510652099
 20
-1264.648910365366
 30
0.0
 11
-142.5173510652099
 21
-1282.409246723388
 31
0.0
  0
LINE
  5
371
330
3F
100
AcDbEntity
  8
1
  6
Continuous
 62
     3
100
AcDbLine
 10
-129.0173510652099
 20
-1274.68511502428
 30
0.0
 11
-129.0173510652099
 21
-1279.68511502428
 31
0.0
  0
LINE
  5
372
330
3F
100
AcDbEntity
  8
1
  6
Continuous
 62
     3
100
AcDbLine
 10
-128.6075701986539
 20
-1274.68511502428
 30
0.0
 11
-137.1858110456585
 21
-1274.68511502428
 31
0.0
  0
LINE
  5
373
330
3F
100
AcDbEntity
  8
1
  6
Continuous
 62
     3
100
AcDbLine
 10
-135.6786380105194
 20
-1274.68511502428
 30
0.0
 11
-135.6786380105194
 21
-1268.18511502428
 31
0.0
  0
LINE
  5
374
330
3F
100
AcDbEntity
  8
1
  6
Continuous
 62
     3
100
AcDbLine
 10
-137.1858110456585
 20
-1274.68511502428
 30
0.0
 11
-137.1858110456585
 21
-1268.18511502428
 31
0.0
  0
LINE
  5
375
330
3F
100
AcDbEntity
  8
1
  6
Continuous
 62
     3
100
AcDbLine
 10
-147.8488910847613
 20
-1268.18511502428
 30
0.0
 11
-147.8488910847613
 21
-1274.68511502428
 31
0.0
  0
LINE
  5
376
330
3F
100
AcDbEntity
  8
1
  6
Continuous
 62
     3
100
AcDbLine
 10
-149.3560641199005
 20
-1268.18511502428
 30
0.0
 11
-149.3560641199005
 21
-1274.68511502428
 31
0.0
  0
LINE
  5
377
330
3F
100
AcDbEntity
  8
1
  6
Continuous
 62
     3
100
AcDbLine
 10
-156.0173510652099
 20
-1279.68511502428
 30
0.0
 11
-156.0173510652099
 21
-1274.68511502428
 31
0.0
  0
LINE
  5
378
330
3F
100
AcDbEntity
  8
1
  6
Continuous
 62
     3
100
AcDbLine
 10
-147.8488910847613
 20
-1274.68511502428
 30
0.0
 11
-156.427131931766
 21
-1274.68511502428
 31
0.0
  0
LINE
  5
379
330
3F
100
AcDbEntity
  8
1
  6
Continuous
 62
     3
100
AcDbLine
 10
-128.6075701986539
 20
-1268.18511502428
 30
0.0
 11
-128.6075701986539
 21
-1274.68511502428
 31
0.0
  0
LINE
  5
37A
330
3F
100
AcDbEntity
  8
1
  6
Continuous
 62
     3
100
AcDbLine
 10
-128.6075701986539
 20
-1268.18511502428
 30
0.0
 11
-142.5173510652099
 21
-1268.18511502428
 31
0.0
  0
LINE
  5
37B
330
3F
100
AcDbEntity
  8
1
  6
Continuous
 62
     3
100
AcDbLine
 10
-142.5173510652099
 20
-1268.18511502428
 30
0.0
 11
-156.427131931766
 21
-1268.18511502428
 31
0.0
  0
LINE
  5
37C
330
3F
100
AcDbEntity
  8
1
  6
Continuous
 62
     3
100
AcDbLine
 10
-156.427131931766
 20
-1274.68511502428
 30
0.0
 11
-156.427131931766
 21
-1268.18511502428
 31
0.0
  0
ARC
  5
37D
330
3F
100
AcDbEntity
  8
6_ALL_DRFT_GEOM
  6
Continuous
 62
     3
100
AcDbCircle
 10
-252.5173510652099
 20
-1201.85662201397
 30
0.0
 40
7.5
100
AcDbArc
 50
-90.00000000000065
 51
0.0
  0
ARC
  5
37E
330
3F
100
AcDbEntity
  8
1
  6
Continuous
 62
     3
100
AcDbCircle
 10
-249.884133766223
 20
-1199.709541281628
 30
0.0
 40
10.00000000000058
100
AcDbArc
 50
-105.2672535353395
 51
-12.39840117245857
  0
ARC
  5
37F
330
3F
100
AcDbEntity
  8
1
  6
Continuous
 62
     3
100
AcDbCircle
 10
-252.5173510652099
 20
-1201.85662201397
 30
0.0
 40
13.54999999999992
100
AcDbArc
 50
-23.99999999999962
 51
0.0
  0
ARC
  5
380
330
3F
100
AcDbEntity
  8
1
  6
Continuous
 62
     3
100
AcDbCircle
 10
-252.5173510652099
 20
-1201.85662201397
 30
0.0
 40
15.40000000000041
100
AcDbArc
 50
-68.00000000000071
 51
-23.99999999999836
  0
ARC
  5
381
330
3F
100
AcDbEntity
  8
1
  6
Continuous
 62
     3
100
AcDbCircle
 10
-252.5173510652099
 20
-1201.85662201397
 30
0.0
 40
13.54999999999983
100
AcDbArc
 50
-68.0000000000002
 51
-23.99999999999962
  0
ARC
  5
382
330
3F
100
AcDbEntity
  8
1
  6
Continuous
 62
     3
100
AcDbCircle
 10
-252.5173510652099
 20
-1201.85662201397
 30
0.0
 40
13.5500000000006
100
AcDbArc
 50
-113.9999999999993
 51
-68.0000000000002
  0
ARC
  5
383
330
3F
100
AcDbEntity
  8
1
  6
Continuous
 62
     3
100
AcDbCircle
 10
-252.5173510652099
 20
-1201.85662201397
 30
0.0
 40
15.4
100
AcDbArc
 50
-158.0000000000008
 51
-114.0000000000004
  0
ARC
  5
384
330
3F
100
AcDbEntity
  8
1
  6
Continuous
 62
     3
100
AcDbCircle
 10
-252.5173510652099
 20
-1201.85662201397
 30
0.0
 40
13.55000000000013
100
AcDbArc
 50
-157.9999999999986
 51
-113.9999999999993
  0
ARC
  5
385
330
3F
100
AcDbEntity
  8
1
  6
Continuous
 62
     3
100
AcDbCircle
 10
-252.5173510652099
 20
-1201.85662201397
 30
0.0
 40
13.55000000000002
100
AcDbArc
 50
156.0000000000006
 51
-157.9999999999986
  0
ARC
  5
386
330
3F
100
AcDbEntity
  8
1
  6
Continuous
 62
     3
100
AcDbCircle
 10
-252.5173510652099
 20
-1201.85662201397
 30
0.0
 40
15.39999999999959
100
AcDbArc
 50
112.0000000000009
 51
156.0000000000012
  0
ARC
  5
387
330
3F
100
AcDbEntity
  8
1
  6
Continuous
 62
     3
100
AcDbCircle
 10
-252.5173510652099
 20
-1201.85662201397
 30
0.0
 40
13.55000000000012
100
AcDbArc
 50
112.0000000000002
 51
156.0000000000006
  0
ARC
  5
388
330
3F
100
AcDbEntity
  8
1
  6
Continuous
 62
     3
100
AcDbCircle
 10
-252.5173510652099
 20
-1201.85662201397
 30
0.0
 40
13.54999999999991
100
AcDbArc
 50
66.00000000000021
 51
112.0000000000002
  0
ARC
  5
389
330
3F
100
AcDbEntity
  8
1
  6
Continuous
 62
     3
100
AcDbCircle
 10
-252.5173510652099
 20
-1201.85662201397
 30
0.0
 40
15.4
100
AcDbArc
 50
22.00000000000012
 51
66.0
  0
ARC
  5
38A
330
3F
100
AcDbEntity
  8
1
  6
Continuous
 62
     3
100
AcDbCircle
 10
-252.5173510652099
 20
-1201.85662201397
 30
0.0
 40
13.5499999999999
100
AcDbArc
 50
0.0
 51
66.00000000000021
  0
LWPOLYLINE
  5
38B
330
3F
100
AcDbEntity
  8
6_ALL_DRFT_GEOM
  6
Continuous
 62
     3
 60
     1
100
AcDbPolyline
 90
        4
 70
     0
 43
0.0
 10
-255.0173509931099
 20
-1199.85662201397
 10
-255.0173509931099
 20
-1203.85662201397
 10
-249.0173510652099
 20
-1201.85662201397
 10
-255.0173509931099
 20
-1199.85662201397
  0
MTEXT
  5
38D
330
3F
100
AcDbEntity
  8
0
 62
     3
100
AcDbMText
 10
-253.3887449655099
 20
-1210.72505832987
 30
0.0
 40
3.0
 41
0.0
 71
     7
 72
     1
  1
0
  7
CONVERTER_2
 11
-1.0
 21
3.673819061467132E-16
 31
0.0
 73
     1
 44
0.60024009603842
  0
MTEXT
  5
38E
330
3F
100
AcDbEntity
  8
0
 62
     3
100
AcDbMText
 10
-245.1511726564099
 20
-1194.96766231457
 30
0.0
 40
3.0
 41
0.0
 71
     7
 72
     1
  1
100
  7
CONVERTER_2
 11
-1.836909530733566E-16
 21
-1.0
 31
0.0
 73
     1
 44
0.60024009603842
  0
ENDBLK
  5
41
330
3F
100
AcDbEntity
  8
0
100
AcDbBlockEnd
  0
BLOCK
  5
43
330
42
100
AcDbEntity
  8
0
100
AcDbBlockBegin
  2
Top__4
 70
     0
 71
     0
 10
156.531157721009
 20
-790.037384601348
 30
0.0
  3
Top__4
  1

  0
POINT
  5
38F
330
42
100
AcDbEntity
  8
1
 62
     3
 60
     1
100
AcDbPoint
 10
285.5843385951921
 20
-842.1359157022259
 30
0.0
  0
POINT
  5
390
330
42
100
AcDbEntity
  8
1
 62
     3
 60
     1
100
AcDbPoint
 10
285.5843385951921
 20
-795.4038648946571
 30
0.0
  0
POINT
  5
391
330
42
100
AcDbEntity
  8
1
 62
     3
 60
     1
100
AcDbPoint
 10
351.0843385951921
 20
-826.5884797305997
 30
0.0
  0
POINT
  5
392
330
42
100
AcDbEntity
  8
1
 62
     3
 60
     1
100
AcDbPoint
 10
351.0843385951921
 20
-811.2192500587146
 30
0.0
  0
POINT
  5
393
330
42
100
AcDbEntity
  8
1
 62
     3
 60
     1
100
AcDbPoint
 10
351.0843385951921
 20
-798.421814087088
 30
0.0
  0
POINT
  5
394
330
42
100
AcDbEntity
  8
1
 62
     3
 60
     1
100
AcDbPoint
 10
283.579817669876
 20
-749.7606709154261
 30
0.0
  0
POINT
  5
395
330
42
100
AcDbEntity
  8
1
 62
     3
 60
     1
100
AcDbPoint
 10
286.5205475662431
 20
-744.6671773235814
 30
0.0
  0
POINT
  5
396
330
42
100
AcDbEntity
  8
1
 62
     3
 60
     1
100
AcDbPoint
 10
281.6168267546312
 20
-749.7606709154261
 30
0.0
  0
POINT
  5
397
330
42
100
AcDbEntity
  8
1
 62
     3
 60
     1
100
AcDbPoint
 10
284.5575566509983
 20
-744.6671773235814
 30
0.0
  0
POINT
  5
398
330
42
100
AcDbEntity
  8
1
 62
     3
 60
     1
100
AcDbPoint
 10
159.0631648349262
 20
-876.0418473120424
 30
0.0
  0
POINT
  5
399
330
42
100
AcDbEntity
  8
1
 62
     3
 60
     1
100
AcDbPoint
 10
157.1001739196814
 20
-876.0418473120424
 30
0.0
  0
POINT
  5
39A
330
42
100
AcDbEntity
  8
1
 62
     3
 60
     1
100
AcDbPoint
 10
160.0409038160485
 20
-870.9483537201977
 30
0.0
  0
POINT
  5
39B
330
42
100
AcDbEntity
  8
1
 62
     3
 60
     1
100
AcDbPoint
 10
162.0038947312933
 20
-870.9483537201977
 30
0.0
  0
LINE
  5
39C
330
42
100
AcDbEntity
  8
1
  6
Continuous
 62
     3
100
AcDbLine
 10
-232.51735106521
 20
-1204.685049138716
 30
0.0
 11
-232.51735106521
 21
-1215.85662201397
 31
0.0
  0
LINE
  5
39D
330
42
100
AcDbEntity
  8
1
  6
Continuous
 62
     3
100
AcDbLine
 10
-272.5173510652099
 20
-1215.85662201397
 30
0.0
 11
-272.5173510652099
 21
-1201.85662201397
 31
0.0
  0
LINE
  5
39E
330
42
100
AcDbEntity
  8
1
  6
Continuous
 62
     3
100
AcDbLine
 10
-232.51735106521
 20
-1187.85662201397
 30
0.0
 11
-232.51735106521
 21
-1199.028194889224
 31
0.0
  0
LINE
  5
39F
330
42
100
AcDbEntity
  8
1
  6
Continuous
 62
     3
100
AcDbLine
 10
-272.5173510652099
 20
-1201.85662201397
 30
0.0
 11
-272.5173510652099
 21
-1187.85662201397
 31
0.0
  0
LINE
  5
3A0
330
42
100
AcDbEntity
  8
1
  6
DOT_CENTER
 62
     1
100
AcDbLine
 10
-304.0173510652099
 20
-1201.85662201397
 30
0.0
 11
-196.314129627211
 21
-1201.85662201397
 31
0.0
  0
ARC
  5
3A1
330
42
100
AcDbEntity
  8
1
  6
Continuous
 62
     3
100
AcDbCircle
 10
-232.51735106521
 20
-1201.85662201397
 30
0.0
 40
1.999999999999878
100
AcDbArc
 50
-70.52877936550749
 51
70.52877936550749
  0
ARC
  5
3A2
330
42
100
AcDbEntity
  8
1
  6
Continuous
 62
     3
100
AcDbCircle
 10
-252.5173510652099
 20
-1229.85662201397
 30
0.0
 40
14.00000000000008
100
AcDbArc
 50
50.30180115945529
 51
129.6981988405453
  0
ARC
  5
3A3
330
42
100
AcDbEntity
  8
1
  6
Continuous
 62
     3
100
AcDbCircle
 10
-252.5173510652099
 20
-1173.85662201397
 30
0.0
 40
14.00000000000012
100
AcDbArc
 50
-129.6981988405449
 51
-50.30180115945529
  0
CIRCLE
  5
3A4
330
42
100
AcDbEntity
  8
1
  6
Continuous
 62
     3
100
AcDbCircle
 10
-238.375215441479
 20
-1187.714486390239
 30
0.0
 40
2.5
  0
CIRCLE
  5
3A5
330
42
100
AcDbEntity
  8
1
  6
Continuous
 62
     3
100
AcDbCircle
 10
-266.659486688941
 20
-1215.998757637701
 30
0.0
 40
2.5
  0
CIRCLE
  5
3A6
330
42
100
AcDbEntity
  8
1
  6
Continuous
 62
     3
100
AcDbCircle
 10
-266.659486688941
 20
-1187.714486390239
 30
0.0
 40
2.5
  0
CIRCLE
  5
3A7
330
42
100
AcDbEntity
  8
1
  6
Continuous
 62
     3
100
AcDbCircle
 10
-238.375215441479
 20
-1215.998757637701
 30
0.0
 40
2.5
  0
ARC
  5
3A8
330
42
100
AcDbEntity
  8
1
  6
Continuous
 62
     3
100
AcDbCircle
 10
-231.51735106521
 20
-1204.685049138716
 30
0.0
 40
0.9999999999999294
100
AcDbArc
 50
109.471220634491
 51
180.0
  0
ARC
  5
3A9
330
42
100
AcDbEntity
  8
1
  6
Continuous
 62
     3
100
AcDbCircle
 10
-231.51735106521
 20
-1199.028194889224
 30
0.0
 40
1.0
100
AcDbArc
 50
180.0
 51
-109.471220634491
  0
ARC
  5
3AA
330
42
100
AcDbEntity
  8
1
  6
Continuous
 62
     3
100
AcDbCircle
 10
-238.51735106521
 20
-1187.85662201397
 30
0.0
 40
6.0
100
AcDbArc
 50
0.0
 51
147.4509890024933
  0
ARC
  5
3AB
330
42
100
AcDbEntity
  8
1
  6
Continuous
 62
     3
100
AcDbCircle
 10
-266.5173510652099
 20
-1187.85662201397
 30
0.0
 40
6.0
100
AcDbArc
 50
90.0
 51
180.0
  0
ARC
  5
3AC
330
42
100
AcDbEntity
  8
1
  6
Continuous
 62
     3
100
AcDbCircle
 10
-266.5173510652099
 20
-1215.85662201397
 30
0.0
 40
6.0
100
AcDbArc
 50
-90.0
 51
-32.54901099750732
  0
ARC
  5
3AD
330
42
100
AcDbEntity
  8
1
  6
Continuous
 62
     3
100
AcDbCircle
 10
-238.51735106521
 20
-1215.85662201397
 30
0.0
 40
5.999999999999899
100
AcDbArc
 50
-147.4509890024933
 51
0.0
  0
ARC
  5
3AE
330
42
100
AcDbEntity
  8
1
  6
Continuous
 62
     3
100
AcDbCircle
 10
-266.5173510652099
 20
-1187.85662201397
 30
0.0
 40
5.999999999999899
100
AcDbArc
 50
32.54901099750673
 51
90.0
  0
ARC
  5
3AF
330
42
100
AcDbEntity
  8
1
  6
Continuous
 62
     3
100
AcDbCircle
 10
-266.5173510652099
 20
-1215.85662201397
 30
0.0
 40
6.0
100
AcDbArc
 50
180.0
 51
-90.0
  0
ENDBLK
  5
44
330
42
100
AcDbEntity
  8
0
100
AcDbBlockEnd
  0
BLOCK
  5
3BB
330
3B2
100
AcDbEntity
  8
0
100
AcDbBlockBegin
  2
*D07
 70
     1
 71
     0
 10
0.0
 20
0.0
 30
0.0
  3
*D07
  1

  0
LINE
  5
3B3
330
3B2
100
AcDbEntity
  8
1
  6
Continuous
 62
     2
100
AcDbLine
 10
-300.0173510652099
 20
-1397.98391120817
 30
0.0
 11
-201.5173510652099
 21
-1397.98391120817
 31
0.0
  0
LINE
  5
3B4
330
3B2
100
AcDbEntity
  8
1
  6
Continuous
 62
     2
100
AcDbLine
 10
-300.0173510652099
 20
-1374.18511502428
 30
0.0
 11
-300.0173510652099
 21
-1398.98391120817
 31
0.0
  0
LINE
  5
3B5
330
3B2
100
AcDbEntity
  8
1
  6
Continuous
 62
     2
100
AcDbLine
 10
-201.5173510652099
 20
-1374.18511502428
 30
0.0
 11
-201.5173510652099
 21
-1398.98391120817
 31
0.0
  0
LINE
  5
3B6
330
3B2
100
AcDbEntity
  8
1
 62
     2
100
AcDbLine
 10
-300.0173510652099
 20
-1397.98391120817
 30
0.0
 11
-296.5173510652099
 21
-1397.046089034661
 31
0.0
  0
LINE
  5
3B7
330
3B2
100
AcDbEntity
  8
1
 62
     2
100
AcDbLine
 10
-300.0173510652099
 20
-1397.98391120817
 30
0.0
 11
-296.5173510652099
 21
-1398.921733381679
 31
0.0
  0
LINE
  5
3B8
330
3B2
100
AcDbEntity
  8
1
 62
     2
100
AcDbLine
 10
-201.5173510652099
 20
-1397.98391120817
 30
0.0
 11
-205.0173510652099
 21
-1398.921733381679
 31
0.0
  0
LINE
  5
3B9
330
3B2
100
AcDbEntity
  8
1
 62
     2
100
AcDbLine
 10
-201.5173510652099
 20
-1397.98391120817
 30
0.0
 11
-205.0173510652099
 21
-1397.046089034661
 31
0.0
  0
MTEXT
  5
3BA
330
3B2
100
AcDbEntity
  8
1
 62
     2
100
AcDbMText
 10
-255.326031568245
 20
-1396.38391120817
 30
0.0
 40
3.5
 41
0.0
 71
     7
 72
     1
  1
98.5
  7
CONVERTER_2
 11
0.9999999999970621
 21
2.424068405545307E-6
 31
0.0
 73
     1
 44
0.60024009603842
  0
ENDBLK
  5
3BC
330
3B2
100
AcDbEntity
  8
0
100
AcDbBlockEnd
  0
BLOCK
  5
3BE
330
3BD
100
AcDbEntity
  8
0
100
AcDbBlockBegin
  2
_Open30
 70
     0
 71
     0
 10
0.0
 20
0.0
 30
0.0
  3
_Open30
  1

  0
LINE
  5
3C0
330
3BD
100
AcDbEntity
  8
0
  6
ByBlock
 62
     0
370
    -2
100
AcDbLine
 10
-1.0
 20
0.267949
 30
0.0
 11
0.0
 21
0.0
 31
0.0
  0
LINE
  5
3C1
330
3BD
100
AcDbEntity
  8
0
  6
ByBlock
 62
     0
370
    -2
100
AcDbLine
 10
0.0
 20
0.0
 30
0.0
 11
-1.0
 21
-0.267949
 31
0.0
  0
LINE
  5
3C2
330
3BD
100
AcDbEntity
  8
0
  6
ByBlock
 62
     0
370
    -2
100
AcDbLine
 10
0.0
 20
0.0
 30
0.0
 11
-1.0
 21
0.0
 31
0.0
  0
ENDBLK
  5
3BF
330
3BD
100
AcDbEntity
  8
0
100
AcDbBlockEnd
  0
BLOCK
  5
3CE
330
3C5
100
AcDbEntity
  8
0
100
AcDbBlockBegin
  2
*D19
 70
     1
 71
     0
 10
0.0
 20
0.0
 30
0.0
  3
*D19
  1

  0
LINE
  5
3C6
330
3C5
100
AcDbEntity
  8
1
  6
Continuous
 62
     2
100
AcDbLine
 10
-252.5173510652099
 20
-1386.68511502428
 30
0.0
 11
-300.0173510652099
 21
-1386.68511502428
 31
0.0
  0
LINE
  5
3C7
330
3C5
100
AcDbEntity
  8
1
  6
Continuous
 62
     2
100
AcDbLine
 10
-252.5173510652099
 20
-1379.68511502428
 30
0.0
 11
-252.5173510652099
 21
-1387.68511502428
 31
0.0
  0
LINE
  5
3C8
330
3C5
100
AcDbEntity
  8
1
  6
Continuous
 62
     2
100
AcDbLine
 10
-300.0173510652099
 20
-1374.18511502428
 30
0.0
 11
-300.0173510652099
 21
-1387.68511502428
 31
0.0
  0
LINE
  5
3C9
330
3C5
100
AcDbEntity
  8
1
 62
     2
100
AcDbLine
 10
-252.5173510652099
 20
-1386.68511502428
 30
0.0
 11
-256.0173510652099
 21
-1387.622937197789
 31
0.0
  0
LINE
  5
3CA
330
3C5
100
AcDbEntity
  8
1
 62
     2
100
AcDbLine
 10
-252.5173510652099
 20
-1386.68511502428
 30
0.0
 11
-256.0173510652099
 21
-1385.747292850771
 31
0.0
  0
LINE
  5
3CB
330
3C5
100
AcDbEntity
  8
1
 62
     2
100
AcDbLine
 10
-300.0173510652099
 20
-1386.68511502428
 30
0.0
 11
-296.5173510652099
 21
-1385.747292850771
 31
0.0
  0
LINE
  5
3CC
330
3C5
100
AcDbEntity
  8
1
 62
     2
100
AcDbLine
 10
-300.0173510652099
 20
-1386.68511502428
 30
0.0
 11
-296.5173510652099
 21
-1387.622937197789
 31
0.0
  0
MTEXT
  5
3CD
330
3C5
100
AcDbEntity
  8
1
 62
     2
100
AcDbMText
 10
-282.312997365089
 20
-1385.08511502428
 30
0.0
 40
3.5
 41
0.0
 71
     7
 72
     1
  1
47.5
  7
CONVERTER_2
 11
0.9999999999970621
 21
2.424068405545307E-6
 31
0.0
 73
     1
 44
0.60024009603842
  0
ENDBLK
  5
3CF
330
3C5
100
AcDbEntity
  8
0
100
AcDbBlockEnd
  0
BLOCK
  5
3DB
330
3D2
100
AcDbEntity
  8
0
100
AcDbBlockBegin
  2
*D210
 70
     1
 71
     0
 10
0.0
 20
0.0
 30
0.0
  3
*D210
  1

  0
LINE
  5
3D3
330
3D2
100
AcDbEntity
  8
1
  6
Continuous
 62
     2
100
AcDbLine
 10
-312.01735106521
 20
-1279.68511502428
 30
0.0
 11
-312.01735106521
 21
-1348.18511502428
 31
0.0
  0
LINE
  5
3D4
330
3D2
100
AcDbEntity
  8
1
  6
Continuous
 62
     2
100
AcDbLine
 10
-273.51735106521
 20
-1279.68511502428
 30
0.0
 11
-313.01735106521
 21
-1279.68511502428
 31
0.0
  0
LINE
  5
3D5
330
3D2
100
AcDbEntity
  8
1
  6
Continuous
 62
     2
100
AcDbLine
 10
-305.01735106521
 20
-1348.18511502428
 30
0.0
 11
-313.01735106521
 21
-1348.18511502428
 31
0.0
  0
LINE
  5
3D6
330
3D2
100
AcDbEntity
  8
1
 62
     2
100
AcDbLine
 10
-312.01735106521
 20
-1279.68511502428
 30
0.0
 11
-311.0795288917011
 21
-1283.18511502428
 31
0.0
  0
LINE
  5
3D7
330
3D2
100
AcDbEntity
  8
1
 62
     2
100
AcDbLine
 10
-312.01735106521
 20
-1279.68511502428
 30
0.0
 11
-312.9551732387189
 21
-1283.18511502428
 31
0.0
  0
LINE
  5
3D8
330
3D2
100
AcDbEntity
  8
1
 62
     2
100
AcDbLine
 10
-312.01735106521
 20
-1348.18511502428
 30
0.0
 11
-312.9551732387189
 21
-1344.68511502428
 31
0.0
  0
LINE
  5
3D9
330
3D2
100
AcDbEntity
  8
1
 62
     2
100
AcDbLine
 10
-312.01735106521
 20
-1348.18511502428
 30
0.0
 11
-311.0795288917011
 21
-1344.68511502428
 31
0.0
  0
MTEXT
  5
3DA
330
3D2
100
AcDbEntity
  8
1
 62
     2
100
AcDbMText
 10
-313.61735106521
 20
-1315.89038889426
 30
0.0
 40
3.5
 41
0.0
 71
     7
 72
     1
  1
68.5
  7
CONVERTER_2
 11
0.0
 21
1.0
 31
0.0
 73
     1
 44
0.60024009603842
  0
ENDBLK
  5
3DC
330
3D2
100
AcDbEntity
  8
0
100
AcDbBlockEnd
  0
BLOCK
  5
3E8
330
3DF
100
AcDbEntity
  8
0
100
AcDbBlockBegin
  2
*D311
 70
     1
 71
     0
 10
0.0
 20
0.0
 30
0.0
  3
*D311
  1

  0
LINE
  5
3E0
330
3DF
100
AcDbEntity
  8
1
  6
Continuous
 62
     2
100
AcDbLine
 10
-311.831288755545
 20
-1279.68511502428
 30
0.0
 11
-311.831288755545
 21
-1254.68511502428
 31
0.0
  0
LINE
  5
3E1
330
3DF
100
AcDbEntity
  8
1
  6
Continuous
 62
     2
100
AcDbLine
 10
-273.5173510652099
 20
-1279.68511502428
 30
0.0
 11
-312.831288755545
 21
-1279.68511502428
 31
0.0
  0
LINE
  5
3E2
330
3DF
100
AcDbEntity
  8
1
  6
Continuous
 62
     2
100
AcDbLine
 10
-257.7673510652099
 20
-1254.68511502428
 30
0.0
 11
-312.831288755545
 21
-1254.68511502428
 31
0.0
  0
LINE
  5
3E3
330
3DF
100
AcDbEntity
  8
1
 62
     2
100
AcDbLine
 10
-311.831288755545
 20
-1279.68511502428
 30
0.0
 11
-312.7691109290539
 21
-1276.18511502428
 31
0.0
  0
LINE
  5
3E4
330
3DF
100
AcDbEntity
  8
1
 62
     2
100
AcDbLine
 10
-311.831288755545
 20
-1279.68511502428
 30
0.0
 11
-310.893466582036
 21
-1276.18511502428
 31
0.0
  0
LINE
  5
3E5
330
3DF
100
AcDbEntity
  8
1
 62
     2
100
AcDbLine
 10
-311.831288755545
 20
-1254.68511502428
 30
0.0
 11
-310.893466582036
 21
-1258.18511502428
 31
0.0
  0
LINE
  5
3E6
330
3DF
100
AcDbEntity
  8
1
 62
     2
100
AcDbLine
 10
-311.831288755545
 20
-1254.68511502428
 30
0.0
 11
-312.7691109290539
 21
-1258.18511502428
 31
0.0
  0
MTEXT
  5
3E7
330
3DF
100
AcDbEntity
  8
1
 62
     2
100
AcDbMText
 10
-313.431288755545
 20
-1268.44780598279
 30
0.0
 40
3.5
 41
0.0
 71
     7
 72
     1
  1
25
  7
CONVERTER_2
 11
0.0
 21
1.0
 31
0.0
 73
     1
 44
0.60024009603842
  0
ENDBLK
  5
3E9
330
3DF
100
AcDbEntity
  8
0
100
AcDbBlockEnd
  0
ENDSEC
  0
SECTION
  2
ENTITIES
  0
INSERT
  5
45
330
1F
100
AcDbEntity
  8
0
100
AcDbBlockReference
  2
Top__1
 10
252.467418777474
 20
-1752.13297564388
 30
0.0
  0
INSERT
  5
46
330
1F
100
AcDbEntity
  8
0
100
AcDbBlockReference
  2
Top__2
 10
389.442648085003
 20
-1824.87867412555
 30
0.0
  0
INSERT
  5
47
330
1F
100
AcDbEntity
  8
0
100
AcDbBlockReference
  2
Top__3
 10
383.9849681912639
 20
-960.81844064494
 30
0.0
  0
INSERT
  5
48
330
1F
100
AcDbEntity
  8
1
100
AcDbBlockReference
  2
_3
 10
-338.0173510652099
 20
-589.479631922478
 30
0.0
  0
INSERT
  5
49
330
1F
100
AcDbEntity
  8
1
100
AcDbBlockReference
  2
_2
 10
-422.5699444074461
 20
-596.6193529016481
 30
0.0
  0
INSERT
  5
4A
330
1F
100
AcDbEntity
  8
0
100
AcDbBlockReference
  2
Top__4
 10
156.531157721009
 20
-790.037384601348
 30
0.0
  0
TEXT
  5
3B1
330
1F
100
AcDbEntity
  8
1
 62
     3
100
AcDbText
 10
-384.3207749063471
 20
-1398.472040204627
 30
0.0
 40
5.0
  1
VY5302A0031
 41
1.08
  7
CONVERTER_3
100
AcDbText
  0
DIMENSION
  5
3C4
330
1F
100
AcDbEntity
  8
1
100
AcDbDimension
  2
*D07
 10
-300.0173510652099
 20
-1397.98391120817
 30
0.0
 11
-250.557281568245
 21
-1394.63391120817
 31
0.0
 70
    32
  1
<>
 71
     5
 42
-1.0
 53
0.00013888888889
  3
ME10_DIM_0
100
AcDbAlignedDimension
 13
-201.5173510652099
 23
-1373.18511502428
 33
0.0
 14
-300.0173510652099
 24
-1373.18511502428
 34
0.0
100
AcDbRotatedDimension
  0
DIMENSION
  5
3D1
330
1F
100
AcDbEntity
  8
1
100
AcDbDimension
  2
*D19
 10
-252.5173510652099
 20
-1386.68511502428
 30
0.0
 11
-277.544247365089
 21
-1383.33511502428
 31
0.0
 70
    32
  1
<>
 71
     5
 42
-1.0
 53
0.00013888888889
  3
ME10_DIM_1
100
AcDbAlignedDimension
 13
-300.0173510652099
 23
-1373.18511502428
 33
0.0
 14
-252.5173510652099
 24
-1378.68511502428
 34
0.0
100
AcDbRotatedDimension
  0
DIMENSION
  5
3DE
330
1F
100
AcDbEntity
  8
1
100
AcDbDimension
  2
*D210
 10
-312.01735106521
 20
-1279.68511502428
 30
0.0
 11
-315.36735106521
 21
-1311.12163889426
 31
0.0
 70
    32
  1
<>
 71
     5
 42
-1.0
 53
90.0
  3
ME10_DIM_2
100
AcDbAlignedDimension
 13
-304.0173510652099
 23
-1348.18511502428
 33
0.0
 14
-272.5173510652099
 24
-1279.68511502428
 34
0.0
 50
90.0
100
AcDbRotatedDimension
  0
DIMENSION
  5
3EB
330
1F
100
AcDbEntity
  8
1
100
AcDbDimension
  2
*D311
 10
-311.831288755545
 20
-1279.68511502428
 30
0.0
 11
-315.181288755545
 21
-1265.82280598279
 31
0.0
 70
    32
  1
<>
 71
     5
 42
-1.0
 53
90.0
  3
ME10_DIM_3
100
AcDbAlignedDimension
 13
-256.7673510652099
 23
-1254.68511502428
 33
0.0
 14
-272.5173510652099
 24
-1279.68511502428
 34
0.0
 50
90.0
100
AcDbRotatedDimension
  0
ENDSEC
  0
SECTION
  2
OBJECTS
  0
DICTIONARY
  5
C
330
0
100
AcDbDictionary
281
     1
  3
ACAD_GROUP
350
D
  3
ACAD_LAYOUT
350
1A
  3
ACAD_MLINESTYLE
350
17
  3
ACAD_PLOTSETTINGS
350
19
  3
ACAD_PLOTSTYLENAME
350
E
  0
DICTIONARY
  5
D
102
{ACAD_REACTORS
330
C
102
}
330
C
100
AcDbDictionary
281
     1
  0
DICTIONARY
  5
1A
102
{ACAD_REACTORS
330
C
102
}
330
C
100
AcDbDictionary
281
     1
  3
Layout1
350
1E
  3
Layout2
350
26
  3
Model
350
22
  0
DICTIONARY
  5
17
102
{ACAD_REACTORS
330
C
102
}
330
C
100
AcDbDictionary
281
     1
  3
Standard
350
18
  0
DICTIONARY
  5
19
102
{ACAD_REACTORS
330
C
102
}
330
C
100
AcDbDictionary
281
     1
  0
ACDBDICTIONARYWDFLT
  5
E
102
{ACAD_REACTORS
330
C
102
}
330
C
100
AcDbDictionary
281
     1
  3
Normal
350
F
100
AcDbDictionaryWithDefault
340
F
  0
LAYOUT
  5
1E
102
{ACAD_REACTORS
330
1A
102
}
330
1A
100
AcDbPlotSettings
  1

  2

  4

  6

 40
0.0
 41
0.0
 42
0.0
 43
0.0
 44
0.0
 45
0.0
 46
0.0
 47
0.0
 48
0.0
 49
0.0
140
0.0
141
0.0
142
1.0
143
1.0
 70
   688
 72
     0
 73
     0
 74
     5
  7

 75
    16
147
1.0
148
0.0
149
0.0
100
AcDbLayout
  1
Layout1
 70
     1
 71
     1
 10
0.0
 20
0.0
 11
0.0
 21
0.0
 12
0.0
 22
0.0
 32
0.0
 14
0.0
 24
0.0
 34
0.0
 15
0.0
 25
0.0
 35
0.0
146
0.0
 13
0.0
 23
0.0
 33
0.0
 16
1.0
 26
0.0
 36
0.0
 17
0.0
 27
1.0
 37
0.0
 76
     0
330
1B
  0
LAYOUT
  5
26
102
{ACAD_REACTORS
330
1A
102
}
330
1A
100
AcDbPlotSettings
  1

  2

  4

  6

 40
0.0
 41
0.0
 42
0.0
 43
0.0
 44
0.0
 45
0.0
 46
0.0
 47
0.0
 48
0.0
 49
0.0
140
0.0
141
0.0
142
1.0
143
1.0
 70
   688
 72
     0
 73
     0
 74
     5
  7

 75
    16
147
1.0
148
0.0
149
0.0
100
AcDbLayout
  1
Layout2
 70
     1
 71
     2
 10
0.0
 20
0.0
 11
0.0
 21
0.0
 12
0.0
 22
0.0
 32
0.0
 14
0.0
 24
0.0
 34
0.0
 15
0.0
 25
0.0
 35
0.0
146
0.0
 13
0.0
 23
0.0
 33
0.0
 16
1.0
 26
0.0
 36
0.0
 17
0.0
 27
1.0
 37
0.0
 76
     0
330
23
  0
LAYOUT
  5
22
102
{ACAD_REACTORS
330
1A
102
}
330
1A
100
AcDbPlotSettings
  1

  2

  4

  6

 40
0.0
 41
0.0
 42
0.0
 43
0.0
 44
0.0
 45
0.0
 46
0.0
 47
0.0
 48
0.0
 49
0.0
140
0.0
141
0.0
142
1.0
143
1.0
 70
  1712
 72
     0
 73
     0
 74
     0
  7

 75
     0
147
1.0
148
0.0
149
0.0
100
AcDbLayout
  1
Model
 70
     1
 71
     0
 10
0.0
 20
0.0
 11
0.0
 21
0.0
 12
0.0
 22
0.0
 32
0.0
 14
-386.329225823906
 24
-1398.98391120817
 34
0.0
 15
19.48264893479015
 25
-1171.85662201397
 35
0.0
146
0.0
 13
0.0
 23
0.0
 33
0.0
 16
1.0
 26
0.0
 36
0.0
 17
0.0
 27
1.0
 37
0.0
 76
     0
330
1F
  0
MLINESTYLE
  5
18
102
{ACAD_REACTORS
330
17
102
}
330
17
100
AcDbMlineStyle
  2
Standard
 70
     0
  3

 62
   256
 51
90.0
 52
90.0
 71
     2
 49
0.5
 62
   256
  6
BYLAYER
 49
-0.5
 62
   256
  6
BYLAYER
  0
ACDBPLACEHOLDER
  5
F
102
{ACAD_REACTORS
330
E
102
}
330
E
  0
ENDSEC
  0
EOF
