  0
SECTION
  2
HEADER
  9
$ACADVER
  1
AC1015
  9
$ACADMAINTVER
 70
     6
  9
$DWGCODEPAGE
  3
ANSI_1252
  9
$INSBASE
 10
0.0
 20
0.0
 30
0.0
  9
$EXTMIN
 10
350.815730953656
 20
-667.281038206129
 30
0.0
  9
$EXTMAX
 10
691.6625160709953
 20
-473.3673511539591
 30
0.0
  9
$LIMMIN
 10
0.0
 20
0.0
  9
$LIMMAX
 10
12.0
 20
9.0
  9
$ORTHOMODE
 70
     0
  9
$REGENMODE
 70
     1
  9
$FILLMODE
 70
     1
  9
$QTEXTMODE
 70
     0
  9
$MIRRTEXT
 70
     1
  9
$LTSCALE
 40
1.0
  9
$ATTMODE
 70
     1
  9
$TEXTSIZE
 40
0.2
  9
$TRACEWID
 40
0.05
  9
$TEXTSTYLE
  7
Standard
  9
$CLAYER
  8
0
  9
$CELTYPE
  6
ByLayer
  9
$CECOLOR
 62
   256
  9
$CELTSCALE
 40
1.0
  9
$DISPSILH
 70
     0
  9
$DIMSCALE
 40
1.0
  9
$DIMASZ
 40
0.18
  9
$DIMEXO
 40
0.0625
  9
$DIMDLI
 40
0.38
  9
$DIMRND
 40
0.0
  9
$DIMDLE
 40
0.0
  9
$DIMEXE
 40
0.18
  9
$DIMTP
 40
0.0
  9
$DIMTM
 40
0.0
  9
$DIMTXT
 40
0.18
  9
$DIMCEN
 40
0.09
  9
$DIMTSZ
 40
0.0
  9
$DIMTOL
 70
     0
  9
$DIMLIM
 70
     0
  9
$DIMTIH
 70
     1
  9
$DIMTOH
 70
     1
  9
$DIMSE1
 70
     0
  9
$DIMSE2
 70
     0
  9
$DIMTAD
 70
     0
  9
$DIMZIN
 70
     0
  9
$DIMBLK
  1

  9
$DIMASO
 70
     1
  9
$DIMSHO
 70
     1
  9
$DIMPOST
  1

  9
$DIMAPOST
  1

  9
$DIMALT
 70
     0
  9
$DIMALTD
 70
     2
  9
$DIMALTF
 40
25.4
  9
$DIMLFAC
 40
1.0
  9
$DIMTOFL
 70
     0
  9
$DIMTVP
 40
0.0
  9
$DIMTIX
 70
     0
  9
$DIMSOXD
 70
     0
  9
$DIMSAH
 70
     0
  9
$DIMBLK1
  1

  9
$DIMBLK2
  1

  9
$DIMSTYLE
  2
Standard
  9
$DIMCLRD
 70
     0
  9
$DIMCLRE
 70
     0
  9
$DIMCLRT
 70
     0
  9
$DIMTFAC
 40
1.0
  9
$DIMGAP
 40
0.09
  9
$DIMJUST
 70
     0
  9
$DIMSD1
 70
     0
  9
$DIMSD2
 70
     0
  9
$DIMTOLJ
 70
     1
  9
$DIMTZIN
 70
     0
  9
$DIMALTZ
 70
     0
  9
$DIMALTTZ
 70
     0
  9
$DIMUPT
 70
     0
  9
$DIMDEC
 70
     4
  9
$DIMTDEC
 70
     4
  9
$DIMALTU
 70
     2
  9
$DIMALTTD
 70
     2
  9
$DIMTXSTY
  7
Standard
  9
$DIMAUNIT
 70
     0
  9
$DIMADEC
 70
     0
  9
$DIMALTRND
 40
0.0
  9
$DIMAZIN
 70
     0
  9
$DIMDSEP
 70
    46
  9
$DIMATFIT
 70
     3
  9
$DIMFRAC
 70
     0
  9
$DIMLDRBLK
  1

  9
$DIMLUNIT
 70
     2
  9
$DIMLWD
 70
    -2
  9
$DIMLWE
 70
    -2
  9
$DIMTMOVE
 70
     0
  9
$LUNITS
 70
     2
  9
$LUPREC
 70
     4
  9
$SKETCHINC
 40
0.1
  9
$FILLETRAD
 40
0.5
  9
$AUNITS
 70
     0
  9
$AUPREC
 70
     0
  9
$MENU
  1
.
  9
$ELEVATION
 40
0.0
  9
$PELEVATION
 40
0.0
  9
$THICKNESS
 40
0.0
  9
$LIMCHECK
 70
     0
  9
$CHAMFERA
 40
0.5
  9
$CHAMFERB
 40
0.5
  9
$CHAMFERC
 40
1.0
  9
$CHAMFERD
 40
0.0
  9
$SKPOLY
 70
     0
  9
$TDCREATE
 40
2455079.398199317
  9
$TDUCREATE
 40
2455079.023199317
  9
$TDUPDATE
 40
2455079.398199329
  9
$TDUUPDATE
 40
2455079.023199329
  9
$TDINDWG
 40
0.0000000116
  9
$TDUSRTIMER
 40
0.0000000116
  9
$USRTIMER
 70
     1
  9
$ANGBASE
 50
0.0
  9
$ANGDIR
 70
     0
  9
$PDMODE
 70
     0
  9
$PDSIZE
 40
0.0
  9
$PLINEWID
 40
0.0
  9
$SPLFRAME
 70
     0
  9
$SPLINETYPE
 70
     6
  9
$SPLINESEGS
 70
     8
  9
$HANDSEED
  5
2A5
  9
$SURFTAB1
 70
     6
  9
$SURFTAB2
 70
     6
  9
$SURFTYPE
 70
     6
  9
$SURFU
 70
     6
  9
$SURFV
 70
     6
  9
$UCSBASE
  2

  9
$UCSNAME
  2

  9
$UCSORG
 10
0.0
 20
0.0
 30
0.0
  9
$UCSXDIR
 10
1.0
 20
0.0
 30
0.0
  9
$UCSYDIR
 10
0.0
 20
1.0
 30
0.0
  9
$UCSORTHOREF
  2

  9
$UCSORTHOVIEW
 70
     0
  9
$UCSORGTOP
 10
0.0
 20
0.0
 30
0.0
  9
$UCSORGBOTTOM
 10
0.0
 20
0.0
 30
0.0
  9
$UCSORGLEFT
 10
0.0
 20
0.0
 30
0.0
  9
$UCSORGRIGHT
 10
0.0
 20
0.0
 30
0.0
  9
$UCSORGFRONT
 10
0.0
 20
0.0
 30
0.0
  9
$UCSORGBACK
 10
0.0
 20
0.0
 30
0.0
  9
$PUCSBASE
  2

  9
$PUCSNAME
  2

  9
$PUCSORG
 10
0.0
 20
0.0
 30
0.0
  9
$PUCSXDIR
 10
1.0
 20
0.0
 30
0.0
  9
$PUCSYDIR
 10
0.0
 20
1.0
 30
0.0
  9
$PUCSORTHOREF
  2

  9
$PUCSORTHOVIEW
 70
     0
  9
$PUCSORGTOP
 10
0.0
 20
0.0
 30
0.0
  9
$PUCSORGBOTTOM
 10
0.0
 20
0.0
 30
0.0
  9
$PUCSORGLEFT
 10
0.0
 20
0.0
 30
0.0
  9
$PUCSORGRIGHT
 10
0.0
 20
0.0
 30
0.0
  9
$PUCSORGFRONT
 10
0.0
 20
0.0
 30
0.0
  9
$PUCSORGBACK
 10
0.0
 20
0.0
 30
0.0
  9
$USERI1
 70
     0
  9
$USERI2
 70
     0
  9
$USERI3
 70
     0
  9
$USERI4
 70
     0
  9
$USERI5
 70
     0
  9
$USERR1
 40
14.0
  9
$USERR2
 40
0.0
  9
$USERR3
 40
0.0
  9
$USERR4
 40
0.0
  9
$USERR5
 40
0.0
  9
$WORLDVIEW
 70
     1
  9
$SHADEDGE
 70
     3
  9
$SHADEDIF
 70
    70
  9
$TILEMODE
 70
     1
  9
$MAXACTVP
 70
    64
  9
$PINSBASE
 10
0.0
 20
0.0
 30
0.0
  9
$PLIMCHECK
 70
     0
  9
$PEXTMIN
 10
1.00000000000000E+20
 20
1.00000000000000E+20
 30
1.00000000000000E+20
  9
$PEXTMAX
 10
-1.00000000000000E+20
 20
-1.00000000000000E+20
 30
-1.00000000000000E+20
  9
$PLIMMIN
 10
0.0
 20
0.0
  9
$PLIMMAX
 10
12.0
 20
9.0
  9
$UNITMODE
 70
     0
  9
$VISRETAIN
 70
     1
  9
$PLINEGEN
 70
     0
  9
$PSLTSCALE
 70
     1
  9
$TREEDEPTH
 70
  3020
  9
$CMLSTYLE
  2
Standard
  9
$CMLJUST
 70
     0
  9
$CMLSCALE
 40
1.0
  9
$PROXYGRAPHICS
 70
     1
  9
$MEASUREMENT
 70
     1
  9
$CELWEIGHT
370
    -1
  9
$ENDCAPS
280
     0
  9
$JOINSTYLE
280
     0
  9
$LWDISPLAY
290
     0
  9
$INSUNITS
 70
     1
  9
$HYPERLINKBASE
  1

  9
$STYLESHEET
  1

  9
$XEDIT
290
     1
  9
$CEPSNTYPE
380
     0
  9
$PSTYLEMODE
290
     1
  9
$FINGERPRINTGUID
  2
{C0F70595-4609-4C7B-9716-6A00BA4522D1}
  9
$VERSIONGUID
  2
{FAEB1C32-E019-11D5-929B-00C0DF256EC4}
  9
$EXTNAMES
290
     1
  9
$PSVPSCALE
 40
0.0
  9
$OLESTARTUP
290
     0
  0
ENDSEC
  0
SECTION
  2
CLASSES
  0
CLASS
  1
ACDBDICTIONARYWDFLT
  2
AcDbDictionaryWithDefault
  3
ObjectDBX Classes
 90
        0
280
     0
281
     0
  0
CLASS
  1

  2
exOdDbCircle
  3

 90
        0
280
     0
281
     1
  0
CLASS
  1

  2
exOdDbPolyline
  3

 90
        0
280
     0
281
     1
  0
CLASS
  1
ACDBPLACEHOLDER
  2
AcDbPlaceHolder
  3
ObjectDBX Classes
 90
        0
280
     0
281
     0
  0
CLASS
  1
LAYOUT
  2
AcDbLayout
  3
ObjectDBX Classes
 90
        0
280
     0
281
     0
  0
ENDSEC
  0
SECTION
  2
TABLES
  0
TABLE
  2
VPORT
  5
8
330
0
100
AcDbSymbolTable
 70
     1
  0
VPORT
  5
29
330
8
100
AcDbSymbolTableRecord
100
AcDbViewportTableRecord
  2
*Active
 70
     0
 10
0.0
 20
0.0
 11
1.0
 21
1.0
 12
521.2391235123256
 22
-570.324194680044
 13
0.0
 23
0.0
 14
0.5
 24
0.5
 15
0.5
 25
0.5
 16
0.0
 26
0.0
 36
1.0
 17
0.0
 27
0.0
 37
0.0
 40
233.9405232671656
 41
1.60267857142857
 42
50.0
 43
0.0
 44
0.0
 50
0.0
 51
0.0
 71
     0
 72
   100
 73
     1
 74
     3
 75
     0
 76
     0
 77
     0
 78
     0
281
     0
 65
     1
110
0.0
120
0.0
130
0.0
111
1.0
121
0.0
131
0.0
112
0.0
122
1.0
132
0.0
 79
     0
146
0.0
  0
ENDTAB
  0
TABLE
  2
LTYPE
  5
5
330
0
100
AcDbSymbolTable
 70
     8
  0
LTYPE
  5
14
330
5
100
AcDbSymbolTableRecord
100
AcDbLinetypeTableRecord
  2
ByBlock
 70
     0
  3

 72
    65
 73
     0
 40
0.0
  0
LTYPE
  5
15
330
5
100
AcDbSymbolTableRecord
100
AcDbLinetypeTableRecord
  2
ByLayer
 70
     0
  3

 72
    65
 73
     0
 40
0.0
  0
LTYPE
  5
16
330
5
100
AcDbSymbolTableRecord
100
AcDbLinetypeTableRecord
  2
Continuous
 70
     0
  3
Solid line
 72
    65
 73
     0
 40
0.0
  0
LTYPE
  5
2A
330
5
100
AcDbSymbolTableRecord
100
AcDbLinetypeTableRecord
  2
DASHED
 70
     0
  3
Dashed
 72
    65
 73
     2
 40
15.0
 49
7.0
 74
     0
 49
-8.0
 74
     0
  0
LTYPE
  5
2B
330
5
100
AcDbSymbolTableRecord
100
AcDbLinetypeTableRecord
  2
DOTTED
 70
     0
  3
Dotted
 72
    65
 73
     2
 40
1.0
 49
0.0
 74
     0
 49
-1.0
 74
     0
  0
LTYPE
  5
2C
330
5
100
AcDbSymbolTableRecord
100
AcDbLinetypeTableRecord
  2
DOT_CENTER
 70
     0
  3
Dot_Center
 72
    65
 73
     4
 40
14.0
 49
12.0
 74
     0
 49
-1.0
 74
     0
 49
0.0
 74
     0
 49
-1.0
 74
     0
  0
LTYPE
  5
2D
330
5
100
AcDbSymbolTableRecord
100
AcDbLinetypeTableRecord
  2
LONG_DASHED
 70
     0
  3
Long_Dashed
 72
    65
 73
     2
 40
15.0
 49
10.0
 74
     0
 49
-5.0
 74
     0
  0
LTYPE
  5
2E
330
5
100
AcDbSymbolTableRecord
100
AcDbLinetypeTableRecord
  2
DASH_CENTER
 70
     0
  3
Dash_Center
 72
    65
 73
     4
 40
14.0
 49
11.0
 74
     0
 49
-1.0
 74
     0
 49
1.0
 74
     0
 49
-1.0
 74
     0
  0
LTYPE
  5
2F
330
5
100
AcDbSymbolTableRecord
100
AcDbLinetypeTableRecord
  2
PHANTOM
 70
     0
  3
Phantom
 72
    65
 73
     6
 40
13.0
 49
10.0
 74
     0
 49
-1.0
 74
     0
 49
0.0
 74
     0
 49
-1.0
 74
     0
 49
0.0
 74
     0
 49
-1.0
 74
     0
  0
LTYPE
  5
30
330
5
100
AcDbSymbolTableRecord
100
AcDbLinetypeTableRecord
  2
CENTER_DASH_DASH
 70
     0
  3
Center_Dash_Dash
 72
    65
 73
     6
 40
14.0
 49
9.0
 74
     0
 49
-1.0
 74
     0
 49
1.0
 74
     0
 49
-1.0
 74
     0
 49
1.0
 74
     0
 49
-1.0
 74
     0
  0
ENDTAB
  0
TABLE
  2
LAYER
  5
2
330
0
100
AcDbSymbolTable
 70
     3
  0
LAYER
  5
10
330
2
100
AcDbSymbolTableRecord
100
AcDbLayerTableRecord
  2
0
 70
     0
 62
     7
  6
Continuous
370
    -3
390
F
  0
LAYER
  5
31
330
2
100
AcDbSymbolTableRecord
100
AcDbLayerTableRecord
  2
1
 70
     0
 62
     7
  6
Continuous
370
    -3
390
F
  0
LAYER
  5
32
330
2
100
AcDbSymbolTableRecord
100
AcDbLayerTableRecord
  2
6_ALL_DRFT_GEOM
 70
     0
 62
     7
  6
Continuous
370
    -3
390
F
  0
ENDTAB
  0
TABLE
  2
STYLE
  5
3
330
0
100
AcDbSymbolTable
 70
     6
  0
STYLE
  5
11
330
3
100
AcDbSymbolTableRecord
100
AcDbTextStyleTableRecord
  2
Standard
 70
     0
 40
0.0
 41
1.0
 50
0.0
 71
     0
 42
0.2
  3
txt
  4

  0
STYLE
  5
FA
330
3
100
AcDbSymbolTableRecord
100
AcDbTextStyleTableRecord
  2
CONVERTER_1
 70
     0
 40
0.0
 41
0.9
 50
0.0
 71
     0
 42
0.2
  3
txt.shx
  4

  0
STYLE
  5
263
330
3
100
AcDbSymbolTableRecord
100
AcDbTextStyleTableRecord
  2
CONVERTER_2
 70
     0
 40
0.0
 41
1.08
 50
0.0
 71
     0
 42
0.2
  3
txt.shx
  4

  0
STYLE
  5
265
330
3
100
AcDbSymbolTableRecord
100
AcDbTextStyleTableRecord
  2
CONVERTER_3
 70
     0
 40
0.0
 41
0.9975
 50
0.0
 71
     0
 42
0.2
  3
complex.shx
  4

  0
STYLE
  5
267
330
3
100
AcDbSymbolTableRecord
100
AcDbTextStyleTableRecord
  2
CONVERTER_4
 70
     0
 40
0.0
 41
0.95
 50
0.0
 71
     0
 42
0.2
  3
complex.shx
  4

  0
STYLE
  5
269
330
3
100
AcDbSymbolTableRecord
100
AcDbTextStyleTableRecord
  2
CONVERTER_5
 70
     0
 40
0.0
 41
0.855
 50
0.0
 71
     0
 42
0.2
  3
complex.shx
  4

  0
ENDTAB
  0
TABLE
  2
VIEW
  5
6
330
0
100
AcDbSymbolTable
 70
     0
  0
ENDTAB
  0
TABLE
  2
UCS
  5
7
330
0
100
AcDbSymbolTable
 70
     0
  0
ENDTAB
  0
TABLE
  2
APPID
  5
9
330
0
100
AcDbSymbolTable
 70
     1
  0
APPID
  5
12
330
9
100
AcDbSymbolTableRecord
100
AcDbRegAppTableRecord
  2
ACAD
 70
     0
  0
ENDTAB
  0
TABLE
  2
DIMSTYLE
  5
A
330
0
100
AcDbSymbolTable
 70
     5
100
AcDbDimStyleTable
  0
DIMSTYLE
105
27
330
A
100
AcDbSymbolTableRecord
100
AcDbDimStyleTableRecord
  2
Standard
 70
     0
340
11
  0
DIMSTYLE
105
27C
102
{ACAD_REACTORS
330
27D
102
}
330
A
100
AcDbSymbolTableRecord
100
AcDbDimStyleTableRecord
  2
ME10_DIM_0
 70
     0
 41
3.5
 42
1.0
 44
1.0
 73
     0
 74
     0
 77
     1
 78
     8
140
3.5
147
1.6
172
     1
173
     1
176
     2
177
     2
178
     2
271
     3
340
FA
343
276
344
276
  0
DIMSTYLE
105
289
102
{ACAD_REACTORS
330
28A
102
}
330
A
100
AcDbSymbolTableRecord
100
AcDbDimStyleTableRecord
  2
ME10_DIM_1
 70
     0
 41
3.5
 42
1.0
 44
1.0
 73
     0
 74
     0
 77
     1
 78
     8
140
3.5
147
1.6
172
     1
173
     1
176
     2
177
     2
178
     2
271
     3
340
FA
343
276
344
276
  0
DIMSTYLE
105
296
102
{ACAD_REACTORS
330
297
102
}
330
A
100
AcDbSymbolTableRecord
100
AcDbDimStyleTableRecord
  2
ME10_DIM_2
 70
     0
 41
3.5
 42
1.0
 44
1.0
 73
     0
 74
     0
 77
     1
 78
     8
140
3.5
147
1.6
172
     1
173
     1
176
     2
177
     2
178
     2
271
     3
340
FA
343
276
344
276
  0
DIMSTYLE
105
2A3
102
{ACAD_REACTORS
330
2A4
102
}
330
A
100
AcDbSymbolTableRecord
100
AcDbDimStyleTableRecord
  2
ME10_DIM_3
 70
     0
 41
3.5
 42
1.0
 44
1.0
 73
     0
 74
     0
 77
     1
 78
     8
140
3.5
147
1.6
172
     1
173
     1
176
     2
177
     2
178
     2
271
     3
340
FA
343
276
344
276
  0
ENDTAB
  0
TABLE
  2
BLOCK_RECORD
  5
1
330
0
100
AcDbSymbolTable
 70
    11
  0
BLOCK_RECORD
  5
1F
330
1
100
AcDbSymbolTableRecord
100
AcDbBlockTableRecord
  2
*Model_Space
340
22
  0
BLOCK_RECORD
  5
1B
330
1
100
AcDbSymbolTableRecord
100
AcDbBlockTableRecord
  2
*Paper_Space
340
1E
  0
BLOCK_RECORD
  5
23
330
1
100
AcDbSymbolTableRecord
100
AcDbBlockTableRecord
  2
*Paper_Space0
340
26
  0
BLOCK_RECORD
  5
33
330
1
100
AcDbSymbolTableRecord
100
AcDbBlockTableRecord
  2
_5
340
0
102
{BLKREFS
331
42
102
}
  0
BLOCK_RECORD
  5
36
330
1
100
AcDbSymbolTableRecord
100
AcDbBlockTableRecord
  2
_4
340
0
102
{BLKREFS
331
43
102
}
  0
BLOCK_RECORD
  5
39
330
1
100
AcDbSymbolTableRecord
100
AcDbBlockTableRecord
  2
Top__1
340
0
102
{BLKREFS
331
44
102
}
  0
BLOCK_RECORD
  5
3C
330
1
100
AcDbSymbolTableRecord
100
AcDbBlockTableRecord
  2
TOP
340
0
102
{BLKREFS
331
45
102
}
  0
BLOCK_RECORD
  5
3F
330
1
100
AcDbSymbolTableRecord
100
AcDbBlockTableRecord
  2
Top__2
340
0
102
{BLKREFS
331
46
102
}
  0
BLOCK_RECORD
  5
26B
330
1
100
AcDbSymbolTableRecord
100
AcDbBlockTableRecord
  2
*D06
340
0
  0
BLOCK_RECORD
  5
276
330
1
100
AcDbSymbolTableRecord
100
AcDbBlockTableRecord
  2
_Open30
340
0
  0
BLOCK_RECORD
  5
27E
330
1
100
AcDbSymbolTableRecord
100
AcDbBlockTableRecord
  2
*D18
340
0
  0
BLOCK_RECORD
  5
28B
330
1
100
AcDbSymbolTableRecord
100
AcDbBlockTableRecord
  2
*D29
340
0
  0
BLOCK_RECORD
  5
298
330
1
100
AcDbSymbolTableRecord
100
AcDbBlockTableRecord
  2
*D310
340
0
  0
ENDTAB
  0
ENDSEC
  0
SECTION
  2
BLOCKS
  0
BLOCK
  5
20
330
1F
100
AcDbEntity
  8
0
100
AcDbBlockBegin
  2
*Model_Space
 70
     0
 71
     0
 10
0.0
 20
0.0
 30
0.0
  3
*Model_Space
  1

  0
ENDBLK
  5
21
330
1F
100
AcDbEntity
  8
0
100
AcDbBlockEnd
  0
BLOCK
  5
1C
330
1B
100
AcDbEntity
 67
     1
  8
0
100
AcDbBlockBegin
  2
*Paper_Space
 70
     0
 71
     0
 10
0.0
 20
0.0
 30
0.0
  3
*Paper_Space
  1

  0
ENDBLK
  5
1D
330
1B
100
AcDbEntity
 67
     1
  8
0
100
AcDbBlockEnd
  0
BLOCK
  5
24
330
23
100
AcDbEntity
  8
0
100
AcDbBlockBegin
  2
*Paper_Space0
 70
     0
 71
     0
 10
0.0
 20
0.0
 30
0.0
  3
*Paper_Space0
  1

  0
ENDBLK
  5
25
330
23
100
AcDbEntity
  8
0
100
AcDbBlockEnd
  0
BLOCK
  5
34
330
33
100
AcDbEntity
  8
0
100
AcDbBlockBegin
  2
_5
 70
     0
 71
     0
 10
342.880174469531
 20
-262.13030285773
 30
0.0
  3
_5
  1

  0
LINE
  5
47
330
33
100
AcDbEntity
  8
1
  6
Continuous
 62
     3
100
AcDbLine
 10
467.9842491439231
 20
-491.6173511539589
 30
0.0
 11
475.3156882932306
 21
-491.6173511539589
 31
0.0
  0
LINE
  5
48
330
33
100
AcDbEntity
  8
1
  6
Continuous
 62
     3
100
AcDbLine
 10
475.3156882932306
 20
-501.1173511539589
 30
0.0
 11
467.9842491439231
 21
-501.1173511539589
 31
0.0
  0
LINE
  5
49
330
33
100
AcDbEntity
  8
1
  6
Continuous
 62
     3
100
AcDbLine
 10
476.399968718577
 20
-492.7016315793051
 30
0.0
 11
476.399968718577
 21
-495.3673511539589
 31
0.0
  0
LINE
  5
4A
330
33
100
AcDbEntity
  8
1
  6
Continuous
 62
     3
100
AcDbLine
 10
466.899968718577
 20
-500.0330707286128
 30
0.0
 11
466.899968718577
 21
-492.7016315793051
 31
0.0
  0
LINE
  5
4B
330
33
100
AcDbEntity
  8
1
  6
Continuous
 62
     3
100
AcDbLine
 10
476.399968718577
 20
-495.3673511539589
 30
0.0
 11
476.399968718577
 21
-500.0330707286128
 31
0.0
  0
LINE
  5
4C
330
33
100
AcDbEntity
  8
1
  6
Continuous
 62
     3
100
AcDbLine
 10
653.9808047329667
 20
-557.117351153959
 30
0.0
 11
646.6493655836591
 21
-557.117351153959
 31
0.0
  0
LINE
  5
4D
330
33
100
AcDbEntity
  8
1
  6
Continuous
 62
     1
100
AcDbLine
 10
653.9808047329667
 20
-548.127351153959
 30
0.0
 11
646.6493655836591
 21
-557.117351153959
 31
0.0
  0
LINE
  5
4E
330
33
100
AcDbEntity
  8
1
  6
Continuous
 62
     3
100
AcDbLine
 10
655.065085158313
 20
-557.117351153959
 30
0.0
 11
653.9808047329667
 21
-557.117351153959
 31
0.0
  0
LINE
  5
4F
330
33
100
AcDbEntity
  8
1
  6
Continuous
 62
     1
100
AcDbLine
 10
653.9808047329667
 20
-557.117351153959
 30
0.0
 11
646.6493655836591
 21
-548.127351153959
 31
0.0
  0
LINE
  5
50
330
33
100
AcDbEntity
  8
1
  6
Continuous
 62
     3
100
AcDbLine
 10
645.565085158313
 20
-548.6173511539589
 30
0.0
 11
645.565085158313
 21
-548.127351153959
 31
0.0
  0
LINE
  5
51
330
33
100
AcDbEntity
  8
1
  6
Continuous
 62
     3
100
AcDbLine
 10
646.6493655836591
 20
-548.127351153959
 30
0.0
 11
645.565085158313
 21
-548.127351153959
 31
0.0
  0
LINE
  5
52
330
33
100
AcDbEntity
  8
1
  6
Continuous
 62
     3
100
AcDbLine
 10
655.065085158313
 20
-547.4060262885537
 30
0.0
 11
655.065085158313
 21
-548.127351153959
 31
0.0
  0
LINE
  5
53
330
33
100
AcDbEntity
  8
1
  6
Continuous
 62
     3
100
AcDbLine
 10
653.9808047329667
 20
-557.117351153959
 30
0.0
 11
653.9808047329667
 21
-548.127351153959
 31
0.0
  0
LINE
  5
54
330
33
100
AcDbEntity
  8
1
  6
Continuous
 62
     3
100
AcDbLine
 10
655.065085158313
 20
-548.127351153959
 30
0.0
 11
653.9808047329667
 21
-548.127351153959
 31
0.0
  0
LINE
  5
55
330
33
100
AcDbEntity
  8
1
  6
Continuous
 62
     3
100
AcDbLine
 10
655.065085158313
 20
-547.4060262885537
 30
0.0
 11
654.565085158313
 21
-547.1173511539589
 31
0.0
  0
LINE
  5
56
330
33
100
AcDbEntity
  8
1
  6
Continuous
 62
     3
100
AcDbLine
 10
646.065085158313
 20
-547.1173511539589
 30
0.0
 11
645.565085158313
 21
-547.4060262885537
 31
0.0
  0
LINE
  5
57
330
33
100
AcDbEntity
  8
1
  6
Continuous
 62
     3
100
AcDbLine
 10
655.065085158313
 20
-548.127351153959
 30
0.0
 11
655.065085158313
 21
-557.117351153959
 31
0.0
  0
LINE
  5
58
330
33
100
AcDbEntity
  8
1
  6
Continuous
 62
     3
100
AcDbLine
 10
646.6493655836591
 20
-548.127351153959
 30
0.0
 11
646.6493655836591
 21
-557.117351153959
 31
0.0
  0
LINE
  5
59
330
33
100
AcDbEntity
  8
1
  6
Continuous
 62
     3
100
AcDbLine
 10
654.565085158313
 20
-547.1173511539589
 30
0.0
 11
646.065085158313
 21
-547.1173511539589
 31
0.0
  0
LINE
  5
5A
330
33
100
AcDbEntity
  8
1
  6
Continuous
 62
     3
100
AcDbLine
 10
645.565085158313
 20
-548.127351153959
 30
0.0
 11
645.565085158313
 21
-547.4060262885537
 31
0.0
  0
LINE
  5
5B
330
33
100
AcDbEntity
  8
1
  6
Continuous
 62
     3
100
AcDbLine
 10
646.6493655836591
 20
-557.117351153959
 30
0.0
 11
645.565085158313
 21
-557.117351153959
 31
0.0
  0
LINE
  5
5C
330
33
100
AcDbEntity
  8
1
  6
Continuous
 62
     3
100
AcDbLine
 10
645.565085158313
 20
-557.117351153959
 30
0.0
 11
645.565085158313
 21
-548.6173511539589
 31
0.0
  0
LINE
  5
5D
330
33
100
AcDbEntity
  8
1
  6
Continuous
 62
     3
100
AcDbLine
 10
656.315085158313
 20
-560.6173511539589
 30
0.0
 11
656.315085158313
 21
-557.117351153959
 31
0.0
  0
LINE
  5
5E
330
33
100
AcDbEntity
  8
1
  6
Continuous
 62
     3
100
AcDbLine
 10
656.315085158313
 20
-557.117351153959
 30
0.0
 11
655.065085158313
 21
-557.117351153959
 31
0.0
  0
LINE
  5
5F
330
33
100
AcDbEntity
  8
1
  6
Continuous
 62
     3
100
AcDbLine
 10
645.565085158313
 20
-557.117351153959
 30
0.0
 11
644.315085158313
 21
-557.117351153959
 31
0.0
  0
LINE
  5
60
330
33
100
AcDbEntity
  8
1
  6
Continuous
 62
     3
100
AcDbLine
 10
644.315085158313
 20
-560.6173511539589
 30
0.0
 11
644.315085158313
 21
-557.117351153959
 31
0.0
  0
LINE
  5
61
330
33
100
AcDbEntity
  8
1
  6
Continuous
 62
     3
100
AcDbLine
 10
553.8214967324321
 20
-557.117351153959
 30
0.0
 11
553.8214967324323
 21
-560.6173511539589
 31
0.0
  0
LINE
  5
62
330
33
100
AcDbEntity
  8
1
  6
Continuous
 62
     3
100
AcDbLine
 10
565.8214967324321
 20
-557.117351153959
 30
0.0
 11
565.8214967324321
 21
-560.6173511539589
 31
0.0
  0
LINE
  5
63
330
33
100
AcDbEntity
  8
1
  6
Continuous
 62
     3
100
AcDbLine
 10
564.5714967324323
 20
-548.6173511539589
 30
0.0
 11
564.5714967324321
 21
-557.117351153959
 31
0.0
  0
LINE
  5
64
330
33
100
AcDbEntity
  8
1
  6
Continuous
 62
     3
100
AcDbLine
 10
555.0714967324321
 20
-557.117351153959
 30
0.0
 11
553.8214967324321
 21
-557.117351153959
 31
0.0
  0
LINE
  5
65
330
33
100
AcDbEntity
  8
1
  6
Continuous
 62
     3
100
AcDbLine
 10
564.5714967324321
 20
-557.117351153959
 30
0.0
 11
563.4872163070859
 21
-557.117351153959
 31
0.0
  0
LINE
  5
66
330
33
100
AcDbEntity
  8
1
  6
Continuous
 62
     3
100
AcDbLine
 10
565.8214967324321
 20
-557.117351153959
 30
0.0
 11
564.5714967324321
 21
-557.117351153959
 31
0.0
  0
LINE
  5
67
330
33
100
AcDbEntity
  8
1
  6
Continuous
 62
     3
100
AcDbLine
 10
564.5714967324323
 20
-547.4060262885537
 30
0.0
 11
564.5714967324321
 21
-548.127351153959
 31
0.0
  0
LINE
  5
68
330
33
100
AcDbEntity
  8
1
  6
Continuous
 62
     3
100
AcDbLine
 10
564.0714967324321
 20
-547.1173511539589
 30
0.0
 11
555.5714967324321
 21
-547.1173511539589
 31
0.0
  0
LINE
  5
69
330
33
100
AcDbEntity
  8
1
  6
Continuous
 62
     3
100
AcDbLine
 10
563.4872163070859
 20
-557.117351153959
 30
0.0
 11
563.4872163070859
 21
-548.127351153959
 31
0.0
  0
LINE
  5
6A
330
33
100
AcDbEntity
  8
1
  6
Continuous
 62
     3
100
AcDbLine
 10
555.0714967324321
 20
-557.117351153959
 30
0.0
 11
555.0714967324321
 21
-548.127351153959
 31
0.0
  0
LINE
  5
6B
330
33
100
AcDbEntity
  8
1
  6
Continuous
 62
     3
100
AcDbLine
 10
564.5714967324323
 20
-547.4060262885537
 30
0.0
 11
564.0714967324321
 21
-547.1173511539589
 31
0.0
  0
LINE
  5
6C
330
33
100
AcDbEntity
  8
1
  6
Continuous
 62
     3
100
AcDbLine
 10
555.5714967324321
 20
-547.1173511539589
 30
0.0
 11
555.0714967324321
 21
-547.4060262885537
 31
0.0
  0
LINE
  5
6D
330
33
100
AcDbEntity
  8
1
  6
Continuous
 62
     3
100
AcDbLine
 10
556.1557771577783
 20
-548.127351153959
 30
0.0
 11
555.0714967324321
 21
-548.127351153959
 31
0.0
  0
LINE
  5
6E
330
33
100
AcDbEntity
  8
1
  6
Continuous
 62
     3
100
AcDbLine
 10
556.1557771577783
 20
-548.127351153959
 30
0.0
 11
556.1557771577783
 21
-557.117351153959
 31
0.0
  0
LINE
  5
6F
330
33
100
AcDbEntity
  8
1
  6
Continuous
 62
     3
100
AcDbLine
 10
555.0714967324321
 20
-548.127351153959
 30
0.0
 11
555.0714967324321
 21
-547.4060262885537
 31
0.0
  0
LINE
  5
70
330
33
100
AcDbEntity
  8
1
  6
Continuous
 62
     3
100
AcDbLine
 10
564.5714967324321
 20
-548.127351153959
 30
0.0
 11
563.4872163070859
 21
-548.127351153959
 31
0.0
  0
LINE
  5
71
330
33
100
AcDbEntity
  8
1
  6
Continuous
 62
     3
100
AcDbLine
 10
564.5714967324321
 20
-548.127351153959
 30
0.0
 11
564.5714967324323
 21
-548.6173511539589
 31
0.0
  0
LINE
  5
72
330
33
100
AcDbEntity
  8
1
  6
Continuous
 62
     1
100
AcDbLine
 10
563.4872163070859
 20
-548.127351153959
 30
0.0
 11
556.1557771577783
 21
-557.117351153959
 31
0.0
  0
LINE
  5
73
330
33
100
AcDbEntity
  8
1
  6
Continuous
 62
     3
100
AcDbLine
 10
556.1557771577783
 20
-557.117351153959
 30
0.0
 11
555.0714967324321
 21
-557.117351153959
 31
0.0
  0
LINE
  5
74
330
33
100
AcDbEntity
  8
1
  6
Continuous
 62
     1
100
AcDbLine
 10
563.4872163070859
 20
-557.117351153959
 30
0.0
 11
556.1557771577783
 21
-548.127351153959
 31
0.0
  0
LINE
  5
75
330
33
100
AcDbEntity
  8
1
  6
Continuous
 62
     3
100
AcDbLine
 10
563.4872163070859
 20
-557.117351153959
 30
0.0
 11
556.1557771577783
 21
-557.117351153959
 31
0.0
  0
LINE
  5
76
330
33
100
AcDbEntity
  8
1
  6
Continuous
 62
     3
100
AcDbLine
 10
476.3999687185771
 20
-548.6173511539589
 30
0.0
 11
476.399968718577
 21
-557.117351153959
 31
0.0
  0
LINE
  5
77
330
33
100
AcDbEntity
  8
1
  6
Continuous
 62
     3
100
AcDbLine
 10
476.399968718577
 20
-557.117351153959
 30
0.0
 11
475.3156882932307
 21
-557.117351153959
 31
0.0
  0
LINE
  5
78
330
33
100
AcDbEntity
  8
1
  6
Continuous
 62
     3
100
AcDbLine
 10
477.649968718577
 20
-557.117351153959
 30
0.0
 11
476.399968718577
 21
-557.117351153959
 31
0.0
  0
LINE
  5
79
330
33
100
AcDbEntity
  8
1
  6
Continuous
 62
     3
100
AcDbLine
 10
476.3999687185771
 20
-547.4060262885537
 30
0.0
 11
476.399968718577
 21
-548.127351153959
 31
0.0
  0
LINE
  5
7A
330
33
100
AcDbEntity
  8
1
  6
Continuous
 62
     3
100
AcDbLine
 10
475.899968718577
 20
-547.1173511539589
 30
0.0
 11
467.399968718577
 21
-547.1173511539589
 31
0.0
  0
LINE
  5
7B
330
33
100
AcDbEntity
  8
1
  6
Continuous
 62
     3
100
AcDbLine
 10
475.3156882932307
 20
-557.117351153959
 30
0.0
 11
475.3156882932307
 21
-548.127351153959
 31
0.0
  0
LINE
  5
7C
330
33
100
AcDbEntity
  8
1
  6
Continuous
 62
     3
100
AcDbLine
 10
466.899968718577
 20
-557.117351153959
 30
0.0
 11
466.899968718577
 21
-548.127351153959
 31
0.0
  0
LINE
  5
7D
330
33
100
AcDbEntity
  8
1
  6
Continuous
 62
     3
100
AcDbLine
 10
476.3999687185771
 20
-547.4060262885537
 30
0.0
 11
475.899968718577
 21
-547.1173511539589
 31
0.0
  0
LINE
  5
7E
330
33
100
AcDbEntity
  8
1
  6
Continuous
 62
     3
100
AcDbLine
 10
467.399968718577
 20
-547.1173511539589
 30
0.0
 11
466.899968718577
 21
-547.4060262885537
 31
0.0
  0
LINE
  5
7F
330
33
100
AcDbEntity
  8
1
  6
Continuous
 62
     3
100
AcDbLine
 10
467.9842491439231
 20
-548.127351153959
 30
0.0
 11
466.899968718577
 21
-548.127351153959
 31
0.0
  0
LINE
  5
80
330
33
100
AcDbEntity
  8
1
  6
Continuous
 62
     3
100
AcDbLine
 10
467.9842491439231
 20
-548.127351153959
 30
0.0
 11
467.9842491439231
 21
-557.117351153959
 31
0.0
  0
LINE
  5
81
330
33
100
AcDbEntity
  8
1
  6
Continuous
 62
     3
100
AcDbLine
 10
466.899968718577
 20
-548.127351153959
 30
0.0
 11
466.899968718577
 21
-547.4060262885537
 31
0.0
  0
LINE
  5
82
330
33
100
AcDbEntity
  8
1
  6
Continuous
 62
     3
100
AcDbLine
 10
476.399968718577
 20
-548.127351153959
 30
0.0
 11
475.3156882932307
 21
-548.127351153959
 31
0.0
  0
LINE
  5
83
330
33
100
AcDbEntity
  8
1
  6
Continuous
 62
     3
100
AcDbLine
 10
476.399968718577
 20
-548.127351153959
 30
0.0
 11
476.3999687185771
 21
-548.6173511539589
 31
0.0
  0
LINE
  5
84
330
33
100
AcDbEntity
  8
1
  6
Continuous
 62
     1
100
AcDbLine
 10
475.3156882932307
 20
-548.127351153959
 30
0.0
 11
467.9842491439231
 21
-557.117351153959
 31
0.0
  0
LINE
  5
85
330
33
100
AcDbEntity
  8
1
  6
Continuous
 62
     3
100
AcDbLine
 10
467.9842491439231
 20
-557.117351153959
 30
0.0
 11
466.899968718577
 21
-557.117351153959
 31
0.0
  0
LINE
  5
86
330
33
100
AcDbEntity
  8
1
  6
Continuous
 62
     1
100
AcDbLine
 10
475.3156882932307
 20
-557.117351153959
 30
0.0
 11
467.9842491439231
 21
-548.127351153959
 31
0.0
  0
LINE
  5
87
330
33
100
AcDbEntity
  8
1
  6
Continuous
 62
     3
100
AcDbLine
 10
475.3156882932307
 20
-557.117351153959
 30
0.0
 11
467.9842491439231
 21
-557.117351153959
 31
0.0
  0
LINE
  5
88
330
33
100
AcDbEntity
  8
1
  6
Continuous
 62
     3
100
AcDbLine
 10
477.649968718577
 20
-557.117351153959
 30
0.0
 11
477.649968718577
 21
-560.6173511539589
 31
0.0
  0
LINE
  5
89
330
33
100
AcDbEntity
  8
1
  6
Continuous
 62
     3
100
AcDbLine
 10
465.649968718577
 20
-557.117351153959
 30
0.0
 11
465.6499687185771
 21
-560.6173511539589
 31
0.0
  0
LINE
  5
8A
330
33
100
AcDbEntity
  8
1
  6
Continuous
 62
     3
100
AcDbLine
 10
466.899968718577
 20
-557.117351153959
 30
0.0
 11
465.649968718577
 21
-557.117351153959
 31
0.0
  0
LINE
  5
8B
330
33
100
AcDbEntity
  8
1
  6
Continuous
 62
     3
100
AcDbLine
 10
380.3156882932309
 20
-557.117351153959
 30
0.0
 11
372.9842491439233
 21
-557.117351153959
 31
0.0
  0
LINE
  5
8C
330
33
100
AcDbEntity
  8
1
  6
Continuous
 62
     1
100
AcDbLine
 10
380.3156882932309
 20
-557.117351153959
 30
0.0
 11
372.9842491439233
 21
-548.127351153959
 31
0.0
  0
LINE
  5
8D
330
33
100
AcDbEntity
  8
1
  6
Continuous
 62
     3
100
AcDbLine
 10
372.9842491439233
 20
-557.117351153959
 30
0.0
 11
371.8999687185771
 21
-557.117351153959
 31
0.0
  0
LINE
  5
8E
330
33
100
AcDbEntity
  8
1
  6
Continuous
 62
     1
100
AcDbLine
 10
380.3156882932309
 20
-548.127351153959
 30
0.0
 11
372.9842491439233
 21
-557.117351153959
 31
0.0
  0
LINE
  5
8F
330
33
100
AcDbEntity
  8
1
  6
Continuous
 62
     3
100
AcDbLine
 10
381.3999687185771
 20
-548.127351153959
 30
0.0
 11
381.3999687185772
 21
-548.6173511539589
 31
0.0
  0
LINE
  5
90
330
33
100
AcDbEntity
  8
1
  6
Continuous
 62
     3
100
AcDbLine
 10
381.3999687185771
 20
-548.127351153959
 30
0.0
 11
380.3156882932309
 21
-548.127351153959
 31
0.0
  0
LINE
  5
91
330
33
100
AcDbEntity
  8
1
  6
Continuous
 62
     3
100
AcDbLine
 10
371.8999687185771
 20
-548.127351153959
 30
0.0
 11
371.8999687185771
 21
-547.4060262885537
 31
0.0
  0
LINE
  5
92
330
33
100
AcDbEntity
  8
1
  6
Continuous
 62
     3
100
AcDbLine
 10
372.9842491439233
 20
-548.127351153959
 30
0.0
 11
372.9842491439233
 21
-557.117351153959
 31
0.0
  0
LINE
  5
93
330
33
100
AcDbEntity
  8
1
  6
Continuous
 62
     3
100
AcDbLine
 10
372.9842491439233
 20
-548.127351153959
 30
0.0
 11
371.8999687185771
 21
-548.127351153959
 31
0.0
  0
LINE
  5
94
330
33
100
AcDbEntity
  8
1
  6
Continuous
 62
     3
100
AcDbLine
 10
372.3999687185771
 20
-547.1173511539589
 30
0.0
 11
371.8999687185771
 21
-547.4060262885537
 31
0.0
  0
LINE
  5
95
330
33
100
AcDbEntity
  8
1
  6
Continuous
 62
     3
100
AcDbLine
 10
381.3999687185772
 20
-547.4060262885537
 30
0.0
 11
380.8999687185771
 21
-547.1173511539589
 31
0.0
  0
LINE
  5
96
330
33
100
AcDbEntity
  8
1
  6
Continuous
 62
     3
100
AcDbLine
 10
371.8999687185771
 20
-557.117351153959
 30
0.0
 11
371.8999687185771
 21
-548.127351153959
 31
0.0
  0
LINE
  5
97
330
33
100
AcDbEntity
  8
1
  6
Continuous
 62
     3
100
AcDbLine
 10
380.3156882932309
 20
-557.117351153959
 30
0.0
 11
380.3156882932309
 21
-548.127351153959
 31
0.0
  0
LINE
  5
98
330
33
100
AcDbEntity
  8
1
  6
Continuous
 62
     3
100
AcDbLine
 10
380.8999687185771
 20
-547.1173511539589
 30
0.0
 11
372.3999687185771
 21
-547.1173511539589
 31
0.0
  0
LINE
  5
99
330
33
100
AcDbEntity
  8
1
  6
Continuous
 62
     3
100
AcDbLine
 10
381.3999687185772
 20
-547.4060262885537
 30
0.0
 11
381.3999687185771
 21
-548.127351153959
 31
0.0
  0
LINE
  5
9A
330
33
100
AcDbEntity
  8
1
  6
Continuous
 62
     3
100
AcDbLine
 10
382.6499687185771
 20
-557.117351153959
 30
0.0
 11
381.3999687185771
 21
-557.117351153959
 31
0.0
  0
LINE
  5
9B
330
33
100
AcDbEntity
  8
1
  6
Continuous
 62
     3
100
AcDbLine
 10
381.3999687185771
 20
-557.117351153959
 30
0.0
 11
380.3156882932309
 21
-557.117351153959
 31
0.0
  0
LINE
  5
9C
330
33
100
AcDbEntity
  8
1
  6
Continuous
 62
     3
100
AcDbLine
 10
371.8999687185771
 20
-557.117351153959
 30
0.0
 11
370.6499687185771
 21
-557.117351153959
 31
0.0
  0
LINE
  5
9D
330
33
100
AcDbEntity
  8
1
  6
Continuous
 62
     3
100
AcDbLine
 10
381.3999687185772
 20
-548.6173511539589
 30
0.0
 11
381.3999687185771
 21
-557.117351153959
 31
0.0
  0
LINE
  5
9E
330
33
100
AcDbEntity
  8
1
  6
Continuous
 62
     3
100
AcDbLine
 10
382.6499687185771
 20
-557.117351153959
 30
0.0
 11
382.6499687185771
 21
-560.6173511539589
 31
0.0
  0
LINE
  5
9F
330
33
100
AcDbEntity
  8
1
  6
Continuous
 62
     3
100
AcDbLine
 10
370.6499687185771
 20
-557.117351153959
 30
0.0
 11
370.6499687185772
 21
-560.6173511539589
 31
0.0
  0
ARC
  5
A0
330
33
100
AcDbEntity
  8
1
  6
Continuous
 62
     3
100
AcDbCircle
 10
650.315085158313
 20
-557.0811464950444
 30
0.0
 40
9.675120206490595
100
AcDbArc
 50
67.73561128814158
 51
112.2643887118591
  0
ARC
  5
A1
330
33
100
AcDbEntity
  8
1
  6
Continuous
 62
     3
100
AcDbCircle
 10
559.8214967324321
 20
-557.0811464950444
 30
0.0
 40
9.675120206490595
100
AcDbArc
 50
67.73561128814158
 51
112.2643887118591
  0
ARC
  5
A2
330
33
100
AcDbEntity
  8
1
  6
Continuous
 62
     3
100
AcDbCircle
 10
471.649968718577
 20
-557.0811464950444
 30
0.0
 40
9.675120206490595
100
AcDbArc
 50
67.73561128814158
 51
112.2643887118594
  0
ARC
  5
A3
330
33
100
AcDbEntity
  8
1
  6
Continuous
 62
     3
100
AcDbCircle
 10
376.6499687185771
 20
-557.0811464950444
 30
0.0
 40
9.675120206490616
100
AcDbArc
 50
67.73561128814127
 51
112.2643887118587
  0
CIRCLE
  5
A4
330
33
100
AcDbEntity
  8
1
  6
Continuous
 62
     3
100
AcDbCircle
 10
471.649968718577
 20
-496.3673511539589
 30
0.0
 40
4.250000000000171
  0
CIRCLE
  5
A5
330
33
100
AcDbEntity
  8
1
  6
Continuous
 62
     3
100
AcDbCircle
 10
471.649968718577
 20
-496.3673511539589
 30
0.0
 40
6.000000000000068
  0
ENDBLK
  5
35
330
33
100
AcDbEntity
  8
0
100
AcDbBlockEnd
  0
BLOCK
  5
37
330
36
100
AcDbEntity
  8
0
100
AcDbBlockBegin
  2
_4
 70
     0
 71
     0
 10
334.9703936029752
 20
-273.63030285773
 30
0.0
  3
_4
  1

  0
LINE
  5
A6
330
36
100
AcDbEntity
  8
1
  6
Continuous
 62
     3
100
AcDbLine
 10
546.3214967324323
 20
-572.1173511539589
 30
0.0
 11
546.3214967324323
 21
-567.1173511539589
 31
0.0
  0
LINE
  5
A7
330
36
100
AcDbEntity
  8
1
  6
Continuous
 62
     3
100
AcDbLine
 10
573.3214967324321
 20
-567.1173511539589
 30
0.0
 11
573.3214967324321
 21
-572.1173511539589
 31
0.0
  0
LINE
  5
A8
330
36
100
AcDbEntity
  8
1
  6
Continuous
 62
     3
100
AcDbLine
 10
552.9827836777417
 20
-560.6173511539589
 30
0.0
 11
552.9827836777417
 21
-567.1173511539589
 31
0.0
  0
LINE
  5
A9
330
36
100
AcDbEntity
  8
1
  6
Continuous
 62
     3
100
AcDbLine
 10
545.9117158658763
 20
-567.1173511539589
 30
0.0
 11
545.9117158658763
 21
-560.6173511539589
 31
0.0
  0
LINE
  5
AA
330
36
100
AcDbEntity
  8
1
  6
Continuous
 62
     3
100
AcDbLine
 10
559.8214967324321
 20
-560.6173511539589
 30
0.0
 11
545.9117158658763
 21
-560.6173511539589
 31
0.0
  0
LINE
  5
AB
330
36
100
AcDbEntity
  8
1
  6
Continuous
 62
     3
100
AcDbLine
 10
554.4899567128808
 20
-560.6173511539589
 30
0.0
 11
554.4899567128808
 21
-567.1173511539589
 31
0.0
  0
LINE
  5
AC
330
36
100
AcDbEntity
  8
1
  6
Continuous
 62
     3
100
AcDbLine
 10
554.4899567128808
 20
-567.1173511539589
 30
0.0
 11
545.9117158658763
 21
-567.1173511539589
 31
0.0
  0
LINE
  5
AD
330
36
100
AcDbEntity
  8
1
  6
Continuous
 62
     3
100
AcDbLine
 10
565.1530367519836
 20
-567.1173511539589
 30
0.0
 11
565.1530367519836
 21
-560.6173511539589
 31
0.0
  0
LINE
  5
AE
330
36
100
AcDbEntity
  8
1
  6
Continuous
 62
     3
100
AcDbLine
 10
566.6602097871225
 20
-567.1173511539589
 30
0.0
 11
566.6602097871225
 21
-560.6173511539589
 31
0.0
  0
LINE
  5
AF
330
36
100
AcDbEntity
  8
1
  6
Continuous
 62
     3
100
AcDbLine
 10
573.7312775989881
 20
-560.6173511539589
 30
0.0
 11
559.8214967324321
 21
-560.6173511539589
 31
0.0
  0
LINE
  5
B0
330
36
100
AcDbEntity
  8
1
  6
Continuous
 62
     3
100
AcDbLine
 10
573.7312775989881
 20
-567.1173511539589
 30
0.0
 11
565.1530367519836
 21
-567.1173511539589
 31
0.0
  0
LINE
  5
B1
330
36
100
AcDbEntity
  8
1
  6
Continuous
 62
     3
100
AcDbLine
 10
573.7312775989881
 20
-560.6173511539589
 30
0.0
 11
573.7312775989881
 21
-567.1173511539589
 31
0.0
  0
LINE
  5
B2
330
36
100
AcDbEntity
  8
1
  6
Continuous
 62
     3
100
AcDbLine
 10
485.5597495851329
 20
-560.6173511539589
 30
0.0
 11
471.649968718577
 21
-560.6173511539589
 31
0.0
  0
LINE
  5
B3
330
36
100
AcDbEntity
  8
1
  6
Continuous
 62
     3
100
AcDbLine
 10
485.5597495851329
 20
-560.6173511539589
 30
0.0
 11
485.5597495851329
 21
-567.1173511539589
 31
0.0
  0
LINE
  5
B4
330
36
100
AcDbEntity
  8
1
  6
Continuous
 62
     3
100
AcDbLine
 10
485.149968718577
 20
-567.1173511539589
 30
0.0
 11
485.149968718577
 21
-572.1173511539589
 31
0.0
  0
LINE
  5
B5
330
36
100
AcDbEntity
  8
1
  6
Continuous
 62
     3
100
AcDbLine
 10
458.1499687185771
 20
-572.1173511539589
 30
0.0
 11
458.1499687185771
 21
-567.1173511539589
 31
0.0
  0
LINE
  5
B6
330
36
100
AcDbEntity
  8
1
  6
Continuous
 62
     3
100
AcDbLine
 10
464.8112556638867
 20
-560.6173511539589
 30
0.0
 11
464.8112556638867
 21
-567.1173511539589
 31
0.0
  0
LINE
  5
B7
330
36
100
AcDbEntity
  8
1
  6
Continuous
 62
     3
100
AcDbLine
 10
457.7401878520212
 20
-567.1173511539589
 30
0.0
 11
457.7401878520212
 21
-560.6173511539589
 31
0.0
  0
LINE
  5
B8
330
36
100
AcDbEntity
  8
1
  6
Continuous
 62
     3
100
AcDbLine
 10
471.649968718577
 20
-560.6173511539589
 30
0.0
 11
457.7401878520212
 21
-560.6173511539589
 31
0.0
  0
LINE
  5
B9
330
36
100
AcDbEntity
  8
1
  6
Continuous
 62
     3
100
AcDbLine
 10
466.3184286990257
 20
-560.6173511539589
 30
0.0
 11
466.3184286990257
 21
-567.1173511539589
 31
0.0
  0
LINE
  5
BA
330
36
100
AcDbEntity
  8
1
  6
Continuous
 62
     3
100
AcDbLine
 10
466.3184286990257
 20
-567.1173511539589
 30
0.0
 11
457.7401878520212
 21
-567.1173511539589
 31
0.0
  0
LINE
  5
BB
330
36
100
AcDbEntity
  8
1
  6
Continuous
 62
     3
100
AcDbLine
 10
476.9815087381284
 20
-567.1173511539589
 30
0.0
 11
476.9815087381284
 21
-560.6173511539589
 31
0.0
  0
LINE
  5
BC
330
36
100
AcDbEntity
  8
1
  6
Continuous
 62
     3
100
AcDbLine
 10
478.4886817732674
 20
-567.1173511539589
 30
0.0
 11
478.4886817732674
 21
-560.6173511539589
 31
0.0
  0
LINE
  5
BD
330
36
100
AcDbEntity
  8
1
  6
Continuous
 62
     3
100
AcDbLine
 10
485.5597495851329
 20
-567.1173511539589
 30
0.0
 11
476.9815087381284
 21
-567.1173511539589
 31
0.0
  0
LINE
  5
BE
330
36
100
AcDbEntity
  8
1
  6
Continuous
 62
     3
100
AcDbLine
 10
390.5597495851331
 20
-560.6173511539589
 30
0.0
 11
390.5597495851331
 21
-567.1173511539589
 31
0.0
  0
LINE
  5
BF
330
36
100
AcDbEntity
  8
1
  6
Continuous
 62
     3
100
AcDbLine
 10
390.5597495851331
 20
-567.1173511539589
 30
0.0
 11
381.9815087381286
 21
-567.1173511539589
 31
0.0
  0
LINE
  5
C0
330
36
100
AcDbEntity
  8
1
  6
Continuous
 62
     3
100
AcDbLine
 10
390.5597495851331
 20
-560.6173511539589
 30
0.0
 11
376.6499687185771
 21
-560.6173511539589
 31
0.0
  0
LINE
  5
C1
330
36
100
AcDbEntity
  8
1
  6
Continuous
 62
     3
100
AcDbLine
 10
383.4886817732674
 20
-567.1173511539589
 30
0.0
 11
383.4886817732674
 21
-560.6173511539589
 31
0.0
  0
LINE
  5
C2
330
36
100
AcDbEntity
  8
1
  6
Continuous
 62
     3
100
AcDbLine
 10
381.9815087381286
 20
-567.1173511539589
 30
0.0
 11
381.9815087381286
 21
-560.6173511539589
 31
0.0
  0
LINE
  5
C3
330
36
100
AcDbEntity
  8
1
  6
Continuous
 62
     3
100
AcDbLine
 10
371.3184286990258
 20
-567.1173511539589
 30
0.0
 11
362.7401878520213
 21
-567.1173511539589
 31
0.0
  0
LINE
  5
C4
330
36
100
AcDbEntity
  8
1
  6
Continuous
 62
     3
100
AcDbLine
 10
371.3184286990258
 20
-560.6173511539589
 30
0.0
 11
371.3184286990258
 21
-567.1173511539589
 31
0.0
  0
LINE
  5
C5
330
36
100
AcDbEntity
  8
1
  6
Continuous
 62
     3
100
AcDbLine
 10
376.6499687185771
 20
-560.6173511539589
 30
0.0
 11
362.7401878520213
 21
-560.6173511539589
 31
0.0
  0
LINE
  5
C6
330
36
100
AcDbEntity
  8
1
  6
Continuous
 62
     3
100
AcDbLine
 10
362.7401878520213
 20
-567.1173511539589
 30
0.0
 11
362.7401878520213
 21
-560.6173511539589
 31
0.0
  0
LINE
  5
C7
330
36
100
AcDbEntity
  8
1
  6
Continuous
 62
     3
100
AcDbLine
 10
369.8112556638868
 20
-560.6173511539589
 30
0.0
 11
369.8112556638868
 21
-567.1173511539589
 31
0.0
  0
LINE
  5
C8
330
36
100
AcDbEntity
  8
1
  6
Continuous
 62
     3
100
AcDbLine
 10
390.1499687185771
 20
-567.1173511539589
 30
0.0
 11
390.1499687185771
 21
-572.1173511539589
 31
0.0
  0
LINE
  5
C9
330
36
100
AcDbEntity
  8
1
  6
Continuous
 62
     3
100
AcDbLine
 10
363.1499687185772
 20
-572.1173511539589
 30
0.0
 11
363.1499687185772
 21
-567.1173511539589
 31
0.0
  0
LINE
  5
CA
330
36
100
AcDbEntity
  8
1
  6
Continuous
 62
     3
100
AcDbLine
 10
636.4053042917569
 20
-567.1173511539589
 30
0.0
 11
636.4053042917569
 21
-560.6173511539589
 31
0.0
  0
LINE
  5
CB
330
36
100
AcDbEntity
  8
1
  6
Continuous
 62
     3
100
AcDbLine
 10
644.9835451387615
 20
-567.1173511539589
 30
0.0
 11
636.4053042917569
 21
-567.1173511539589
 31
0.0
  0
LINE
  5
CC
330
36
100
AcDbEntity
  8
1
  6
Continuous
 62
     3
100
AcDbLine
 10
650.315085158313
 20
-560.6173511539589
 30
0.0
 11
636.4053042917569
 21
-560.6173511539589
 31
0.0
  0
LINE
  5
CD
330
36
100
AcDbEntity
  8
1
  6
Continuous
 62
     3
100
AcDbLine
 10
643.4763721036225
 20
-560.6173511539589
 30
0.0
 11
643.4763721036225
 21
-567.1173511539589
 31
0.0
  0
LINE
  5
CE
330
36
100
AcDbEntity
  8
1
  6
Continuous
 62
     3
100
AcDbLine
 10
644.9835451387615
 20
-560.6173511539589
 30
0.0
 11
644.9835451387615
 21
-567.1173511539589
 31
0.0
  0
LINE
  5
CF
330
36
100
AcDbEntity
  8
1
  6
Continuous
 62
     3
100
AcDbLine
 10
664.2248660248689
 20
-567.1173511539589
 30
0.0
 11
655.6466251778644
 21
-567.1173511539589
 31
0.0
  0
LINE
  5
D0
330
36
100
AcDbEntity
  8
1
  6
Continuous
 62
     3
100
AcDbLine
 10
655.6466251778644
 20
-567.1173511539589
 30
0.0
 11
655.6466251778644
 21
-560.6173511539589
 31
0.0
  0
LINE
  5
D1
330
36
100
AcDbEntity
  8
1
  6
Continuous
 62
     3
100
AcDbLine
 10
664.2248660248689
 20
-560.6173511539589
 30
0.0
 11
650.315085158313
 21
-560.6173511539589
 31
0.0
  0
LINE
  5
D2
330
36
100
AcDbEntity
  8
1
  6
Continuous
 62
     3
100
AcDbLine
 10
664.2248660248689
 20
-560.6173511539589
 30
0.0
 11
664.2248660248689
 21
-567.1173511539589
 31
0.0
  0
LINE
  5
D3
330
36
100
AcDbEntity
  8
1
  6
Continuous
 62
     3
100
AcDbLine
 10
657.1537982130034
 20
-567.1173511539589
 30
0.0
 11
657.1537982130034
 21
-560.6173511539589
 31
0.0
  0
LINE
  5
D4
330
36
100
AcDbEntity
  8
1
  6
Continuous
 62
     3
100
AcDbLine
 10
663.815085158313
 20
-567.1173511539589
 30
0.0
 11
663.815085158313
 21
-572.1173511539589
 31
0.0
  0
LINE
  5
D5
330
36
100
AcDbEntity
  8
1
  6
Continuous
 62
     3
100
AcDbLine
 10
636.815085158313
 20
-572.1173511539589
 30
0.0
 11
636.815085158313
 21
-567.1173511539589
 31
0.0
  0
ENDBLK
  5
38
330
36
100
AcDbEntity
  8
0
100
AcDbBlockEnd
  0
BLOCK
  5
3A
330
39
100
AcDbEntity
  8
0
100
AcDbBlockBegin
  2
Top__1
 70
     0
 71
     0
 10
1265.868961413722
 20
-716.4957613204489
 30
0.0
  3
Top__1
  1

  0
LINE
  5
D6
330
39
100
AcDbEntity
  8
1
  6
Continuous
 62
     3
100
AcDbLine
 10
437.5263570934431
 20
-512.8513257501743
 30
0.0
 11
436.6510794184697
 21
-511.3353003463898
 31
0.0
  0
LINE
  5
D7
330
39
100
AcDbEntity
  8
1
  6
Continuous
 62
     3
100
AcDbLine
 10
436.649968718577
 20
-481.3999143990819
 30
0.0
 11
436.649968718577
 21
-511.3339291844369
 31
0.0
  0
LINE
  5
D8
330
39
100
AcDbEntity
  8
1
  6
Continuous
 62
     3
100
AcDbLine
 10
436.6510794184697
 20
-481.3994019615278
 30
0.0
 11
437.5263570934431
 21
-479.8833765577433
 31
0.0
  0
LINE
  5
D9
330
39
100
AcDbEntity
  8
1
  6
Continuous
 62
     3
100
AcDbLine
 10
452.1882958791115
 20
-479.8833765577433
 30
0.0
 11
437.5263570934431
 21
-479.8833765577433
 31
0.0
  0
LINE
  5
DA
330
39
100
AcDbEntity
  8
1
  6
Continuous
 62
     3
100
AcDbLine
 10
452.195612661259
 20
-512.8673511539589
 30
0.0
 11
437.531042943091
 21
-512.8673511539589
 31
0.0
  0
LINE
  5
DB
330
39
100
AcDbEntity
  8
1
  6
Continuous
 62
     3
100
AcDbLine
 10
482.3333439282216
 20
-515.3673511539589
 30
0.0
 11
471.649968718577
 21
-515.3673511539589
 31
0.0
  0
LINE
  5
DC
330
39
100
AcDbEntity
  8
1
  6
Continuous
 62
     3
100
AcDbLine
 10
482.3333439282219
 20
-477.3673511539588
 30
0.0
 11
471.649968718577
 21
-477.3673511539588
 31
0.0
  0
LINE
  5
DD
330
39
100
AcDbEntity
  8
1
  6
Continuous
 62
     3
100
AcDbLine
 10
491.649968718577
 20
-499.8132218371319
 30
0.0
 11
491.649968718577
 21
-516.8494019615278
 31
0.0
  0
LINE
  5
DE
330
39
100
AcDbEntity
  8
1
  6
Continuous
 62
     3
100
AcDbLine
 10
491.649968718577
 20
-475.8853003463899
 30
0.0
 11
491.649968718577
 21
-492.849586563469
 31
0.0
  0
LINE
  5
DF
330
39
100
AcDbEntity
  8
1
  6
Continuous
 62
     3
100
AcDbLine
 10
488.149968718577
 20
-517.1173511539589
 30
0.0
 11
487.1970764239691
 21
-516.164458859351
 31
0.0
  0
LINE
  5
E0
330
39
100
AcDbEntity
  8
1
  6
Continuous
 62
     3
100
AcDbLine
 10
488.149968718577
 20
-475.6173511539588
 30
0.0
 11
487.1970764239689
 21
-476.5702434485669
 31
0.0
  0
LINE
  5
E1
330
39
100
AcDbEntity
  8
1
  6
Continuous
 62
     3
100
AcDbLine
 10
490.649968718577
 20
-517.1173511539589
 30
0.0
 11
488.149968718577
 21
-517.1173511539589
 31
0.0
  0
LINE
  5
E2
330
39
100
AcDbEntity
  8
1
  6
Continuous
 62
     3
100
AcDbLine
 10
488.149968718577
 20
-475.6173511539588
 30
0.0
 11
490.649968718577
 21
-475.6173511539588
 31
0.0
  0
LINE
  5
E3
330
39
100
AcDbEntity
  8
1
  6
DASH_CENTER
 62
     3
100
AcDbLine
 10
439.5907510135309
 20
-496.3673511539588
 30
0.0
 11
451.649968718577
 21
-496.3673511539589
 31
0.0
  0
LINE
  5
E4
330
39
100
AcDbEntity
  8
1
  6
Continuous
 62
     3
100
AcDbLine
 10
439.5907510135309
 20
-496.3673511539588
 30
0.0
 11
451.649968718577
 21
-496.3673511539589
 31
0.0
  0
ARC
  5
E5
330
39
100
AcDbEntity
  8
1
  6
Continuous
 62
     3
100
AcDbCircle
 10
441.7958503358447
 20
-501.0728045181992
 30
0.0
 40
5.196513675947551
100
AcDbArc
 50
115.1090251133341
 51
171.9952523491509
  0
ARC
  5
E6
330
39
100
AcDbEntity
  8
1
  6
Continuous
 62
     3
100
AcDbCircle
 10
441.7958503358447
 20
-491.6618977897184
 30
0.0
 40
5.196513675947177
100
AcDbArc
 50
-171.9952523491509
 51
-115.1090251133341
  0
ARC
  5
E7
330
39
100
AcDbEntity
  8
1
  6
Continuous
 62
     3
100
AcDbCircle
 10
471.649968718577
 20
-516.3673511539589
 30
0.0
 40
39.00000000000011
100
AcDbArc
 50
90.0
 51
103.9449412984129
  0
ARC
  5
E8
330
39
100
AcDbEntity
  8
1
  6
Continuous
 62
     3
100
AcDbCircle
 10
471.649968718577
 20
-476.3673511539588
 30
0.0
 40
39.00000000000006
100
AcDbArc
 50
-92.77000562462224
 51
-92.38906358237672
  0
ARC
  5
E9
330
39
100
AcDbEntity
  8
1
  6
Continuous
 62
     3
100
AcDbCircle
 10
471.649968718577
 20
-476.3673511539588
 30
0.0
 40
39.00000000000006
100
AcDbArc
 50
-103.9449412984126
 51
-92.77000562462224
  0
ARC
  5
EA
330
39
100
AcDbEntity
  8
1
  6
Continuous
 62
     3
100
AcDbCircle
 10
471.649968718577
 20
-476.3673511539588
 30
0.0
 40
39.00000000000004
100
AcDbArc
 50
-92.38906358237672
 51
-90.0
  0
ARC
  5
EB
330
39
100
AcDbEntity
  8
1
  6
Continuous
 62
     3
100
AcDbCircle
 10
490.649968718577
 20
-515.1173511539589
 30
0.0
 40
2.0
100
AcDbArc
 50
-90.0
 51
-59.99999999999946
  0
ARC
  5
EC
330
39
100
AcDbEntity
  8
1
  6
Continuous
 62
     3
100
AcDbCircle
 10
490.649968718577
 20
-477.6173511539588
 30
0.0
 40
2.000000000000016
100
AcDbArc
 50
60.00000000000028
 51
90.0
  0
ENDBLK
  5
3B
330
39
100
AcDbEntity
  8
0
100
AcDbBlockEnd
  0
BLOCK
  5
3D
330
3C
100
AcDbEntity
  8
0
100
AcDbBlockBegin
  2
TOP
 70
     0
 71
     0
 10
371.772968345943
 20
-1535.618889864523
 30
0.0
  3
TOP
  1

  0
POINT
  5
ED
330
3C
100
AcDbEntity
  8
1
 62
     3
 60
     1
100
AcDbPoint
 10
564.4104846645847
 20
-1596.875077917918
 30
0.0
  0
POINT
  5
EE
330
3C
100
AcDbEntity
  8
1
 62
     3
 60
     1
100
AcDbPoint
 10
564.4104846645847
 20
-1620.875077917918
 30
0.0
  0
LINE
  5
EF
330
3C
100
AcDbEntity
  8
1
  6
DASH_CENTER
 62
     1
100
AcDbLine
 10
487.249968718577
 20
-496.3673511539589
 30
0.0
 11
456.049968718577
 21
-496.3673511539589
 31
0.0
  0
LINE
  5
F0
330
3C
100
AcDbEntity
  8
1
  6
DASH_CENTER
 62
     1
100
AcDbLine
 10
471.649968718577
 20
-511.9673511539589
 30
0.0
 11
471.649968718577
 21
-480.767351153959
 31
0.0
  0
LINE
  5
F1
330
3C
100
AcDbEntity
  8
6_ALL_DRFT_GEOM
  6
Continuous
 62
     3
100
AcDbLine
 10
471.6499687185769
 20
-503.8673511539588
 30
0.0
 11
471.6499687185769
 21
-508.7673511539589
 31
0.0
  0
LINE
  5
F2
330
3C
100
AcDbEntity
  8
6_ALL_DRFT_GEOM
  6
Continuous
 62
     3
100
AcDbLine
 10
484.049968718577
 20
-496.3673511539589
 30
0.0
 11
479.1499687185769
 21
-496.3673511539589
 31
0.0
  0
LINE
  5
F3
330
3C
100
AcDbEntity
  8
6_ALL_DRFT_GEOM
  6
Continuous
 62
     3
100
AcDbLine
 10
469.1499687185769
 20
-498.3673511539589
 30
0.0
 11
469.1499687185769
 21
-494.3673511539589
 31
0.0
  0
LINE
  5
F4
330
3C
100
AcDbEntity
  8
6_ALL_DRFT_GEOM
  6
Continuous
 62
     3
100
AcDbLine
 10
469.1499687185769
 20
-494.3673511539589
 30
0.0
 11
475.1499687185769
 21
-496.3673511539589
 31
0.0
  0
LINE
  5
F5
330
3C
100
AcDbEntity
  8
6_ALL_DRFT_GEOM
  6
Continuous
 62
     3
100
AcDbLine
 10
475.1499687185769
 20
-496.3673511539589
 30
0.0
 11
469.1499687185769
 21
-498.3673511539589
 31
0.0
  0
ARC
  5
F6
330
3C
100
AcDbEntity
  8
6_ALL_DRFT_GEOM
  6
Continuous
 62
     3
100
AcDbCircle
 10
471.649968718577
 20
-496.3673511539589
 30
0.0
 40
7.499999999999886
100
AcDbArc
 50
-90.00000000000088
 51
0.0
  0
ARC
  5
F7
330
3C
100
AcDbEntity
  8
1
  6
Continuous
 62
     3
100
AcDbCircle
 10
474.2831860175638
 20
-494.2202704216173
 30
0.0
 40
9.999999999999957
100
AcDbArc
 50
-105.2672535353402
 51
-12.39840117245556
  0
CIRCLE
  5
F8
330
3C
100
AcDbEntity
  8
1
  6
Continuous
 62
     3
100
AcDbCircle
 10
471.649968718577
 20
-496.3673511539589
 30
0.0
 40
13.0
  0
LWPOLYLINE
  5
F9
330
3C
100
AcDbEntity
  8
6_ALL_DRFT_GEOM
  6
Continuous
 62
     3
 60
     1
100
AcDbPolyline
 90
        4
 70
     0
 43
0.0
 10
469.1499687906769
 20
-494.3673511539589
 10
469.1499687906769
 20
-498.3673511539589
 10
475.1499687185769
 20
-496.3673511539589
 10
469.1499687906769
 20
-494.3673511539589
  0
MTEXT
  5
FB
330
3C
100
AcDbEntity
  8
0
 62
     3
100
AcDbMText
 10
479.0161471273768
 20
-489.478391454559
 30
0.0
 40
3.0
 41
0.0
 71
     7
 72
     1
  1
100
  7
CONVERTER_1
 11
0.0
 21
-1.0
 31
0.0
 73
     1
 44
0.60024009603842
  0
MTEXT
  5
FC
330
3C
100
AcDbEntity
  8
0
 62
     3
100
AcDbMText
 10
470.7785748182769
 20
-505.2357874698589
 30
0.0
 40
3.0
 41
0.0
 71
     7
 72
     1
  1
0
  7
CONVERTER_1
 11
-1.0
 21
1.836909530733566E-16
 31
0.0
 73
     1
 44
0.60024009603842
  0
ENDBLK
  5
3E
330
3C
100
AcDbEntity
  8
0
100
AcDbBlockEnd
  0
BLOCK
  5
40
330
3F
100
AcDbEntity
  8
0
100
AcDbBlockBegin
  2
Top__2
 70
     0
 71
     0
 10
900.2491400638539
 20
-808.765621783499
 30
0.0
  3
Top__2
  1

  0
LINE
  5
FD
330
3F
100
AcDbEntity
  8
1
  6
Continuous
 62
     3
100
AcDbLine
 10
496.649968718577
 20
-639.617351153959
 30
0.0
 11
496.649968718577
 21
-641.117351153959
 31
0.0
  0
LINE
  5
FE
330
3F
100
AcDbEntity
  8
1
  6
Continuous
 62
     3
100
AcDbLine
 10
492.149968718577
 20
-602.117351153959
 30
0.0
 11
495.649968718577
 21
-602.117351153959
 31
0.0
  0
LINE
  5
FF
330
3F
100
AcDbEntity
  8
1
  6
Continuous
 62
     3
100
AcDbLine
 10
496.649968718577
 20
-604.617351153959
 30
0.0
 11
496.649968718577
 21
-603.117351153959
 31
0.0
  0
LINE
  5
100
330
3F
100
AcDbEntity
  8
1
  6
DOT_CENTER
 62
     1
100
AcDbLine
 10
474.2061495694491
 20
-622.117351153959
 30
0.0
 11
521.2061495694491
 21
-622.117351153959
 31
0.0
  0
LINE
  5
101
330
3F
100
AcDbEntity
  8
1
  6
Continuous
 62
     3
100
AcDbLine
 10
495.649968718577
 20
-642.117351153959
 30
0.0
 11
492.149968718577
 21
-642.117351153959
 31
0.0
  0
LINE
  5
102
330
3F
100
AcDbEntity
  8
1
  6
Continuous
 62
     3
100
AcDbLine
 10
491.649968718577
 20
-604.8173511539591
 30
0.0
 11
491.649968718577
 21
-602.1808594808554
 31
0.0
  0
LINE
  5
103
330
3F
100
AcDbEntity
  8
1
  6
Continuous
 62
     3
100
AcDbLine
 10
491.649968718577
 20
-642.0538428270627
 30
0.0
 11
491.649968718577
 21
-639.417351153959
 31
0.0
  0
LINE
  5
104
330
3F
100
AcDbEntity
  8
1
  6
Continuous
 62
     3
100
AcDbLine
 10
496.649968718577
 20
-641.0431892552915
 30
0.0
 11
496.649968718577
 21
-641.117351153959
 31
0.0
  0
LINE
  5
105
330
3F
100
AcDbEntity
  8
1
  6
Continuous
 62
     3
100
AcDbLine
 10
496.649968718577
 20
-603.117351153959
 30
0.0
 11
496.649968718577
 21
-612.5910717123302
 31
0.0
  0
LINE
  5
106
330
3F
100
AcDbEntity
  8
1
  6
Continuous
 62
     3
100
AcDbLine
 10
515.7735803437108
 20
-604.117351153959
 30
0.0
 11
516.6488580186842
 21
-605.6333765577435
 31
0.0
  0
LINE
  5
107
330
3F
100
AcDbEntity
  8
1
  6
Continuous
 62
     3
100
AcDbLine
 10
515.7735803437108
 20
-604.117351153959
 30
0.0
 11
497.649968718577
 21
-604.117351153959
 31
0.0
  0
LINE
  5
108
330
3F
100
AcDbEntity
  8
1
  6
Continuous
 62
     3
100
AcDbLine
 10
516.6488580186842
 20
-638.6013257501745
 30
0.0
 11
515.7735803437108
 21
-640.117351153959
 31
0.0
  0
LINE
  5
109
330
3F
100
AcDbEntity
  8
1
  6
Continuous
 62
     3
100
AcDbLine
 10
516.6499687185769
 20
-638.598449238474
 30
0.0
 11
516.6499687185769
 21
-605.635760388978
 31
0.0
  0
LINE
  5
10A
330
3F
100
AcDbEntity
  8
1
  6
Continuous
 62
     3
100
AcDbLine
 10
515.7735803437108
 20
-640.117351153959
 30
0.0
 11
497.649968718577
 21
-640.117351153959
 31
0.0
  0
LINE
  5
10B
330
3F
100
AcDbEntity
  8
1
  6
Continuous
 62
     3
100
AcDbLine
 10
513.6781553603587
 20
-612.5910717123302
 30
0.0
 11
496.649968718577
 21
-612.5910717123302
 31
0.0
  0
LINE
  5
10C
330
3F
100
AcDbEntity
  8
1
  6
Continuous
 62
     3
100
AcDbLine
 10
496.649968718577
 20
-612.5910717123302
 30
0.0
 11
496.649968718577
 21
-631.6436305955879
 31
0.0
  0
LINE
  5
10D
330
3F
100
AcDbEntity
  8
1
  6
Continuous
 62
     3
100
AcDbLine
 10
513.6781553603587
 20
-631.6436305955879
 30
0.0
 11
496.649968718577
 21
-631.6436305955879
 31
0.0
  0
LINE
  5
10E
330
3F
100
AcDbEntity
  8
1
  6
Continuous
 62
     3
100
AcDbLine
 10
496.649968718577
 20
-631.6436305955879
 30
0.0
 11
496.649968718577
 21
-641.117351153959
 31
0.0
  0
LINE
  5
10F
330
3F
100
AcDbEntity
  8
1
  6
Continuous
 62
     3
100
AcDbLine
 10
625.315085158313
 20
-639.617351153959
 30
0.0
 11
625.315085158313
 21
-631.6436305955879
 31
0.0
  0
LINE
  5
110
330
3F
100
AcDbEntity
  8
1
  6
Continuous
 62
     3
100
AcDbLine
 10
625.315085158313
 20
-631.6436305955879
 30
0.0
 11
608.2868985165312
 21
-631.6436305955879
 31
0.0
  0
LINE
  5
111
330
3F
100
AcDbEntity
  8
1
  6
Continuous
 62
     3
100
AcDbLine
 10
625.315085158313
 20
-631.6436305955879
 30
0.0
 11
625.315085158313
 21
-612.5910717123302
 31
0.0
  0
LINE
  5
112
330
3F
100
AcDbEntity
  8
1
  6
Continuous
 62
     3
100
AcDbLine
 10
625.315085158313
 20
-612.5910717123302
 30
0.0
 11
608.2868985165312
 21
-612.5910717123302
 31
0.0
  0
LINE
  5
113
330
3F
100
AcDbEntity
  8
1
  6
Continuous
 62
     3
100
AcDbLine
 10
624.315085158313
 20
-638.617351153959
 30
0.0
 11
606.1914735331791
 21
-638.617351153959
 31
0.0
  0
LINE
  5
114
330
3F
100
AcDbEntity
  8
1
  6
Continuous
 62
     3
100
AcDbLine
 10
605.315085158313
 20
-607.135760388978
 30
0.0
 11
605.315085158313
 21
-637.098449238474
 31
0.0
  0
LINE
  5
115
330
3F
100
AcDbEntity
  8
1
  6
Continuous
 62
     3
100
AcDbLine
 10
606.1914735331791
 20
-638.617351153959
 30
0.0
 11
605.3161958582057
 21
-637.1013257501745
 31
0.0
  0
LINE
  5
116
330
3F
100
AcDbEntity
  8
1
  6
Continuous
 62
     3
100
AcDbLine
 10
624.315085158313
 20
-605.617351153959
 30
0.0
 11
606.1914735331791
 21
-605.617351153959
 31
0.0
  0
LINE
  5
117
330
3F
100
AcDbEntity
  8
1
  6
Continuous
 62
     3
100
AcDbLine
 10
605.3161958582057
 20
-607.1333765577435
 30
0.0
 11
606.1914735331791
 21
-605.617351153959
 31
0.0
  0
LINE
  5
118
330
3F
100
AcDbEntity
  8
1
  6
Continuous
 62
     3
100
AcDbLine
 10
625.315085158313
 20
-612.5910717123302
 30
0.0
 11
625.315085158313
 21
-604.617351153959
 31
0.0
  0
LINE
  5
119
330
3F
100
AcDbEntity
  8
1
  6
Continuous
 62
     3
100
AcDbLine
 10
625.315085158313
 20
-641.117351153959
 30
0.0
 11
625.315085158313
 21
-641.0431892552915
 31
0.0
  0
LINE
  5
11A
330
3F
100
AcDbEntity
  8
1
  6
Continuous
 62
     3
100
AcDbLine
 10
630.315085158313
 20
-639.417351153959
 30
0.0
 11
630.315085158313
 21
-642.0538428270627
 31
0.0
  0
LINE
  5
11B
330
3F
100
AcDbEntity
  8
1
  6
Continuous
 62
     3
100
AcDbLine
 10
630.315085158313
 20
-602.1808594808554
 30
0.0
 11
630.315085158313
 21
-604.8173511539591
 31
0.0
  0
LINE
  5
11C
330
3F
100
AcDbEntity
  8
1
  6
Continuous
 62
     3
100
AcDbLine
 10
629.815085158313
 20
-642.117351153959
 30
0.0
 11
626.315085158313
 21
-642.117351153959
 31
0.0
  0
LINE
  5
11D
330
3F
100
AcDbEntity
  8
1
  6
DOT_CENTER
 62
     1
100
AcDbLine
 10
600.7589043074408
 20
-622.117351153959
 30
0.0
 11
647.7589043074408
 21
-622.117351153959
 31
0.0
  0
LINE
  5
11E
330
3F
100
AcDbEntity
  8
1
  6
Continuous
 62
     3
100
AcDbLine
 10
625.315085158313
 20
-603.117351153959
 30
0.0
 11
625.315085158313
 21
-604.617351153959
 31
0.0
  0
LINE
  5
11F
330
3F
100
AcDbEntity
  8
1
  6
Continuous
 62
     3
100
AcDbLine
 10
626.315085158313
 20
-602.117351153959
 30
0.0
 11
629.815085158313
 21
-602.117351153959
 31
0.0
  0
LINE
  5
120
330
3F
100
AcDbEntity
  8
1
  6
Continuous
 62
     3
100
AcDbLine
 10
625.315085158313
 20
-641.117351153959
 30
0.0
 11
625.315085158313
 21
-639.617351153959
 31
0.0
  0
LINE
  5
121
330
3F
100
AcDbEntity
  8
1
  6
Continuous
 62
     3
100
AcDbLine
 10
561.8415288352435
 20
-604.2310583490311
 30
0.0
 11
574.3014646296207
 21
-611.4248056340003
 31
0.0
  0
LINE
  5
122
330
3F
100
AcDbEntity
  8
1
  6
Continuous
 62
     3
100
AcDbLine
 10
545.3415288352436
 20
-611.4248056340001
 30
0.0
 11
557.8014646296207
 21
-604.2310583490311
 31
0.0
  0
LINE
  5
123
330
3F
100
AcDbEntity
  8
1
  6
Continuous
 62
     3
100
AcDbLine
 10
543.3214967324324
 20
-629.3110984389285
 30
0.0
 11
543.3214967324321
 21
-614.9236038689897
 31
0.0
  0
LINE
  5
124
330
3F
100
AcDbEntity
  8
1
  6
Continuous
 62
     3
100
AcDbLine
 10
557.8014646296211
 20
-640.0036439588868
 30
0.0
 11
545.3415288352436
 21
-632.8098966739175
 31
0.0
  0
LINE
  5
125
330
3F
100
AcDbEntity
  8
1
  6
Continuous
 62
     3
100
AcDbLine
 10
574.3014646296209
 20
-632.8098966739171
 30
0.0
 11
561.8415288352434
 21
-640.0036439588868
 31
0.0
  0
LINE
  5
126
330
3F
100
AcDbEntity
  8
1
  6
Continuous
 62
     3
100
AcDbLine
 10
576.3214967324321
 20
-614.9236038689897
 30
0.0
 11
576.3214967324321
 21
-629.311098438928
 31
0.0
  0
LINE
  5
127
330
3F
100
AcDbEntity
  8
1
  6
Continuous
 62
     3
100
AcDbLine
 10
515.7735803437108
 20
-512.8673511539589
 30
0.0
 11
497.649968718577
 21
-512.8673511539589
 31
0.0
  0
LINE
  5
128
330
3F
100
AcDbEntity
  8
1
  6
Continuous
 62
     3
100
AcDbLine
 10
516.6499687185769
 20
-511.3484492384739
 30
0.0
 11
516.6499687185769
 21
-481.3857603889779
 31
0.0
  0
LINE
  5
129
330
3F
100
AcDbEntity
  8
1
  6
Continuous
 62
     3
100
AcDbLine
 10
516.6488580186842
 20
-511.3513257501744
 30
0.0
 11
515.7735803437108
 21
-512.8673511539589
 31
0.0
  0
LINE
  5
12A
330
3F
100
AcDbEntity
  8
1
  6
Continuous
 62
     3
100
AcDbLine
 10
515.7735803437108
 20
-479.8673511539589
 30
0.0
 11
497.649968718577
 21
-479.8673511539589
 31
0.0
  0
LINE
  5
12B
330
3F
100
AcDbEntity
  8
1
  6
Continuous
 62
     3
100
AcDbLine
 10
515.7735803437108
 20
-479.8673511539589
 30
0.0
 11
516.6488580186842
 21
-481.3833765577433
 31
0.0
  0
LINE
  5
12C
330
3F
100
AcDbEntity
  8
1
  6
Continuous
 62
     3
100
AcDbLine
 10
496.649968718577
 20
-477.3673511539589
 30
0.0
 11
496.649968718577
 21
-515.3673511539589
 31
0.0
  0
LINE
  5
12D
330
3F
100
AcDbEntity
  8
1
  6
Continuous
 62
     3
100
AcDbLine
 10
496.649968718577
 20
-515.2931892552914
 30
0.0
 11
496.649968718577
 21
-515.3673511539589
 31
0.0
  0
LINE
  5
12E
330
3F
100
AcDbEntity
  8
1
  6
Continuous
 62
     3
100
AcDbLine
 10
491.649968718577
 20
-516.3038428270626
 30
0.0
 11
491.649968718577
 21
-513.6673511539589
 31
0.0
  0
LINE
  5
12F
330
3F
100
AcDbEntity
  8
1
  6
Continuous
 62
     3
100
AcDbLine
 10
491.649968718577
 20
-479.067351153959
 30
0.0
 11
491.649968718577
 21
-476.4308594808553
 31
0.0
  0
LINE
  5
130
330
3F
100
AcDbEntity
  8
1
  6
Continuous
 62
     3
100
AcDbLine
 10
495.649968718577
 20
-516.3673511539589
 30
0.0
 11
492.149968718577
 21
-516.3673511539589
 31
0.0
  0
LINE
  5
131
330
3F
100
AcDbEntity
  8
1
  6
Continuous
 62
     3
100
AcDbLine
 10
496.649968718577
 20
-478.8673511539589
 30
0.0
 11
496.649968718577
 21
-477.3673511539589
 31
0.0
  0
LINE
  5
132
330
3F
100
AcDbEntity
  8
1
  6
Continuous
 62
     3
100
AcDbLine
 10
492.149968718577
 20
-476.3673511539589
 30
0.0
 11
495.649968718577
 21
-476.3673511539589
 31
0.0
  0
LINE
  5
133
330
3F
100
AcDbEntity
  8
1
  6
Continuous
 62
     3
100
AcDbLine
 10
496.649968718577
 20
-513.8673511539589
 30
0.0
 11
496.649968718577
 21
-515.3673511539589
 31
0.0
  0
LINE
  5
134
330
3F
100
AcDbEntity
  8
1
  6
Continuous
 62
     3
100
AcDbLine
 10
496.649968718577
 20
-496.3673511539589
 30
0.0
 11
513.7091864236231
 21
-496.3673511539589
 31
0.0
  0
ARC
  5
135
330
3F
100
AcDbEntity
  8
1
  6
Continuous
 62
     3
100
AcDbCircle
 10
499.8956065442662
 20
-622.117351153959
 30
0.0
 40
16.75436217431071
100
AcDbArc
 50
-34.6516140958994
 51
34.6516140958994
  0
ARC
  5
136
330
3F
100
AcDbEntity
  8
1
  6
Continuous
 62
     3
100
AcDbCircle
 10
511.4730560380449
 20
-607.8856183480897
 30
0.0
 40
5.196513675947654
100
AcDbArc
 50
-64.89097488666643
 51
-8.00474765084914
  0
ARC
  5
137
330
3F
100
AcDbEntity
  8
1
  6
Continuous
 62
     3
100
AcDbCircle
 10
511.4730560380449
 20
-636.3490839598283
 30
0.0
 40
5.196513675947077
100
AcDbArc
 50
2.4108774817654
 51
64.89097488666589
  0
ARC
  5
138
330
3F
100
AcDbEntity
  8
1
  6
Continuous
 62
     3
100
AcDbCircle
 10
610.491997838845
 20
-636.3490839598283
 30
0.0
 40
5.196513675947551
100
AcDbArc
 50
115.1090251133341
 51
177.5891225182346
  0
ARC
  5
139
330
3F
100
AcDbEntity
  8
1
  6
Continuous
 62
     3
100
AcDbCircle
 10
610.491997838845
 20
-607.8856183480897
 30
0.0
 40
5.196513675947177
100
AcDbArc
 50
-171.9952523491509
 51
-115.1090251133336
  0
ARC
  5
13A
330
3F
100
AcDbEntity
  8
1
  6
Continuous
 62
     3
100
AcDbCircle
 10
622.0694473326237
 20
-622.117351153959
 30
0.0
 40
16.75436217431066
100
AcDbArc
 50
145.3483859041005
 51
-145.3483859041005
  0
ARC
  5
13B
330
3F
100
AcDbEntity
  8
1
  6
Continuous
 62
     3
100
AcDbCircle
 10
559.8214967324321
 20
-622.1173511539589
 30
0.0
 40
18.00000000000006
100
AcDbArc
 50
83.55646430910157
 51
96.4435356908988
  0
ARC
  5
13C
330
3F
100
AcDbEntity
  8
1
  6
Continuous
 62
     3
100
AcDbCircle
 10
559.8214967324321
 20
-622.1173511539589
 30
0.0
 40
18.00000000000001
100
AcDbArc
 50
-156.4435356908969
 51
-143.5564643091015
  0
ARC
  5
13D
330
3F
100
AcDbEntity
  8
1
  6
Continuous
 62
     3
100
AcDbCircle
 10
559.8214967324321
 20
-622.1173511539589
 30
0.0
 40
18.00000000000005
100
AcDbArc
 50
143.556464309101
 51
156.4435356908985
  0
ARC
  5
13E
330
3F
100
AcDbEntity
  8
1
  6
Continuous
 62
     3
100
AcDbCircle
 10
559.8214967324321
 20
-622.1173511539589
 30
0.0
 40
18.00000000000002
100
AcDbArc
 50
-96.44353569089735
 51
-83.55646430910193
  0
ARC
  5
13F
330
3F
100
AcDbEntity
  8
1
  6
Continuous
 62
     3
100
AcDbCircle
 10
559.8214967324321
 20
-622.1173511539589
 30
0.0
 40
18.00000000000003
100
AcDbArc
 50
23.55646430910147
 51
36.44353569089847
  0
ARC
  5
140
330
3F
100
AcDbEntity
  8
1
  6
Continuous
 62
     3
100
AcDbCircle
 10
559.8214967324321
 20
-622.1173511539589
 30
0.0
 40
17.9999999999999
100
AcDbArc
 50
-36.44353569089716
 51
-23.55646430910114
  0
ARC
  5
141
330
3F
100
AcDbEntity
  8
1
  6
Continuous
 62
     3
100
AcDbCircle
 10
511.5040871013093
 20
-501.0728045181993
 30
0.0
 40
5.196513675947177
100
AcDbArc
 50
8.00474765084914
 51
64.89097488666589
  0
ARC
  5
142
330
3F
100
AcDbEntity
  8
1
  6
Continuous
 62
     3
100
AcDbCircle
 10
511.5040871013093
 20
-491.6618977897185
 30
0.0
 40
5.196513675947551
100
AcDbArc
 50
-64.89097488666589
 51
-8.00474765084914
  0
CIRCLE
  5
143
330
3F
100
AcDbEntity
  8
1
  6
Continuous
 62
     3
100
AcDbCircle
 10
559.8214967324321
 20
-622.1173511539589
 30
0.0
 40
16.5
  0
CIRCLE
  5
144
330
3F
100
AcDbEntity
  8
1
  6
Continuous
 62
     1
100
AcDbCircle
 10
559.8214967324321
 20
-622.1173511539589
 30
0.0
 40
13.36294291552417
  0
CIRCLE
  5
145
330
3F
100
AcDbEntity
  8
1
  6
Continuous
 62
     3
100
AcDbCircle
 10
559.8214967324321
 20
-622.1173511539589
 30
0.0
 40
11.76937548629144
  0
CIRCLE
  5
146
330
3F
100
AcDbEntity
  8
1
  6
Continuous
 62
     3
100
AcDbCircle
 10
559.8214967324321
 20
-622.1173511539589
 30
0.0
 40
19.99999999999989
  0
ARC
  5
147
330
3F
100
AcDbEntity
  8
1
  6
Continuous
 62
     3
100
AcDbCircle
 10
497.649968718577
 20
-603.117351153959
 30
0.0
 40
1.0
100
AcDbArc
 50
180.0
 51
-90.0
  0
ARC
  5
148
330
3F
100
AcDbEntity
  8
1
  6
Continuous
 62
     3
100
AcDbCircle
 10
495.649968718577
 20
-603.117351153959
 30
0.0
 40
1.0
100
AcDbArc
 50
0.0
 51
90.0
  0
ARC
  5
149
330
3F
100
AcDbEntity
  8
1
  6
Continuous
 62
     3
100
AcDbCircle
 10
497.649968718577
 20
-641.117351153959
 30
0.0
 40
1.0
100
AcDbArc
 50
90.0
 51
180.0
  0
ARC
  5
14A
330
3F
100
AcDbEntity
  8
1
  6
Continuous
 62
     3
100
AcDbCircle
 10
495.649968718577
 20
-641.117351153959
 30
0.0
 40
1.0
100
AcDbArc
 50
-90.0
 51
0.0
  0
ARC
  5
14B
330
3F
100
AcDbEntity
  8
1
  6
Continuous
 62
     3
100
AcDbCircle
 10
492.149968718577
 20
-604.117351153959
 30
0.0
 40
2.0
100
AcDbArc
 50
90.0
 51
104.4775121859303
  0
ARC
  5
14C
330
3F
100
AcDbEntity
  8
1
  6
PHANTOM
 62
     3
100
AcDbCircle
 10
492.149968718577
 20
-640.117351153959
 30
0.0
 40
1.999999999999953
100
AcDbArc
 50
-104.4775121859303
 51
-90.0
  0
ARC
  5
14D
330
3F
100
AcDbEntity
  8
1
  6
PHANTOM
 62
     3
100
AcDbCircle
 10
629.815085158313
 20
-640.117351153959
 30
0.0
 40
2.0
100
AcDbArc
 50
-90.0
 51
-75.52248781406973
  0
ARC
  5
14E
330
3F
100
AcDbEntity
  8
1
  6
Continuous
 62
     3
100
AcDbCircle
 10
629.815085158313
 20
-604.117351153959
 30
0.0
 40
1.999999999999953
100
AcDbArc
 50
75.52248781406973
 51
90.0
  0
ARC
  5
14F
330
3F
100
AcDbEntity
  8
1
  6
Continuous
 62
     3
100
AcDbCircle
 10
626.315085158313
 20
-641.117351153959
 30
0.0
 40
1.0
100
AcDbArc
 50
180.0
 51
-90.0
  0
ARC
  5
150
330
3F
100
AcDbEntity
  8
1
  6
Continuous
 62
     3
100
AcDbCircle
 10
624.315085158313
 20
-639.617351153959
 30
0.0
 40
1.0
100
AcDbArc
 50
0.0
 51
90.0
  0
ARC
  5
151
330
3F
100
AcDbEntity
  8
1
  6
Continuous
 62
     3
100
AcDbCircle
 10
626.315085158313
 20
-603.117351153959
 30
0.0
 40
1.0
100
AcDbArc
 50
90.0
 51
180.0
  0
ARC
  5
152
330
3F
100
AcDbEntity
  8
1
  6
Continuous
 62
     3
100
AcDbCircle
 10
624.315085158313
 20
-604.617351153959
 30
0.0
 40
1.0
100
AcDbArc
 50
-90.0
 51
0.0
  0
ARC
  5
153
330
3F
100
AcDbEntity
  8
1
  6
PHANTOM
 62
     3
100
AcDbCircle
 10
492.149968718577
 20
-514.3673511539589
 30
0.0
 40
1.999999999999953
100
AcDbArc
 50
-104.4775121859303
 51
-90.0
  0
ARC
  5
154
330
3F
100
AcDbEntity
  8
1
  6
Continuous
 62
     3
100
AcDbCircle
 10
492.149968718577
 20
-478.3673511539589
 30
0.0
 40
2.0
100
AcDbArc
 50
90.0
 51
104.4775121859307
  0
ARC
  5
155
330
3F
100
AcDbEntity
  8
1
  6
Continuous
 62
     3
100
AcDbCircle
 10
495.649968718577
 20
-515.3673511539589
 30
0.0
 40
1.0
100
AcDbArc
 50
-90.0
 51
0.0
  0
ARC
  5
156
330
3F
100
AcDbEntity
  8
1
  6
Continuous
 62
     3
100
AcDbCircle
 10
497.559761767161
 20
-513.777144202543
 30
0.0
 40
0.9142541688916336
100
AcDbArc
 50
84.3375695967011
 51
174.3375695966933
  0
ARC
  5
157
330
3F
100
AcDbEntity
  8
1
  6
Continuous
 62
     3
100
AcDbCircle
 10
495.649968718577
 20
-477.3673511539589
 30
0.0
 40
1.0
100
AcDbArc
 50
0.0
 51
90.0
  0
ARC
  5
158
330
3F
100
AcDbEntity
  8
1
  6
Continuous
 62
     3
100
AcDbCircle
 10
497.649968718577
 20
-478.8673511539589
 30
0.0
 40
1.0
100
AcDbArc
 50
180.0
 51
-90.0
  0
ENDBLK
  5
41
330
3F
100
AcDbEntity
  8
0
100
AcDbBlockEnd
  0
BLOCK
  5
274
330
26B
100
AcDbEntity
  8
0
100
AcDbBlockBegin
  2
*D06
 70
     1
 71
     0
 10
0.0
 20
0.0
 30
0.0
  3
*D06
  1

  0
LINE
  5
26C
330
26B
100
AcDbEntity
  8
1
  6
Continuous
 62
     2
100
AcDbLine
 10
422.3025378058947
 20
-622.1173511539589
 30
0.0
 11
422.3025378058947
 21
-572.1173511539589
 31
0.0
  0
LINE
  5
26D
330
26B
100
AcDbEntity
  8
1
  6
Continuous
 62
     2
100
AcDbLine
 10
450.9179179110081
 20
-572.1173511539589
 30
0.0
 11
421.3025378058947
 21
-572.1173511539589
 31
0.0
  0
LINE
  5
26E
330
26B
100
AcDbEntity
  8
1
  6
Continuous
 62
     2
100
AcDbLine
 10
429.3025378058947
 20
-622.1173511539589
 30
0.0
 11
421.3025378058947
 21
-622.1173511539589
 31
0.0
  0
LINE
  5
26F
330
26B
100
AcDbEntity
  8
1
 62
     2
100
AcDbLine
 10
422.3025378058947
 20
-622.1173511539589
 30
0.0
 11
421.3647156323858
 21
-618.6173511539589
 31
0.0
  0
LINE
  5
270
330
26B
100
AcDbEntity
  8
1
 62
     2
100
AcDbLine
 10
422.3025378058947
 20
-622.1173511539589
 30
0.0
 11
423.2403599794037
 21
-618.6173511539589
 31
0.0
  0
LINE
  5
271
330
26B
100
AcDbEntity
  8
1
 62
     2
100
AcDbLine
 10
422.3025378058947
 20
-572.1173511539589
 30
0.0
 11
423.2403599794037
 21
-575.6173511539589
 31
0.0
  0
LINE
  5
272
330
26B
100
AcDbEntity
  8
1
 62
     2
100
AcDbLine
 10
422.3025378058947
 20
-572.1173511539589
 30
0.0
 11
421.3647156323858
 21
-575.6173511539589
 31
0.0
  0
MTEXT
  5
273
330
26B
100
AcDbEntity
  8
1
 62
     2
100
AcDbMText
 10
420.7025378058947
 20
-598.76101558008
 30
0.0
 40
3.5
 41
0.0
 71
     7
 72
     1
  1
50
  7
CONVERTER_1
 11
0.0
 21
1.0
 31
0.0
 73
     1
 44
0.60024009603842
  0
ENDBLK
  5
275
330
26B
100
AcDbEntity
  8
0
100
AcDbBlockEnd
  0
BLOCK
  5
277
330
276
100
AcDbEntity
  8
0
100
AcDbBlockBegin
  2
_Open30
 70
     0
 71
     0
 10
0.0
 20
0.0
 30
0.0
  3
_Open30
  1

  0
LINE
  5
279
330
276
100
AcDbEntity
  8
0
  6
ByBlock
 62
     0
370
    -2
100
AcDbLine
 10
-1.0
 20
0.267949
 30
0.0
 11
0.0
 21
0.0
 31
0.0
  0
LINE
  5
27A
330
276
100
AcDbEntity
  8
0
  6
ByBlock
 62
     0
370
    -2
100
AcDbLine
 10
0.0
 20
0.0
 30
0.0
 11
-1.0
 21
-0.267949
 31
0.0
  0
LINE
  5
27B
330
276
100
AcDbEntity
  8
0
  6
ByBlock
 62
     0
370
    -2
100
AcDbLine
 10
0.0
 20
0.0
 30
0.0
 11
-1.0
 21
0.0
 31
0.0
  0
ENDBLK
  5
278
330
276
100
AcDbEntity
  8
0
100
AcDbBlockEnd
  0
BLOCK
  5
287
330
27E
100
AcDbEntity
  8
0
100
AcDbBlockBegin
  2
*D18
 70
     1
 71
     0
 10
0.0
 20
0.0
 30
0.0
  3
*D18
  1

  0
LINE
  5
27F
330
27E
100
AcDbEntity
  8
1
  6
Continuous
 62
     2
100
AcDbLine
 10
422.248161997586
 20
-572.1173511539589
 30
0.0
 11
422.248161997586
 21
-547.1173511539589
 31
0.0
  0
LINE
  5
280
330
27E
100
AcDbEntity
  8
1
  6
Continuous
 62
     2
100
AcDbLine
 10
466.399968718577
 20
-547.1173511539589
 30
0.0
 11
421.248161997586
 21
-547.1173511539589
 31
0.0
  0
LINE
  5
281
330
27E
100
AcDbEntity
  8
1
  6
Continuous
 62
     2
100
AcDbLine
 10
450.9179179110081
 20
-572.1173511539589
 30
0.0
 11
421.248161997586
 21
-572.1173511539589
 31
0.0
  0
LINE
  5
282
330
27E
100
AcDbEntity
  8
1
 62
     2
100
AcDbLine
 10
422.248161997586
 20
-572.1173511539589
 30
0.0
 11
421.3103398240771
 21
-568.6173511539589
 31
0.0
  0
LINE
  5
283
330
27E
100
AcDbEntity
  8
1
 62
     2
100
AcDbLine
 10
422.248161997586
 20
-572.1173511539589
 30
0.0
 11
423.185984171095
 21
-568.6173511539589
 31
0.0
  0
LINE
  5
284
330
27E
100
AcDbEntity
  8
1
 62
     2
100
AcDbLine
 10
422.248161997586
 20
-547.1173511539589
 30
0.0
 11
423.185984171095
 21
-550.6173511539589
 31
0.0
  0
LINE
  5
285
330
27E
100
AcDbEntity
  8
1
 62
     2
100
AcDbLine
 10
422.248161997586
 20
-547.1173511539589
 30
0.0
 11
421.3103398240771
 21
-550.6173511539589
 31
0.0
  0
MTEXT
  5
286
330
27E
100
AcDbEntity
  8
1
 62
     2
100
AcDbMText
 10
420.648161997586
 20
-560.70712047822
 30
0.0
 40
3.5
 41
0.0
 71
     7
 72
     1
  1
25
  7
CONVERTER_1
 11
0.0
 21
1.0
 31
0.0
 73
     1
 44
0.60024009603842
  0
ENDBLK
  5
288
330
27E
100
AcDbEntity
  8
0
100
AcDbBlockEnd
  0
BLOCK
  5
294
330
28B
100
AcDbEntity
  8
0
100
AcDbBlockBegin
  2
*D29
 70
     1
 71
     0
 10
0.0
 20
0.0
 30
0.0
  3
*D29
  1

  0
LINE
  5
28C
330
28B
100
AcDbEntity
  8
1
  6
Continuous
 62
     2
100
AcDbLine
 10
436.649968718577
 20
-655.6950589052871
 30
0.0
 11
471.649968718577
 21
-655.6950589052871
 31
0.0
  0
LINE
  5
28D
330
28B
100
AcDbEntity
  8
1
  6
Continuous
 62
     2
100
AcDbLine
 10
471.649968718577
 20
-648.6950589052871
 30
0.0
 11
471.649968718577
 21
-656.6950589052871
 31
0.0
  0
LINE
  5
28E
330
28B
100
AcDbEntity
  8
1
  6
Continuous
 62
     2
100
AcDbLine
 10
436.649968718577
 20
-639.5994019615281
 30
0.0
 11
436.649968718577
 21
-656.6950589052871
 31
0.0
  0
LINE
  5
28F
330
28B
100
AcDbEntity
  8
1
 62
     2
100
AcDbLine
 10
436.649968718577
 20
-655.6950589052871
 30
0.0
 11
440.149968718577
 21
-654.7572367317781
 31
0.0
  0
LINE
  5
290
330
28B
100
AcDbEntity
  8
1
 62
     2
100
AcDbLine
 10
436.649968718577
 20
-655.6950589052871
 30
0.0
 11
440.149968718577
 21
-656.632881078796
 31
0.0
  0
LINE
  5
291
330
28B
100
AcDbEntity
  8
1
 62
     2
100
AcDbLine
 10
471.649968718577
 20
-655.6950589052871
 30
0.0
 11
468.149968718577
 21
-656.632881078796
 31
0.0
  0
LINE
  5
292
330
28B
100
AcDbEntity
  8
1
 62
     2
100
AcDbLine
 10
471.649968718577
 20
-655.6950589052871
 30
0.0
 11
468.149968718577
 21
-654.7572367317781
 31
0.0
  0
MTEXT
  5
293
330
28B
100
AcDbEntity
  8
1
 62
     2
100
AcDbMText
 10
452.239712642382
 20
-654.095058905287
 30
0.0
 40
3.5
 41
0.0
 71
     7
 72
     1
  1
35
  7
CONVERTER_1
 11
0.9999999999970621
 21
2.424068405545307E-6
 31
0.0
 73
     1
 44
0.60024009603842
  0
ENDBLK
  5
295
330
28B
100
AcDbEntity
  8
0
100
AcDbBlockEnd
  0
BLOCK
  5
2A1
330
298
100
AcDbEntity
  8
0
100
AcDbBlockBegin
  2
*D310
 70
     1
 71
     0
 10
0.0
 20
0.0
 30
0.0
  3
*D310
  1

  0
LINE
  5
299
330
298
100
AcDbEntity
  8
1
  6
Continuous
 62
     2
100
AcDbLine
 10
436.649968718577
 20
-666.281038206129
 30
0.0
 11
516.6499687185769
 21
-666.281038206129
 31
0.0
  0
LINE
  5
29A
330
298
100
AcDbEntity
  8
1
  6
Continuous
 62
     2
100
AcDbLine
 10
516.6499687185769
 20
-639.598449238474
 30
0.0
 11
516.6499687185769
 21
-667.281038206129
 31
0.0
  0
LINE
  5
29B
330
298
100
AcDbEntity
  8
1
  6
Continuous
 62
     2
100
AcDbLine
 10
436.649968718577
 20
-639.5994019615281
 30
0.0
 11
436.649968718577
 21
-667.281038206129
 31
0.0
  0
LINE
  5
29C
330
298
100
AcDbEntity
  8
1
 62
     2
100
AcDbLine
 10
436.649968718577
 20
-666.281038206129
 30
0.0
 11
440.149968718577
 21
-665.34321603262
 31
0.0
  0
LINE
  5
29D
330
298
100
AcDbEntity
  8
1
 62
     2
100
AcDbLine
 10
436.649968718577
 20
-666.281038206129
 30
0.0
 11
440.149968718577
 21
-667.2188603796379
 31
0.0
  0
LINE
  5
29E
330
298
100
AcDbEntity
  8
1
 62
     2
100
AcDbLine
 10
516.6499687185769
 20
-666.281038206129
 30
0.0
 11
513.1499687185769
 21
-667.2188603796379
 31
0.0
  0
LINE
  5
29F
330
298
100
AcDbEntity
  8
1
 62
     2
100
AcDbLine
 10
516.6499687185769
 20
-666.281038206129
 30
0.0
 11
513.1499687185769
 21
-665.34321603262
 31
0.0
  0
MTEXT
  5
2A0
330
298
100
AcDbEntity
  8
1
 62
     2
100
AcDbMText
 10
476.806151252443
 20
-664.681038206129
 30
0.0
 40
3.5
 41
0.0
 71
     7
 72
     1
  1
80
  7
CONVERTER_1
 11
0.9999999999970621
 21
2.424068405545307E-6
 31
0.0
 73
     1
 44
0.60024009603842
  0
ENDBLK
  5
2A2
330
298
100
AcDbEntity
  8
0
100
AcDbBlockEnd
  0
ENDSEC
  0
SECTION
  2
ENTITIES
  0
INSERT
  5
42
330
1F
100
AcDbEntity
  8
1
100
AcDbBlockReference
  2
_5
 10
342.880174469531
 20
-262.13030285773
 30
0.0
  0
INSERT
  5
43
330
1F
100
AcDbEntity
  8
1
100
AcDbBlockReference
  2
_4
 10
334.9703936029752
 20
-273.63030285773
 30
0.0
  0
INSERT
  5
44
330
1F
100
AcDbEntity
  8
0
100
AcDbBlockReference
  2
Top__1
 10
1265.868961413722
 20
-716.4957613204489
 30
0.0
  0
INSERT
  5
45
330
1F
100
AcDbEntity
  8
0
100
AcDbBlockReference
  2
TOP
 10
371.772968345943
 20
-1535.618889864523
 30
0.0
  0
INSERT
  5
46
330
1F
100
AcDbEntity
  8
0
100
AcDbBlockReference
  2
Top__2
 10
900.2491400638539
 20
-808.765621783499
 30
0.0
  0
LINE
  5
159
330
1F
100
AcDbEntity
  8
1
  6
Continuous
 62
     3
100
AcDbLine
 10
491.649968718577
 20
-602.3853003463901
 30
0.0
 11
491.649968718577
 21
-641.8494019615278
 31
0.0
  0
LINE
  5
15A
330
1F
100
AcDbEntity
  8
1
  6
Continuous
 62
     3
100
AcDbLine
 10
488.649968718577
 20
-576.6173511539589
 30
0.0
 11
490.649968718577
 21
-576.6173511539589
 31
0.0
  0
LINE
  5
15B
330
1F
100
AcDbEntity
  8
1
  6
Continuous
 62
     3
100
AcDbLine
 10
452.649968718577
 20
-576.6173511539589
 30
0.0
 11
454.649968718577
 21
-576.6173511539589
 31
0.0
  0
LINE
  5
15C
330
1F
100
AcDbEntity
  8
1
  6
Continuous
 62
     3
100
AcDbLine
 10
451.649968718577
 20
-573.1173511539589
 30
0.0
 11
451.649968718577
 21
-575.6173511539589
 31
0.0
  0
LINE
  5
15D
330
1F
100
AcDbEntity
  8
1
  6
Continuous
 62
     3
100
AcDbLine
 10
491.649968718577
 20
-575.6173511539589
 30
0.0
 11
491.649968718577
 21
-573.1173511539589
 31
0.0
  0
LINE
  5
15E
330
1F
100
AcDbEntity
  8
1
  6
Continuous
 62
     3
100
AcDbLine
 10
482.649968718577
 20
-598.1173511539589
 30
0.0
 11
482.649968718577
 21
-587.9903345001661
 31
0.0
  0
LINE
  5
15F
330
1F
100
AcDbEntity
  8
1
  6
Continuous
 62
     3
100
AcDbLine
 10
460.649968718577
 20
-587.9903345001661
 30
0.0
 11
460.649968718577
 21
-601.1295480901205
 31
0.0
  0
LINE
  5
160
330
1F
100
AcDbEntity
  8
1
  6
Continuous
 62
     3
100
AcDbLine
 10
436.649968718577
 20
-605.6333765577437
 30
0.0
 11
436.649968718577
 21
-638.5994019615281
 31
0.0
  0
LINE
  5
161
330
1F
100
AcDbEntity
  8
1
  6
Continuous
 62
     3
100
AcDbLine
 10
488.649968718577
 20
-602.1173511539589
 30
0.0
 11
487.8605396483104
 21
-602.6436372008033
 31
0.0
  0
LINE
  5
162
330
1F
100
AcDbEntity
  8
1
  6
Continuous
 62
     3
100
AcDbLine
 10
488.649968718577
 20
-602.1173511539589
 30
0.0
 11
490.649968718577
 21
-602.1173511539589
 31
0.0
  0
LINE
  5
163
330
1F
100
AcDbEntity
  8
1
  6
DOT_CENTER
 62
     1
100
AcDbLine
 10
471.649968718577
 20
-542.4541336847381
 30
0.0
 11
471.649968718577
 21
-647.6950589052871
 31
0.0
  0
LINE
  5
164
330
1F
100
AcDbEntity
  8
1
  6
DOT_CENTER
 62
     1
100
AcDbLine
 10
493.294481453532
 20
-622.117351153959
 30
0.0
 11
430.3025378058947
 21
-622.1173511539589
 31
0.0
  0
LINE
  5
165
330
1F
100
AcDbEntity
  8
1
  6
Continuous
 62
     3
100
AcDbLine
 10
490.649968718577
 20
-642.1173511539589
 30
0.0
 11
488.649968718577
 21
-642.117351153959
 31
0.0
  0
LINE
  5
166
330
1F
100
AcDbEntity
  8
1
  6
Continuous
 62
     3
100
AcDbLine
 10
450.0518925072234
 20
-604.1173511539589
 30
0.0
 11
452.649968718577
 21
-605.6173511539589
 31
0.0
  0
LINE
  5
167
330
1F
100
AcDbEntity
  8
1
  6
Continuous
 62
     3
100
AcDbLine
 10
436.6510794184697
 20
-605.6333765577434
 30
0.0
 11
437.5263570934431
 21
-604.1173511539589
 31
0.0
  0
LINE
  5
168
330
1F
100
AcDbEntity
  8
1
  6
Continuous
 62
     3
100
AcDbLine
 10
437.5263570934431
 20
-604.1173511539589
 30
0.0
 11
450.0518925072234
 21
-604.1173511539589
 31
0.0
  0
LINE
  5
169
330
1F
100
AcDbEntity
  8
1
  6
Continuous
 62
     3
100
AcDbLine
 10
452.649968718577
 20
-605.6173511539589
 30
0.0
 11
453.1080407458176
 21
-605.8818191621944
 31
0.0
  0
LINE
  5
16A
330
1F
100
AcDbEntity
  8
1
  6
Continuous
 62
     3
100
AcDbLine
 10
453.1080407458176
 20
-638.3528831457235
 30
0.0
 11
450.0518925072234
 21
-640.1173511539589
 31
0.0
  0
LINE
  5
16B
330
1F
100
AcDbEntity
  8
1
  6
Continuous
 62
     3
100
AcDbLine
 10
450.0518925072234
 20
-640.1173511539589
 30
0.0
 11
437.5263570934431
 21
-640.1173511539589
 31
0.0
  0
LINE
  5
16C
330
1F
100
AcDbEntity
  8
1
  6
Continuous
 62
     3
100
AcDbLine
 10
437.5263570934431
 20
-640.1173511539589
 30
0.0
 11
436.649968718577
 21
-638.6173511539589
 31
0.0
  0
LINE
  5
16D
330
1F
100
AcDbEntity
  8
1
  6
Continuous
 62
     3
100
AcDbLine
 10
487.149968718577
 20
-641.117351153959
 30
0.0
 11
488.649968718577
 21
-642.117351153959
 31
0.0
  0
LINE
  5
16E
330
1F
100
AcDbEntity
  8
1
  6
Continuous
 62
     3
100
AcDbLine
 10
471.649968718577
 20
-641.117351153959
 30
0.0
 11
487.149968718577
 21
-641.117351153959
 31
0.0
  0
LINE
  5
16F
330
1F
100
AcDbEntity
  8
1
  6
Continuous
 62
     3
100
AcDbLine
 10
493.649968718577
 20
-574.6173511539589
 30
0.0
 11
493.649968718577
 21
-573.1173511539589
 31
0.0
  0
LINE
  5
170
330
1F
100
AcDbEntity
  8
1
  6
Continuous
 62
     3
100
AcDbLine
 10
490.649968718577
 20
-576.6173511539589
 30
0.0
 11
491.649968718577
 21
-576.6173511539589
 31
0.0
  0
LINE
  5
171
330
1F
100
AcDbEntity
  8
1
  6
Continuous
 62
     3
100
AcDbLine
 10
457.649968718577
 20
-579.6173511539589
 30
0.0
 11
457.649968718577
 21
-584.1173511539589
 31
0.0
  0
LINE
  5
172
330
1F
100
AcDbEntity
  8
1
  6
Continuous
 62
     3
100
AcDbLine
 10
485.649968718577
 20
-584.1173511539589
 30
0.0
 11
485.649968718577
 21
-579.6173511539589
 31
0.0
  0
LINE
  5
173
330
1F
100
AcDbEntity
  8
1
  6
Continuous
 62
     3
100
AcDbLine
 10
451.9179179110081
 20
-572.1173511539589
 30
0.0
 11
493.3820195261458
 21
-572.1173511539589
 31
0.0
  0
LINE
  5
174
330
1F
100
AcDbEntity
  8
1
  6
DOT_CENTER
 62
     1
100
AcDbLine
 10
355.6499687185771
 20
-622.1173511539589
 30
0.0
 11
397.6105066274101
 21
-622.1173511539589
 31
0.0
  0
LINE
  5
175
330
1F
100
AcDbEntity
  8
1
  6
Continuous
 62
     3
100
AcDbLine
 10
393.1499687185771
 20
-614.9236038689897
 30
0.0
 11
393.1499687185771
 21
-629.311098438928
 31
0.0
  0
LINE
  5
176
330
1F
100
AcDbEntity
  8
1
  6
Continuous
 62
     3
100
AcDbLine
 10
391.1299366157659
 20
-632.8098966739171
 30
0.0
 11
378.6700008213883
 21
-640.0036439588868
 31
0.0
  0
LINE
  5
177
330
1F
100
AcDbEntity
  8
1
  6
Continuous
 62
     3
100
AcDbLine
 10
374.6299366157661
 20
-640.0036439588868
 30
0.0
 11
362.1700008213886
 21
-632.8098966739175
 31
0.0
  0
LINE
  5
178
330
1F
100
AcDbEntity
  8
1
  6
Continuous
 62
     3
100
AcDbLine
 10
360.1499687185773
 20
-629.3110984389285
 30
0.0
 11
360.1499687185771
 21
-614.9236038689897
 31
0.0
  0
LINE
  5
179
330
1F
100
AcDbEntity
  8
1
  6
Continuous
 62
     3
100
AcDbLine
 10
362.1700008213886
 20
-611.4248056340001
 30
0.0
 11
374.6299366157656
 21
-604.2310583490311
 31
0.0
  0
LINE
  5
17A
330
1F
100
AcDbEntity
  8
1
  6
Continuous
 62
     3
100
AcDbLine
 10
378.6700008213884
 20
-604.2310583490311
 30
0.0
 11
391.1299366157656
 21
-611.4248056340003
 31
0.0
  0
LINE
  5
17B
330
1F
100
AcDbEntity
  8
1
  6
DOT_CENTER
 62
     1
100
AcDbLine
 10
376.6499687185771
 20
-542.4541336847381
 30
0.0
 11
376.6499687185771
 21
-643.1173511539589
 31
0.0
  0
LINE
  5
17C
330
1F
100
AcDbEntity
  8
1
  6
Continuous
 62
     3
100
AcDbLine
 10
573.8214967324321
 20
-584.1173511539589
 30
0.0
 11
573.8214967324321
 21
-579.6173511539589
 31
0.0
  0
LINE
  5
17D
330
1F
100
AcDbEntity
  8
1
  6
Continuous
 62
     3
100
AcDbLine
 10
545.8214967324321
 20
-579.6173511539589
 30
0.0
 11
545.8214967324321
 21
-584.1173511539589
 31
0.0
  0
LINE
  5
17E
330
1F
100
AcDbEntity
  8
1
  6
Continuous
 62
     3
100
AcDbLine
 10
570.8214967324321
 20
-604.2288073339607
 30
0.0
 11
570.8214967324321
 21
-587.9903345001661
 31
0.0
  0
LINE
  5
17F
330
1F
100
AcDbEntity
  8
1
  6
Continuous
 62
     3
100
AcDbLine
 10
579.8214967324321
 20
-575.6173511539589
 30
0.0
 11
579.8214967324321
 21
-573.1173511539589
 31
0.0
  0
LINE
  5
180
330
1F
100
AcDbEntity
  8
1
  6
Continuous
 62
     3
100
AcDbLine
 10
539.8214967324321
 20
-573.1173511539589
 30
0.0
 11
539.8214967324321
 21
-575.6173511539589
 31
0.0
  0
LINE
  5
181
330
1F
100
AcDbEntity
  8
1
  6
Continuous
 62
     3
100
AcDbLine
 10
540.8214967324321
 20
-576.6173511539589
 30
0.0
 11
542.8214967324321
 21
-576.6173511539589
 31
0.0
  0
LINE
  5
182
330
1F
100
AcDbEntity
  8
1
  6
Continuous
 62
     3
100
AcDbLine
 10
576.8214967324321
 20
-576.6173511539589
 30
0.0
 11
578.8214967324321
 21
-576.6173511539589
 31
0.0
  0
LINE
  5
183
330
1F
100
AcDbEntity
  8
1
  6
Continuous
 62
     3
100
AcDbLine
 10
570.8214967324321
 20
-604.2288073339607
 30
0.0
 11
570.8214967324321
 21
-587.9903345001661
 31
0.0
  0
LINE
  5
184
330
1F
100
AcDbEntity
  8
1
  6
Continuous
 62
     3
100
AcDbLine
 10
548.8214967324321
 20
-587.9903345001661
 30
0.0
 11
548.8214967324321
 21
-604.2288073339605
 31
0.0
  0
LINE
  5
185
330
1F
100
AcDbEntity
  8
1
  6
DOT_CENTER
 62
     1
100
AcDbLine
 10
559.8214967324321
 20
-542.4541336847381
 30
0.0
 11
559.8214967324321
 21
-647.6950589052871
 31
0.0
  0
LINE
  5
186
330
1F
100
AcDbEntity
  8
1
  6
Continuous
 62
     3
100
AcDbLine
 10
540.0894459248633
 20
-572.1173511539589
 30
0.0
 11
557.8214967324321
 21
-572.1173511539589
 31
0.0
  0
LINE
  5
187
330
1F
100
AcDbEntity
  8
1
  6
Continuous
 62
     3
100
AcDbLine
 10
542.8214967324321
 20
-576.6173511539589
 30
0.0
 11
557.8214967324321
 21
-576.6173511539589
 31
0.0
  0
LINE
  5
188
330
1F
100
AcDbEntity
  8
1
  6
Continuous
 62
     3
100
AcDbLine
 10
547.3214967324321
 20
-586.0538428270626
 30
0.0
 11
572.3214967324321
 21
-586.0538428270626
 31
0.0
  0
LINE
  5
189
330
1F
100
AcDbEntity
  8
1
  6
Continuous
 62
     3
100
AcDbLine
 10
561.8214967324321
 20
-572.1173511539589
 30
0.0
 11
561.8214967324321
 21
-576.6173511539589
 31
0.0
  0
LINE
  5
18A
330
1F
100
AcDbEntity
  8
1
  6
Continuous
 62
     3
100
AcDbLine
 10
561.8214967324321
 20
-572.1173511539589
 30
0.0
 11
579.553547540001
 21
-572.1173511539589
 31
0.0
  0
LINE
  5
18B
330
1F
100
AcDbEntity
  8
1
  6
Continuous
 62
     3
100
AcDbLine
 10
561.8214967324321
 20
-576.6173511539589
 30
0.0
 11
576.8214967324321
 21
-576.6173511539589
 31
0.0
  0
LINE
  5
18C
330
1F
100
AcDbEntity
  8
1
  6
Continuous
 62
     3
100
AcDbLine
 10
557.8214967324321
 20
-576.6173511539589
 30
0.0
 11
557.8214967324321
 21
-572.1173511539589
 31
0.0
  0
LINE
  5
18D
330
1F
100
AcDbEntity
  8
1
  6
Continuous
 62
     3
100
AcDbLine
 10
557.8214967324321
 20
-572.1173511539589
 30
0.0
 11
561.8214967324321
 21
-572.1173511539589
 31
0.0
  0
LINE
  5
18E
330
1F
100
AcDbEntity
  8
1
  6
Continuous
 62
     3
100
AcDbLine
 10
557.8214967324321
 20
-576.6173511539589
 30
0.0
 11
561.8214967324321
 21
-576.6173511539589
 31
0.0
  0
LINE
  5
18F
330
1F
100
AcDbEntity
  8
1
  6
Continuous
 62
     3
100
AcDbLine
 10
374.6499687185771
 20
-576.6173511539589
 30
0.0
 11
378.6499687185771
 21
-576.6173511539589
 31
0.0
  0
LINE
  5
190
330
1F
100
AcDbEntity
  8
1
  6
Continuous
 62
     3
100
AcDbLine
 10
374.6499687185771
 20
-572.1173511539589
 30
0.0
 11
378.6499687185771
 21
-572.1173511539589
 31
0.0
  0
LINE
  5
191
330
1F
100
AcDbEntity
  8
1
  6
Continuous
 62
     3
100
AcDbLine
 10
378.6499687185771
 20
-576.6173511539589
 30
0.0
 11
393.6499687185771
 21
-576.6173511539589
 31
0.0
  0
LINE
  5
192
330
1F
100
AcDbEntity
  8
1
  6
Continuous
 62
     3
100
AcDbLine
 10
378.6499687185771
 20
-572.1173511539589
 30
0.0
 11
396.3820195261459
 21
-572.1173511539589
 31
0.0
  0
LINE
  5
193
330
1F
100
AcDbEntity
  8
1
  6
Continuous
 62
     3
100
AcDbLine
 10
364.1499687185771
 20
-586.0538428270626
 30
0.0
 11
389.1499687185771
 21
-586.0538428270626
 31
0.0
  0
LINE
  5
194
330
1F
100
AcDbEntity
  8
1
  6
Continuous
 62
     3
100
AcDbLine
 10
359.6499687185771
 20
-576.6173511539589
 30
0.0
 11
374.6499687185771
 21
-576.6173511539589
 31
0.0
  0
LINE
  5
195
330
1F
100
AcDbEntity
  8
1
  6
Continuous
 62
     3
100
AcDbLine
 10
356.9179179110082
 20
-572.1173511539589
 30
0.0
 11
374.6499687185771
 21
-572.1173511539589
 31
0.0
  0
LINE
  5
196
330
1F
100
AcDbEntity
  8
1
  6
Continuous
 62
     3
100
AcDbLine
 10
365.6499687185771
 20
-587.9903345001661
 30
0.0
 11
365.6499687185771
 21
-604.2288073339605
 31
0.0
  0
LINE
  5
197
330
1F
100
AcDbEntity
  8
1
  6
Continuous
 62
     3
100
AcDbLine
 10
387.6499687185771
 20
-604.2288073339607
 30
0.0
 11
387.6499687185771
 21
-587.9903345001661
 31
0.0
  0
LINE
  5
198
330
1F
100
AcDbEntity
  8
1
  6
Continuous
 62
     3
100
AcDbLine
 10
393.6499687185771
 20
-576.6173511539589
 30
0.0
 11
395.6499687185771
 21
-576.6173511539589
 31
0.0
  0
LINE
  5
199
330
1F
100
AcDbEntity
  8
1
  6
Continuous
 62
     3
100
AcDbLine
 10
357.6499687185771
 20
-576.6173511539589
 30
0.0
 11
359.6499687185771
 21
-576.6173511539589
 31
0.0
  0
LINE
  5
19A
330
1F
100
AcDbEntity
  8
1
  6
Continuous
 62
     3
100
AcDbLine
 10
356.6499687185771
 20
-573.1173511539589
 30
0.0
 11
356.6499687185771
 21
-575.6173511539589
 31
0.0
  0
LINE
  5
19B
330
1F
100
AcDbEntity
  8
1
  6
Continuous
 62
     3
100
AcDbLine
 10
396.6499687185771
 20
-575.6173511539589
 30
0.0
 11
396.6499687185771
 21
-573.1173511539589
 31
0.0
  0
LINE
  5
19C
330
1F
100
AcDbEntity
  8
1
  6
Continuous
 62
     3
100
AcDbLine
 10
387.6499687185771
 20
-604.2288073339607
 30
0.0
 11
387.6499687185771
 21
-587.9903345001661
 31
0.0
  0
LINE
  5
19D
330
1F
100
AcDbEntity
  8
1
  6
Continuous
 62
     3
100
AcDbLine
 10
362.6499687185771
 20
-579.6173511539589
 30
0.0
 11
362.6499687185771
 21
-584.1173511539589
 31
0.0
  0
LINE
  5
19E
330
1F
100
AcDbEntity
  8
1
  6
Continuous
 62
     3
100
AcDbLine
 10
390.6499687185771
 20
-584.1173511539589
 30
0.0
 11
390.6499687185771
 21
-579.6173511539589
 31
0.0
  0
LINE
  5
19F
330
1F
100
AcDbEntity
  8
1
  6
Continuous
 62
     3
100
AcDbLine
 10
488.649968718577
 20
-602.617351153959
 30
0.0
 11
488.649968718577
 21
-641.7821323179686
 31
0.0
  0
LINE
  5
1A0
330
1F
100
AcDbEntity
  8
1
  6
Continuous
 62
     3
100
AcDbLine
 10
487.149968718577
 20
-640.1034743147628
 30
0.0
 11
487.149968718577
 21
-604.117351153959
 31
0.0
  0
LINE
  5
1A1
330
1F
100
AcDbEntity
  8
1
  6
Continuous
 62
     3
100
AcDbLine
 10
473.5723561448208
 20
-602.2203469303968
 30
0.0
 11
483.0723561448208
 21
-602.2203469303968
 31
0.0
  0
LINE
  5
1A2
330
1F
100
AcDbEntity
  8
1
  6
Continuous
 62
     3
100
AcDbLine
 10
461.4430243259736
 20
-603.3457849794938
 30
0.0
 11
470.4430243259736
 21
-602.3457849794938
 31
0.0
  0
LINE
  5
1A3
330
1F
100
AcDbEntity
  8
1
  6
Continuous
 62
     3
100
AcDbLine
 10
472.8150925906962
 20
-620.1162722936864
 30
0.0
 11
472.8150925906962
 21
-618.117351153959
 31
0.0
  0
LINE
  5
1A4
330
1F
100
AcDbEntity
  8
1
  6
Continuous
 62
     3
100
AcDbLine
 10
470.392902701155
 20
-622.117351153959
 30
0.0
 11
466.6536632976473
 21
-626.117351153959
 31
0.0
  0
LINE
  5
1A5
330
1F
100
AcDbEntity
  8
1
  6
Continuous
 62
     3
100
AcDbLine
 10
466.6536632976473
 20
-626.117351153959
 30
0.0
 11
470.392902701155
 21
-626.117351153959
 31
0.0
  0
LINE
  5
1A6
330
1F
100
AcDbEntity
  8
1
  6
Continuous
 62
     3
100
AcDbLine
 10
472.8150925906962
 20
-618.117351153959
 30
0.0
 11
476.6462741395067
 21
-618.117351153959
 31
0.0
  0
LINE
  5
1A7
330
1F
100
AcDbEntity
  8
1
  6
Continuous
 62
     3
100
AcDbLine
 10
476.6462741395067
 20
-618.117351153959
 30
0.0
 11
470.392902701155
 21
-626.117351153959
 31
0.0
  0
LINE
  5
1A8
330
1F
100
AcDbEntity
  8
1
  6
Continuous
 62
     3
100
AcDbLine
 10
470.392902701155
 20
-618.117351153959
 30
0.0
 11
470.392902701155
 21
-621.9027790806979
 31
0.0
  0
LINE
  5
1A9
330
1F
100
AcDbEntity
  8
1
  6
Continuous
 62
     3
100
AcDbLine
 10
470.392902701155
 20
-621.9027790806979
 30
0.0
 11
466.6536632976473
 21
-618.117351153959
 31
0.0
  0
LINE
  5
1AA
330
1F
100
AcDbEntity
  8
1
  6
Continuous
 62
     3
100
AcDbLine
 10
470.392902701155
 20
-622.117351153959
 30
0.0
 11
470.8140137304236
 21
-622.117351153959
 31
0.0
  0
LINE
  5
1AB
330
1F
100
AcDbEntity
  8
1
  6
Continuous
 62
     3
100
AcDbLine
 10
476.6462741395067
 20
-621.117351153959
 30
0.0
 11
480.6462741395067
 21
-621.117351153959
 31
0.0
  0
LINE
  5
1AC
330
1F
100
AcDbEntity
  8
1
  6
Continuous
 62
     3
100
AcDbLine
 10
480.6462741395067
 20
-621.117351153959
 30
0.0
 11
480.6462741395067
 21
-619.617351153959
 31
0.0
  0
LINE
  5
1AD
330
1F
100
AcDbEntity
  8
1
  6
Continuous
 62
     3
100
AcDbLine
 10
480.6462741395067
 20
-619.617351153959
 30
0.0
 11
484.9764011584289
 21
-622.117351153959
 31
0.0
  0
LINE
  5
1AE
330
1F
100
AcDbEntity
  8
1
  6
Continuous
 62
     3
100
AcDbLine
 10
484.9764011584289
 20
-622.117351153959
 30
0.0
 11
480.6462741395067
 21
-624.617351153959
 31
0.0
  0
LINE
  5
1AF
330
1F
100
AcDbEntity
  8
1
  6
Continuous
 62
     3
100
AcDbLine
 10
480.6462741395067
 20
-624.617351153959
 30
0.0
 11
480.6462741395067
 21
-623.117351153959
 31
0.0
  0
LINE
  5
1B0
330
1F
100
AcDbEntity
  8
1
  6
Continuous
 62
     3
100
AcDbLine
 10
480.6462741395067
 20
-623.117351153959
 30
0.0
 11
476.6462741395067
 21
-623.117351153959
 31
0.0
  0
LINE
  5
1B1
330
1F
100
AcDbEntity
  8
1
  6
Continuous
 62
     3
100
AcDbLine
 10
466.6536632976473
 20
-623.117351153959
 30
0.0
 11
466.6536632976473
 21
-621.117351153959
 31
0.0
  0
LINE
  5
1B2
330
1F
100
AcDbEntity
  8
1
  6
Continuous
 62
     3
100
AcDbLine
 10
466.6536632976473
 20
-618.117351153959
 30
0.0
 11
470.392902701155
 21
-618.117351153959
 31
0.0
  0
LINE
  5
1B3
330
1F
100
AcDbEntity
  8
1
  6
Continuous
 62
     3
100
AcDbLine
 10
470.2392081220847
 20
-622.117351153959
 30
0.0
 11
470.6603191513532
 21
-622.117351153959
 31
0.0
  0
LINE
  5
1B4
330
1F
100
AcDbEntity
  8
1
  6
Continuous
 62
     3
100
AcDbLine
 10
476.6462741395067
 20
-621.117351153959
 30
0.0
 11
476.6462741395067
 21
-623.117351153959
 31
0.0
  0
LINE
  5
1B5
330
1F
100
AcDbEntity
  8
1
  6
Continuous
 62
     3
100
AcDbLine
 10
466.6536632976473
 20
-621.117351153959
 30
0.0
 11
458.6536632976473
 21
-621.117351153959
 31
0.0
  0
LINE
  5
1B6
330
1F
100
AcDbEntity
  8
1
  6
Continuous
 62
     3
100
AcDbLine
 10
458.6536632976473
 20
-621.117351153959
 30
0.0
 11
458.6536632976473
 21
-623.117351153959
 31
0.0
  0
LINE
  5
1B7
330
1F
100
AcDbEntity
  8
1
  6
Continuous
 62
     3
100
AcDbLine
 10
458.6536632976473
 20
-623.117351153959
 30
0.0
 11
466.6536632976473
 21
-623.117351153959
 31
0.0
  0
LINE
  5
1B8
330
1F
100
AcDbEntity
  8
1
  6
Continuous
 62
     3
100
AcDbLine
 10
448.1708657392787
 20
-612.5910717123302
 30
0.0
 11
439.6217820767952
 21
-612.5910717123302
 31
0.0
  0
LINE
  5
1B9
330
1F
100
AcDbEntity
  8
1
  6
Continuous
 62
     3
100
AcDbLine
 10
451.1576804616575
 20
-605.3417894379438
 30
0.0
 11
451.1576804616575
 21
-638.8929128699741
 31
0.0
  0
LINE
  5
1BA
330
1F
100
AcDbEntity
  8
1
  6
Continuous
 62
     3
100
AcDbLine
 10
448.1708657392787
 20
-631.6436305955879
 30
0.0
 11
439.6217820767952
 21
-631.6436305955879
 31
0.0
  0
LINE
  5
1BB
330
1F
100
AcDbEntity
  8
1
  6
Continuous
 62
     3
100
AcDbLine
 10
454.649968718577
 20
-576.6173511539589
 30
0.0
 11
488.1269849158975
 21
-576.6632881989535
 31
0.0
  0
LINE
  5
1BC
330
1F
100
AcDbEntity
  8
1
  6
Continuous
 62
     3
100
AcDbLine
 10
484.149968718577
 20
-586.0538428270626
 30
0.0
 11
459.149968718577
 21
-586.0538428270626
 31
0.0
  0
LINE
  5
1BD
330
1F
100
AcDbEntity
  8
1
  6
Continuous
 62
     3
100
AcDbLine
 10
662.815085158313
 20
-586.0538428270626
 30
0.0
 11
637.815085158313
 21
-586.0538428270626
 31
0.0
  0
LINE
  5
1BE
330
1F
100
AcDbEntity
  8
1
  6
Continuous
 62
     3
100
AcDbLine
 10
633.8380689609925
 20
-576.6632881989535
 30
0.0
 11
667.315085158313
 21
-576.6173511539589
 31
0.0
  0
LINE
  5
1BF
330
1F
100
AcDbEntity
  8
1
  6
Continuous
 62
     3
100
AcDbLine
 10
682.3432718000947
 20
-631.6436305955879
 30
0.0
 11
673.7941881376112
 21
-631.6436305955879
 31
0.0
  0
LINE
  5
1C0
330
1F
100
AcDbEntity
  8
1
  6
Continuous
 62
     3
100
AcDbLine
 10
670.8073734152324
 20
-638.8929128699741
 30
0.0
 11
670.8073734152324
 21
-625.617351153959
 31
0.0
  0
LINE
  5
1C1
330
1F
100
AcDbEntity
  8
1
  6
Continuous
 62
     3
100
AcDbLine
 10
682.3432718000947
 20
-612.5910717123302
 30
0.0
 11
673.7941881376112
 21
-612.5910717123302
 31
0.0
  0
LINE
  5
1C2
330
1F
100
AcDbEntity
  8
1
  6
Continuous
 62
     3
100
AcDbLine
 10
651.5220295509164
 20
-602.3457849794938
 30
0.0
 11
660.5220295509164
 21
-603.3457849794938
 31
0.0
  0
LINE
  5
1C3
330
1F
100
AcDbEntity
  8
1
  6
Continuous
 62
     3
100
AcDbLine
 10
638.8926977320691
 20
-602.2203469303968
 30
0.0
 11
648.3926977320691
 21
-602.2203469303968
 31
0.0
  0
LINE
  5
1C4
330
1F
100
AcDbEntity
  8
1
  6
Continuous
 62
     3
100
AcDbLine
 10
634.815085158313
 20
-604.117351153959
 30
0.0
 11
634.815085158313
 21
-618.617351153959
 31
0.0
  0
LINE
  5
1C5
330
1F
100
AcDbEntity
  8
1
  6
Continuous
 62
     3
100
AcDbLine
 10
633.315085158313
 20
-641.7821323179686
 30
0.0
 11
633.315085158313
 21
-625.617351153959
 31
0.0
  0
LINE
  5
1C6
330
1F
100
AcDbEntity
  8
1
  6
Continuous
 62
     3
100
AcDbLine
 10
628.5830343507441
 20
-572.1173511539589
 30
0.0
 11
670.0471359658818
 21
-572.1173511539589
 31
0.0
  0
LINE
  5
1C7
330
1F
100
AcDbEntity
  8
1
  6
Continuous
 62
     3
100
AcDbLine
 10
636.315085158313
 20
-579.6173511539589
 30
0.0
 11
636.315085158313
 21
-584.1173511539589
 31
0.0
  0
LINE
  5
1C8
330
1F
100
AcDbEntity
  8
1
  6
Continuous
 62
     3
100
AcDbLine
 10
664.315085158313
 20
-584.1173511539589
 30
0.0
 11
664.315085158313
 21
-579.6173511539589
 31
0.0
  0
LINE
  5
1C9
330
1F
100
AcDbEntity
  8
1
  6
Continuous
 62
     3
100
AcDbLine
 10
630.315085158313
 20
-576.6173511539589
 30
0.0
 11
631.315085158313
 21
-576.6173511539589
 31
0.0
  0
LINE
  5
1CA
330
1F
100
AcDbEntity
  8
1
  6
Continuous
 62
     3
100
AcDbLine
 10
628.315085158313
 20
-573.1173511539589
 30
0.0
 11
628.315085158313
 21
-574.6173511539589
 31
0.0
  0
LINE
  5
1CB
330
1F
100
AcDbEntity
  8
1
  6
Continuous
 62
     3
100
AcDbLine
 10
634.815085158313
 20
-641.117351153959
 30
0.0
 11
650.315085158313
 21
-641.117351153959
 31
0.0
  0
LINE
  5
1CC
330
1F
100
AcDbEntity
  8
1
  6
Continuous
 62
     3
100
AcDbLine
 10
633.315085158313
 20
-642.117351153959
 30
0.0
 11
634.815085158313
 21
-641.117351153959
 31
0.0
  0
LINE
  5
1CD
330
1F
100
AcDbEntity
  8
1
  6
Continuous
 62
     3
100
AcDbLine
 10
685.315085158313
 20
-638.6173511539589
 30
0.0
 11
684.4386967834469
 21
-640.1173511539589
 31
0.0
  0
LINE
  5
1CE
330
1F
100
AcDbEntity
  8
1
  6
Continuous
 62
     3
100
AcDbLine
 10
684.4386967834469
 20
-640.1173511539589
 30
0.0
 11
671.9131613696666
 21
-640.1173511539589
 31
0.0
  0
LINE
  5
1CF
330
1F
100
AcDbEntity
  8
1
  6
Continuous
 62
     3
100
AcDbLine
 10
671.9131613696666
 20
-640.1173511539589
 30
0.0
 11
668.8570131310723
 21
-638.3528831457235
 31
0.0
  0
LINE
  5
1D0
330
1F
100
AcDbEntity
  8
1
  6
Continuous
 62
     3
100
AcDbLine
 10
668.8570131310723
 20
-605.8818191621944
 30
0.0
 11
669.315085158313
 21
-605.6173511539589
 31
0.0
  0
LINE
  5
1D1
330
1F
100
AcDbEntity
  8
1
  6
Continuous
 62
     3
100
AcDbLine
 10
671.9131613696666
 20
-604.1173511539589
 30
0.0
 11
684.4386967834469
 21
-604.1173511539589
 31
0.0
  0
LINE
  5
1D2
330
1F
100
AcDbEntity
  8
1
  6
Continuous
 62
     3
100
AcDbLine
 10
684.4386967834469
 20
-604.1173511539589
 30
0.0
 11
685.3139744584203
 21
-605.6333765577434
 31
0.0
  0
LINE
  5
1D3
330
1F
100
AcDbEntity
  8
1
  6
Continuous
 62
     3
100
AcDbLine
 10
669.315085158313
 20
-605.6173511539589
 30
0.0
 11
671.9131613696666
 21
-604.1173511539589
 31
0.0
  0
LINE
  5
1D4
330
1F
100
AcDbEntity
  8
1
  6
Continuous
 62
     3
100
AcDbLine
 10
633.315085158313
 20
-642.117351153959
 30
0.0
 11
631.315085158313
 21
-642.1173511539589
 31
0.0
  0
LINE
  5
1D5
330
1F
100
AcDbEntity
  8
1
  6
DOT_CENTER
 62
     1
100
AcDbLine
 10
691.6625160709953
 20
-622.1173511539589
 30
0.0
 11
628.670572423358
 21
-622.117351153959
 31
0.0
  0
LINE
  5
1D6
330
1F
100
AcDbEntity
  8
1
  6
DOT_CENTER
 62
     1
100
AcDbLine
 10
650.315085158313
 20
-647.6950589052871
 30
0.0
 11
650.315085158313
 21
-542.4541336847381
 31
0.0
  0
LINE
  5
1D7
330
1F
100
AcDbEntity
  8
1
  6
Continuous
 62
     3
100
AcDbLine
 10
631.315085158313
 20
-602.1173511539589
 30
0.0
 11
633.315085158313
 21
-602.1173511539589
 31
0.0
  0
LINE
  5
1D8
330
1F
100
AcDbEntity
  8
1
  6
Continuous
 62
     3
100
AcDbLine
 10
634.1045142285796
 20
-602.6436372008033
 30
0.0
 11
633.315085158313
 21
-602.1173511539589
 31
0.0
  0
LINE
  5
1D9
330
1F
100
AcDbEntity
  8
1
  6
Continuous
 62
     3
100
AcDbLine
 10
685.315085158313
 20
-638.5994019615281
 30
0.0
 11
685.315085158313
 21
-605.6333765577437
 31
0.0
  0
LINE
  5
1DA
330
1F
100
AcDbEntity
  8
1
  6
Continuous
 62
     3
100
AcDbLine
 10
661.315085158313
 20
-601.1295480901205
 30
0.0
 11
661.315085158313
 21
-587.9903345001661
 31
0.0
  0
LINE
  5
1DB
330
1F
100
AcDbEntity
  8
1
  6
Continuous
 62
     3
100
AcDbLine
 10
639.315085158313
 20
-587.9903345001661
 30
0.0
 11
639.315085158313
 21
-598.1173511539589
 31
0.0
  0
LINE
  5
1DC
330
1F
100
AcDbEntity
  8
1
  6
Continuous
 62
     3
100
AcDbLine
 10
630.315085158313
 20
-573.1173511539589
 30
0.0
 11
630.315085158313
 21
-575.6173511539589
 31
0.0
  0
LINE
  5
1DD
330
1F
100
AcDbEntity
  8
1
  6
Continuous
 62
     3
100
AcDbLine
 10
670.315085158313
 20
-575.6173511539589
 30
0.0
 11
670.315085158313
 21
-573.1173511539589
 31
0.0
  0
LINE
  5
1DE
330
1F
100
AcDbEntity
  8
1
  6
Continuous
 62
     3
100
AcDbLine
 10
667.315085158313
 20
-576.6173511539589
 30
0.0
 11
669.315085158313
 21
-576.6173511539589
 31
0.0
  0
LINE
  5
1DF
330
1F
100
AcDbEntity
  8
1
  6
Continuous
 62
     3
100
AcDbLine
 10
631.315085158313
 20
-576.6173511539589
 30
0.0
 11
633.315085158313
 21
-576.6173511539589
 31
0.0
  0
LINE
  5
1E0
330
1F
100
AcDbEntity
  8
1
  6
Continuous
 62
     3
100
AcDbLine
 10
630.315085158313
 20
-641.8494019615278
 30
0.0
 11
630.315085158313
 21
-602.3853003463901
 31
0.0
  0
LINE
  5
1E1
330
1F
100
AcDbEntity
  8
1
  6
Continuous
 62
     3
100
AcDbLine
 10
671.1920290872821
 20
-625.617351153959
 30
0.0
 11
633.315085158313
 21
-625.617351153959
 31
0.0
  0
LINE
  5
1E2
330
1F
100
AcDbEntity
  8
1
  6
PHANTOM
 62
     3
100
AcDbLine
 10
637.815085158313
 20
-625.617351153959
 30
0.0
 11
635.315085158313
 21
-625.617351153959
 31
0.0
  0
LINE
  5
1E3
330
1F
100
AcDbEntity
  8
1
  6
PHANTOM
 62
     3
100
AcDbLine
 10
635.315085158313
 20
-618.617351153959
 30
0.0
 11
637.815085158313
 21
-618.617351153959
 31
0.0
  0
LINE
  5
1E4
330
1F
100
AcDbEntity
  8
1
  6
Continuous
 62
     3
100
AcDbLine
 10
633.315085158313
 20
-618.617351153959
 30
0.0
 11
671.1920290872821
 21
-618.617351153959
 31
0.0
  0
LINE
  5
1E5
330
1F
100
AcDbEntity
  8
1
  6
Continuous
 62
     3
100
AcDbLine
 10
670.8073734152324
 20
-618.617351153959
 30
0.0
 11
670.8073734152324
 21
-605.3417894379438
 31
0.0
  0
LINE
  5
1E6
330
1F
100
AcDbEntity
  8
1
  6
Continuous
 62
     3
100
AcDbLine
 10
633.315085158313
 20
-618.617351153959
 30
0.0
 11
633.315085158313
 21
-602.617351153959
 31
0.0
  0
LINE
  5
1E7
330
1F
100
AcDbEntity
  8
1
  6
Continuous
 62
     3
100
AcDbLine
 10
634.815085158313
 20
-625.617351153959
 30
0.0
 11
634.815085158313
 21
-640.1034743147628
 31
0.0
  0
LINE
  5
1E8
330
1F
100
AcDbEntity
  8
1
  6
Continuous
 62
     3
100
AcDbLine
 10
491.649968718577
 20
-499.1957782787051
 30
0.0
 11
491.649968718577
 21
-510.3673511539589
 31
0.0
  0
LINE
  5
1E9
330
1F
100
AcDbEntity
  8
1
  6
Continuous
 62
     3
100
AcDbLine
 10
451.649968718577
 20
-510.3673511539589
 30
0.0
 11
451.649968718577
 21
-496.3673511539589
 31
0.0
  0
LINE
  5
1EA
330
1F
100
AcDbEntity
  8
1
  6
DASH_CENTER
 62
     1
100
AcDbLine
 10
471.649968718577
 20
-473.3673511539591
 30
0.0
 11
471.649968718577
 21
-519.3673511539588
 31
0.0
  0
LINE
  5
1EB
330
1F
100
AcDbEntity
  8
1
  6
Continuous
 62
     3
100
AcDbLine
 10
451.649968718577
 20
-496.3673511539589
 30
0.0
 11
451.649968718577
 21
-482.367351153959
 31
0.0
  0
LINE
  5
1EC
330
1F
100
AcDbEntity
  8
1
  6
DASH_CENTER
 62
     1
100
AcDbLine
 10
433.702779265809
 20
-496.3673511539589
 30
0.0
 11
521.2061495694491
 21
-496.3673511539589
 31
0.0
  0
LINE
  5
1ED
330
1F
100
AcDbEntity
  8
1
  6
Continuous
 62
     3
100
AcDbLine
 10
491.649968718577
 20
-482.367351153959
 30
0.0
 11
491.649968718577
 21
-493.5389240292127
 31
0.0
  0
LINE
  5
1EE
330
1F
100
AcDbEntity
  8
1
  6
DOT_CENTER
 62
     1
100
AcDbLine
 10
537.190335201779
 20
-622.1173511539589
 30
0.0
 11
583.160044708337
 21
-622.1173511539589
 31
0.0
  0
ARC
  5
1EF
330
1F
100
AcDbEntity
  8
1
  6
Continuous
 62
     3
100
AcDbCircle
 10
471.649968718577
 20
-642.1173511539589
 30
0.0
 40
39.00000000000029
100
AcDbArc
 50
111.3236862634982
 51
112.7876296962657
  0
ARC
  5
1F0
330
1F
100
AcDbEntity
  8
1
  6
Continuous
 62
     3
100
AcDbCircle
 10
471.649968718577
 20
-602.1173511539589
 30
0.0
 40
39.00000000000026
100
AcDbArc
 50
-112.7876296962656
 51
-90.0
  0
ARC
  5
1F1
330
1F
100
AcDbEntity
  8
1
  6
Continuous
 62
     3
100
AcDbCircle
 10
376.6499687185771
 20
-622.1173511539589
 30
0.0
 40
17.99999999999994
100
AcDbArc
 50
-36.44353569089706
 51
-23.55646430910114
  0
ARC
  5
1F2
330
1F
100
AcDbEntity
  8
1
  6
Continuous
 62
     3
100
AcDbCircle
 10
376.6499687185771
 20
-622.1173511539589
 30
0.0
 40
18.00000000000003
100
AcDbArc
 50
23.55646430910147
 51
36.44353569089858
  0
ARC
  5
1F3
330
1F
100
AcDbEntity
  8
1
  6
Continuous
 62
     3
100
AcDbCircle
 10
376.6499687185771
 20
-622.1173511539589
 30
0.0
 40
18.00000000000002
100
AcDbArc
 50
-96.44353569089735
 51
-83.55646430910193
  0
ARC
  5
1F4
330
1F
100
AcDbEntity
  8
1
  6
Continuous
 62
     3
100
AcDbCircle
 10
376.6499687185771
 20
-622.1173511539589
 30
0.0
 40
18.0
100
AcDbArc
 50
143.5564643091009
 51
156.4435356908985
  0
ARC
  5
1F5
330
1F
100
AcDbEntity
  8
1
  6
Continuous
 62
     3
100
AcDbCircle
 10
376.6499687185771
 20
-622.1173511539589
 30
0.0
 40
18.00000000000001
100
AcDbArc
 50
-156.4435356908969
 51
-143.5564643091014
  0
ARC
  5
1F6
330
1F
100
AcDbEntity
  8
1
  6
Continuous
 62
     3
100
AcDbCircle
 10
376.6499687185771
 20
-622.1173511539589
 30
0.0
 40
18.00000000000005
100
AcDbArc
 50
83.55646430910176
 51
96.44353569089897
  0
ARC
  5
1F7
330
1F
100
AcDbEntity
  8
1
  6
Continuous
 62
     3
100
AcDbCircle
 10
376.6499687185771
 20
-622.1173511539589
 30
0.0
 40
19.0
100
AcDbArc
 50
0.0
 51
48.18968510422141
  0
ARC
  5
1F8
330
1F
100
AcDbEntity
  8
1
  6
Continuous
 62
     3
100
AcDbCircle
 10
376.6499687185771
 20
-622.1173511539589
 30
0.0
 40
19.00000000000006
100
AcDbArc
 50
131.8103148957785
 51
0.0
  0
ARC
  5
1F9
330
1F
100
AcDbEntity
  8
1
  6
Continuous
 62
     3
100
AcDbCircle
 10
441.826881399109
 20
-607.8856183480897
 30
0.0
 40
5.196513675947177
100
AcDbArc
 50
-171.9952523491509
 51
-115.1090251133336
  0
ARC
  5
1FA
330
1F
100
AcDbEntity
  8
1
  6
Continuous
 62
     3
100
AcDbCircle
 10
445.9657664169649
 20
-607.8856183480897
 30
0.0
 40
5.196513675947654
100
AcDbArc
 50
-64.89097488666643
 51
2.41087748168128
  0
ARC
  5
1FB
330
1F
100
AcDbEntity
  8
1
  6
Continuous
 62
     3
100
AcDbCircle
 10
434.3883169231867
 20
-622.117351153959
 30
0.0
 40
16.75436217431029
100
AcDbArc
 50
-34.65161409590039
 51
34.65161409590039
  0
ARC
  5
1FC
330
1F
100
AcDbEntity
  8
1
  6
Continuous
 62
     3
100
AcDbCircle
 10
453.4043308928876
 20
-622.117351153959
 30
0.0
 40
16.75436217431057
100
AcDbArc
 50
145.3483859041003
 51
-145.3483859041003
  0
ARC
  5
1FD
330
1F
100
AcDbEntity
  8
1
  6
Continuous
 62
     3
100
AcDbCircle
 10
445.9657664169649
 20
-636.3490839598283
 30
0.0
 40
5.196513675947212
100
AcDbArc
 50
2.41087748168128
 51
64.89097488666589
  0
ARC
  5
1FE
330
1F
100
AcDbEntity
  8
1
  6
Continuous
 62
     3
100
AcDbCircle
 10
441.826881399109
 20
-636.3490839598283
 30
0.0
 40
5.196513675947551
100
AcDbArc
 50
115.1090251133341
 51
177.5891225182346
  0
ARC
  5
1FF
330
1F
100
AcDbEntity
  8
1
  6
Continuous
 62
     3
100
AcDbCircle
 10
680.1381724777809
 20
-636.3490839598283
 30
0.0
 40
5.196513675947077
100
AcDbArc
 50
2.4108774817654
 51
64.89097488666589
  0
ARC
  5
200
330
1F
100
AcDbEntity
  8
1
  6
Continuous
 62
     3
100
AcDbCircle
 10
675.999287459925
 20
-636.3490839598283
 30
0.0
 40
5.196513675947551
100
AcDbArc
 50
115.1090251133341
 51
177.5891225183187
  0
ARC
  5
201
330
1F
100
AcDbEntity
  8
1
  6
Continuous
 62
     3
100
AcDbCircle
 10
668.5607229840023
 20
-622.117351153959
 30
0.0
 40
16.75436217431066
100
AcDbArc
 50
-34.65161409589951
 51
34.65161409589951
  0
ARC
  5
202
330
1F
100
AcDbEntity
  8
1
  6
Continuous
 62
     3
100
AcDbCircle
 10
687.5767369537032
 20
-622.117351153959
 30
0.0
 40
16.75436217431033
100
AcDbArc
 50
-167.9420547163163
 51
-145.3483859040996
  0
ARC
  5
203
330
1F
100
AcDbEntity
  8
1
  6
Continuous
 62
     3
100
AcDbCircle
 10
675.999287459925
 20
-607.8856183480897
 30
0.0
 40
5.196513675947212
100
AcDbArc
 50
177.5891225183187
 51
-115.1090251133336
  0
ARC
  5
204
330
1F
100
AcDbEntity
  8
1
  6
Continuous
 62
     3
100
AcDbCircle
 10
680.1381724777809
 20
-607.8856183480897
 30
0.0
 40
5.196513675947654
100
AcDbArc
 50
-64.89097488666643
 51
-8.00474765084914
  0
ARC
  5
205
330
1F
100
AcDbEntity
  8
1
  6
Continuous
 62
     3
100
AcDbCircle
 10
650.315085158313
 20
-602.1173511539589
 30
0.0
 40
39.00000000000011
100
AcDbArc
 50
-90.0
 51
-67.21237030373433
  0
ARC
  5
206
330
1F
100
AcDbEntity
  8
1
  6
Continuous
 62
     3
100
AcDbCircle
 10
650.315085158313
 20
-642.1173511539589
 30
0.0
 40
39.00000000000006
100
AcDbArc
 50
67.2123703037342
 51
68.6763137365018
  0
ARC
  5
207
330
1F
100
AcDbEntity
  8
1
  6
Continuous
 62
     3
100
AcDbCircle
 10
687.5767369537032
 20
-622.117351153959
 30
0.0
 40
16.75436217431029
100
AcDbArc
 50
145.3483859040996
 51
167.9420547163163
  0
ARC
  5
208
330
1F
100
AcDbEntity
  8
1
  6
Continuous
 62
     3
100
AcDbCircle
 10
471.649968718577
 20
-524.367351153959
 30
0.0
 40
14.00000000000014
100
AcDbArc
 50
50.30180115945502
 51
129.698198840545
  0
ARC
  5
209
330
1F
100
AcDbEntity
  8
1
  6
Continuous
 62
     3
100
AcDbCircle
 10
471.649968718577
 20
-468.367351153959
 30
0.0
 40
13.99999999999998
100
AcDbArc
 50
-129.6981988405449
 51
-50.30180115945442
  0
ARC
  5
20A
330
1F
100
AcDbEntity
  8
1
  6
Continuous
 62
     3
100
AcDbCircle
 10
491.649968718577
 20
-496.3673511539589
 30
0.0
 40
2.000000000000004
100
AcDbArc
 50
-70.52877936550705
 51
70.52877936550705
  0
CIRCLE
  5
20B
330
1F
100
AcDbEntity
  8
1
  6
Continuous
 62
     3
100
AcDbCircle
 10
376.6499687185771
 20
-622.1173511539589
 30
0.0
 40
11.76937548629138
  0
CIRCLE
  5
20C
330
1F
100
AcDbEntity
  8
1
  6
Continuous
 62
     1
100
AcDbCircle
 10
376.6499687185771
 20
-622.1173511539589
 30
0.0
 40
13.36294291552417
  0
CIRCLE
  5
20D
330
1F
100
AcDbEntity
  8
1
  6
Continuous
 62
     3
100
AcDbCircle
 10
376.6499687185771
 20
-622.1173511539589
 30
0.0
 40
16.5
  0
CIRCLE
  5
20E
330
1F
100
AcDbEntity
  8
1
  6
Continuous
 62
     3
100
AcDbCircle
 10
457.507833094846
 20
-510.5094867776899
 30
0.0
 40
2.5
  0
CIRCLE
  5
20F
330
1F
100
AcDbEntity
  8
1
  6
Continuous
 62
     3
100
AcDbCircle
 10
457.507833094846
 20
-482.225215530228
 30
0.0
 40
2.5
  0
CIRCLE
  5
210
330
1F
100
AcDbEntity
  8
1
  6
Continuous
 62
     3
100
AcDbCircle
 10
485.7921043423079
 20
-510.5094867776899
 30
0.0
 40
2.5
  0
CIRCLE
  5
211
330
1F
100
AcDbEntity
  8
1
  6
Continuous
 62
     3
100
AcDbCircle
 10
485.7921043423079
 20
-482.225215530228
 30
0.0
 40
2.5
  0
ARC
  5
212
330
1F
100
AcDbEntity
  8
1
  6
Continuous
 62
     3
100
AcDbCircle
 10
490.649968718577
 20
-604.1173511539589
 30
0.0
 40
1.999999999999967
100
AcDbArc
 50
59.99999999999946
 51
90.0
  0
ARC
  5
213
330
1F
100
AcDbEntity
  8
1
  6
Continuous
 62
     3
100
AcDbCircle
 10
490.649968718577
 20
-640.1173511539589
 30
0.0
 40
2.0
100
AcDbArc
 50
-90.0
 51
-59.99999999999946
  0
ARC
  5
214
330
1F
100
AcDbEntity
  8
1
  6
Continuous
 62
     3
100
AcDbCircle
 10
453.649968718577
 20
-573.1173511539589
 30
0.0
 40
2.000000000000016
100
AcDbArc
 50
150.0000000000003
 51
180.0
  0
ARC
  5
215
330
1F
100
AcDbEntity
  8
1
  6
Continuous
 62
     3
100
AcDbCircle
 10
452.649968718577
 20
-575.6173511539589
 30
0.0
 40
1.0
100
AcDbArc
 50
180.0
 51
-90.0
  0
ARC
  5
216
330
1F
100
AcDbEntity
  8
1
  6
Continuous
 62
     3
100
AcDbCircle
 10
490.649968718577
 20
-575.6173511539589
 30
0.0
 40
1.0
100
AcDbArc
 50
-90.0
 51
0.0
  0
ARC
  5
217
330
1F
100
AcDbEntity
  8
1
  6
Continuous
 62
     3
100
AcDbCircle
 10
455.1080407458176
 20
-602.5592086884604
 30
0.0
 40
3.878110411033475
100
AcDbArc
 50
-121.0452635539793
 51
-68.25763385771231
  0
ARC
  5
218
330
1F
100
AcDbEntity
  8
1
  6
Continuous
 62
     3
100
AcDbCircle
 10
455.1080407458176
 20
-641.6754936194574
 30
0.0
 40
3.878110411033549
100
AcDbArc
 50
68.25763385771107
 51
121.0452635539793
  0
ARC
  5
219
330
1F
100
AcDbEntity
  8
1
  6
Continuous
 62
     3
100
AcDbCircle
 10
455.649968718577
 20
-601.1295480901205
 30
0.0
 40
4.999999999999753
100
AcDbArc
 50
-68.67631373650453
 51
0.0
  0
ARC
  5
21A
330
1F
100
AcDbEntity
  8
1
  6
Continuous
 62
     3
100
AcDbCircle
 10
486.75113925586
 20
-600.9795366121275
 30
0.0
 40
2.000000000000072
100
AcDbArc
 50
-107.4341695775129
 51
-56.30993247402202
  0
ARC
  5
21B
330
1F
100
AcDbEntity
  8
1
  6
Continuous
 62
     3
100
AcDbCircle
 10
487.649968718577
 20
-598.1173511539589
 30
0.0
 40
5.0
100
AcDbArc
 50
180.0
 51
-107.4341695775106
  0
ARC
  5
21C
330
1F
100
AcDbEntity
  8
1
  6
Continuous
 62
     3
100
AcDbCircle
 10
491.649968718577
 20
-574.6173511539589
 30
0.0
 40
2.0
100
AcDbArc
 50
-90.0
 51
0.0
  0
ARC
  5
21D
330
1F
100
AcDbEntity
  8
1
  6
Continuous
 62
     3
100
AcDbCircle
 10
458.649968718577
 20
-587.9903345001661
 30
0.0
 40
2.0
100
AcDbArc
 50
0.0
 51
75.52248781406892
  0
ARC
  5
21E
330
1F
100
AcDbEntity
  8
1
  6
Continuous
 62
     3
100
AcDbCircle
 10
459.649968718577
 20
-584.1173511539589
 30
0.0
 40
2.0
100
AcDbArc
 50
180.0
 51
-104.4775121859303
  0
ARC
  5
21F
330
1F
100
AcDbEntity
  8
1
  6
Continuous
 62
     3
100
AcDbCircle
 10
454.649968718577
 20
-579.6173511539589
 30
0.0
 40
3.0
100
AcDbArc
 50
0.0
 51
90.0
  0
ARC
  5
220
330
1F
100
AcDbEntity
  8
1
  6
Continuous
 62
     3
100
AcDbCircle
 10
488.649968718577
 20
-579.6173511539589
 30
0.0
 40
3.000000000000042
100
AcDbArc
 50
100.0395504151171
 51
180.0
  0
ARC
  5
221
330
1F
100
AcDbEntity
  8
1
  6
Continuous
 62
     3
100
AcDbCircle
 10
484.649968718577
 20
-587.9903345001661
 30
0.0
 40
1.999999999999843
100
AcDbArc
 50
104.4775121859311
 51
180.0
  0
ARC
  5
222
330
1F
100
AcDbEntity
  8
1
  6
Continuous
 62
     3
100
AcDbCircle
 10
483.649968718577
 20
-584.1173511539589
 30
0.0
 40
1.999999999999953
100
AcDbArc
 50
-75.52248781406973
 51
0.0
  0
ARC
  5
223
330
1F
100
AcDbEntity
  8
1
  6
Continuous
 62
     3
100
AcDbCircle
 10
484.649968718577
 20
-587.9903345001661
 30
0.0
 40
1.999999999999843
100
AcDbArc
 50
104.4775121859311
 51
180.0
  0
ARC
  5
224
330
1F
100
AcDbEntity
  8
1
  6
Continuous
 62
     3
100
AcDbCircle
 10
483.649968718577
 20
-584.1173511539589
 30
0.0
 40
1.999999999999953
100
AcDbArc
 50
-75.52248781406973
 51
0.0
  0
ARC
  5
225
330
1F
100
AcDbEntity
  8
1
  6
Continuous
 62
     3
100
AcDbCircle
 10
491.649968718577
 20
-573.1173511539589
 30
0.0
 40
2.0
100
AcDbArc
 50
0.0
 51
30.00000000000054
  0
ARC
  5
226
330
1F
100
AcDbEntity
  8
1
  6
Continuous
 62
     3
100
AcDbCircle
 10
489.649968718577
 20
-573.1173511539589
 30
0.0
 40
2.0
100
AcDbArc
 50
0.0
 51
30.00000000000054
  0
ARC
  5
227
330
1F
100
AcDbEntity
  8
1
  6
Continuous
 62
     3
100
AcDbCircle
 10
577.8214967324321
 20
-573.1173511539589
 30
0.0
 40
2.0
100
AcDbArc
 50
0.0
 51
30.00000000000054
  0
ARC
  5
228
330
1F
100
AcDbEntity
  8
1
  6
Continuous
 62
     3
100
AcDbCircle
 10
571.8214967324321
 20
-584.1173511539589
 30
0.0
 40
1.999999999999953
100
AcDbArc
 50
-75.52248781406973
 51
0.0
  0
ARC
  5
229
330
1F
100
AcDbEntity
  8
1
  6
Continuous
 62
     3
100
AcDbCircle
 10
572.8214967324321
 20
-587.9903345001661
 30
0.0
 40
1.999999999999843
100
AcDbArc
 50
104.4775121859311
 51
180.0
  0
ARC
  5
22A
330
1F
100
AcDbEntity
  8
1
  6
Continuous
 62
     3
100
AcDbCircle
 10
571.8214967324321
 20
-584.1173511539589
 30
0.0
 40
1.999999999999953
100
AcDbArc
 50
-75.52248781406973
 51
0.0
  0
ARC
  5
22B
330
1F
100
AcDbEntity
  8
1
  6
Continuous
 62
     3
100
AcDbCircle
 10
572.8214967324321
 20
-587.9903345001661
 30
0.0
 40
1.999999999999843
100
AcDbArc
 50
104.4775121859311
 51
180.0
  0
ARC
  5
22C
330
1F
100
AcDbEntity
  8
1
  6
Continuous
 62
     3
100
AcDbCircle
 10
576.8214967324321
 20
-579.6173511539589
 30
0.0
 40
3.0
100
AcDbArc
 50
90.0
 51
180.0
  0
ARC
  5
22D
330
1F
100
AcDbEntity
  8
1
  6
Continuous
 62
     3
100
AcDbCircle
 10
542.8214967324321
 20
-579.6173511539589
 30
0.0
 40
3.0
100
AcDbArc
 50
0.0
 51
90.0
  0
ARC
  5
22E
330
1F
100
AcDbEntity
  8
1
  6
Continuous
 62
     3
100
AcDbCircle
 10
547.8214967324321
 20
-584.1173511539589
 30
0.0
 40
2.0
100
AcDbArc
 50
180.0
 51
-104.4775121859303
  0
ARC
  5
22F
330
1F
100
AcDbEntity
  8
1
  6
Continuous
 62
     3
100
AcDbCircle
 10
546.8214967324321
 20
-587.9903345001661
 30
0.0
 40
2.0
100
AcDbArc
 50
0.0
 51
75.52248781406892
  0
ARC
  5
230
330
1F
100
AcDbEntity
  8
1
  6
Continuous
 62
     3
100
AcDbCircle
 10
578.8214967324321
 20
-575.6173511539589
 30
0.0
 40
1.0
100
AcDbArc
 50
-90.0
 51
0.0
  0
ARC
  5
231
330
1F
100
AcDbEntity
  8
1
  6
Continuous
 62
     3
100
AcDbCircle
 10
540.8214967324321
 20
-575.6173511539589
 30
0.0
 40
1.0
100
AcDbArc
 50
180.0
 51
-90.0
  0
ARC
  5
232
330
1F
100
AcDbEntity
  8
1
  6
Continuous
 62
     3
100
AcDbCircle
 10
541.8214967324321
 20
-573.1173511539589
 30
0.0
 40
1.999999999999967
100
AcDbArc
 50
149.9999999999995
 51
180.0
  0
ARC
  5
233
330
1F
100
AcDbEntity
  8
1
  6
Continuous
 62
     3
100
AcDbCircle
 10
358.6499687185771
 20
-573.1173511539589
 30
0.0
 40
2.000000000000016
100
AcDbArc
 50
150.0000000000003
 51
180.0
  0
ARC
  5
234
330
1F
100
AcDbEntity
  8
1
  6
Continuous
 62
     3
100
AcDbCircle
 10
357.6499687185771
 20
-575.6173511539589
 30
0.0
 40
1.0
100
AcDbArc
 50
180.0
 51
-90.0
  0
ARC
  5
235
330
1F
100
AcDbEntity
  8
1
  6
Continuous
 62
     3
100
AcDbCircle
 10
395.6499687185771
 20
-575.6173511539589
 30
0.0
 40
1.0
100
AcDbArc
 50
-90.0
 51
0.0
  0
ARC
  5
236
330
1F
100
AcDbEntity
  8
1
  6
Continuous
 62
     3
100
AcDbCircle
 10
363.6499687185771
 20
-587.9903345001661
 30
0.0
 40
2.0
100
AcDbArc
 50
0.0
 51
75.52248781406892
  0
ARC
  5
237
330
1F
100
AcDbEntity
  8
1
  6
Continuous
 62
     3
100
AcDbCircle
 10
364.6499687185771
 20
-584.1173511539589
 30
0.0
 40
2.0
100
AcDbArc
 50
180.0
 51
-104.4775121859303
  0
ARC
  5
238
330
1F
100
AcDbEntity
  8
1
  6
Continuous
 62
     3
100
AcDbCircle
 10
359.6499687185771
 20
-579.6173511539589
 30
0.0
 40
3.0
100
AcDbArc
 50
0.0
 51
90.0
  0
ARC
  5
239
330
1F
100
AcDbEntity
  8
1
  6
Continuous
 62
     3
100
AcDbCircle
 10
393.6499687185771
 20
-579.6173511539589
 30
0.0
 40
3.0
100
AcDbArc
 50
90.0
 51
180.0
  0
ARC
  5
23A
330
1F
100
AcDbEntity
  8
1
  6
Continuous
 62
     3
100
AcDbCircle
 10
389.6499687185771
 20
-587.9903345001661
 30
0.0
 40
1.999999999999843
100
AcDbArc
 50
104.4775121859311
 51
180.0
  0
ARC
  5
23B
330
1F
100
AcDbEntity
  8
1
  6
Continuous
 62
     3
100
AcDbCircle
 10
388.6499687185771
 20
-584.1173511539589
 30
0.0
 40
1.999999999999953
100
AcDbArc
 50
-75.52248781406973
 51
0.0
  0
ARC
  5
23C
330
1F
100
AcDbEntity
  8
1
  6
Continuous
 62
     3
100
AcDbCircle
 10
389.6499687185771
 20
-587.9903345001661
 30
0.0
 40
1.999999999999843
100
AcDbArc
 50
104.4775121859311
 51
180.0
  0
ARC
  5
23D
330
1F
100
AcDbEntity
  8
1
  6
Continuous
 62
     3
100
AcDbCircle
 10
388.6499687185771
 20
-584.1173511539589
 30
0.0
 40
1.999999999999953
100
AcDbArc
 50
-75.52248781406973
 51
0.0
  0
ARC
  5
23E
330
1F
100
AcDbEntity
  8
1
  6
Continuous
 62
     3
100
AcDbCircle
 10
394.6499687185771
 20
-573.1173511539589
 30
0.0
 40
2.0
100
AcDbArc
 50
0.0
 51
30.00000000000136
  0
ARC
  5
23F
330
1F
100
AcDbEntity
  8
1
  6
Continuous
 62
     3
100
AcDbCircle
 10
360.6499687185771
 20
-604.2288073339605
 30
0.0
 40
5.000000000000008
100
AcDbArc
 50
-48.18968510422178
 51
0.0
  0
ARC
  5
240
330
1F
100
AcDbEntity
  8
1
  6
Continuous
 62
     3
100
AcDbCircle
 10
392.6499687185771
 20
-604.2288073339607
 30
0.0
 40
5.0
100
AcDbArc
 50
180.0
 51
-131.8103148957797
  0
ARC
  5
241
330
1F
100
AcDbEntity
  8
1
  6
Continuous
 62
     3
100
AcDbCircle
 10
470.8140137304236
 20
-620.1162722936864
 30
0.0
 40
2.001078860272628
100
AcDbArc
 50
-90.0
 51
0.0
  0
ARC
  5
242
330
1F
100
AcDbEntity
  8
1
  6
Continuous
 62
     3
100
AcDbCircle
 10
488.649968718577
 20
-579.6173511539589
 30
0.0
 40
3.0
100
AcDbArc
 50
90.0
 51
100.0395504151171
  0
ARC
  5
243
330
1F
100
AcDbEntity
  8
1
  6
Continuous
 62
     3
100
AcDbCircle
 10
633.315085158313
 20
-579.6173511539589
 30
0.0
 40
3.000000000000042
100
AcDbArc
 50
79.96044958488295
 51
90.0
  0
ARC
  5
244
330
1F
100
AcDbEntity
  8
1
  6
Continuous
 62
     3
100
AcDbCircle
 10
632.315085158313
 20
-573.1173511539589
 30
0.0
 40
1.999999999999967
100
AcDbArc
 50
149.9999999999995
 51
180.0
  0
ARC
  5
245
330
1F
100
AcDbEntity
  8
1
  6
Continuous
 62
     3
100
AcDbCircle
 10
630.315085158313
 20
-573.1173511539589
 30
0.0
 40
1.999999999999967
100
AcDbArc
 50
149.9999999999995
 51
180.0
  0
ARC
  5
246
330
1F
100
AcDbEntity
  8
1
  6
Continuous
 62
     3
100
AcDbCircle
 10
638.315085158313
 20
-584.1173511539589
 30
0.0
 40
2.0
100
AcDbArc
 50
180.0
 51
-104.4775121859303
  0
ARC
  5
247
330
1F
100
AcDbEntity
  8
1
  6
Continuous
 62
     3
100
AcDbCircle
 10
637.315085158313
 20
-587.9903345001661
 30
0.0
 40
2.0
100
AcDbArc
 50
0.0
 51
75.52248781406892
  0
ARC
  5
248
330
1F
100
AcDbEntity
  8
1
  6
Continuous
 62
     3
100
AcDbCircle
 10
638.315085158313
 20
-584.1173511539589
 30
0.0
 40
2.0
100
AcDbArc
 50
180.0
 51
-104.4775121859303
  0
ARC
  5
249
330
1F
100
AcDbEntity
  8
1
  6
Continuous
 62
     3
100
AcDbCircle
 10
637.315085158313
 20
-587.9903345001661
 30
0.0
 40
2.0
100
AcDbArc
 50
0.0
 51
75.52248781406892
  0
ARC
  5
24A
330
1F
100
AcDbEntity
  8
1
  6
Continuous
 62
     3
100
AcDbCircle
 10
633.315085158313
 20
-579.6173511539589
 30
0.0
 40
3.0
100
AcDbArc
 50
0.0
 51
79.96044958488295
  0
ARC
  5
24B
330
1F
100
AcDbEntity
  8
1
  6
Continuous
 62
     3
100
AcDbCircle
 10
667.315085158313
 20
-579.6173511539589
 30
0.0
 40
3.0
100
AcDbArc
 50
90.0
 51
180.0
  0
ARC
  5
24C
330
1F
100
AcDbEntity
  8
1
  6
Continuous
 62
     3
100
AcDbCircle
 10
662.315085158313
 20
-584.1173511539589
 30
0.0
 40
1.999999999999953
100
AcDbArc
 50
-75.52248781406973
 51
0.0
  0
ARC
  5
24D
330
1F
100
AcDbEntity
  8
1
  6
Continuous
 62
     3
100
AcDbCircle
 10
663.315085158313
 20
-587.9903345001661
 30
0.0
 40
1.999999999999843
100
AcDbArc
 50
104.4775121859311
 51
180.0
  0
ARC
  5
24E
330
1F
100
AcDbEntity
  8
1
  6
Continuous
 62
     3
100
AcDbCircle
 10
630.315085158313
 20
-574.6173511539589
 30
0.0
 40
2.0
100
AcDbArc
 50
180.0
 51
-90.0
  0
ARC
  5
24F
330
1F
100
AcDbEntity
  8
1
  6
Continuous
 62
     3
100
AcDbCircle
 10
634.315085158313
 20
-598.1173511539589
 30
0.0
 40
5.000000000000059
100
AcDbArc
 50
-72.56583042248938
 51
0.0
  0
ARC
  5
250
330
1F
100
AcDbEntity
  8
1
  6
Continuous
 62
     3
100
AcDbCircle
 10
635.21391462103
 20
-600.9795366121275
 30
0.0
 40
2.000000000000035
100
AcDbArc
 50
-123.690067525978
 51
-72.5658304224871
  0
ARC
  5
251
330
1F
100
AcDbEntity
  8
1
  6
Continuous
 62
     3
100
AcDbCircle
 10
666.315085158313
 20
-601.1295480901205
 30
0.0
 40
5.0
100
AcDbArc
 50
180.0
 51
-111.3236862634955
  0
ARC
  5
252
330
1F
100
AcDbEntity
  8
1
  6
Continuous
 62
     3
100
AcDbCircle
 10
666.8570131310723
 20
-641.6754936194574
 30
0.0
 40
3.878110411033475
100
AcDbArc
 50
58.95473644602069
 51
111.7423661422882
  0
ARC
  5
253
330
1F
100
AcDbEntity
  8
1
  6
Continuous
 62
     3
100
AcDbCircle
 10
666.8570131310723
 20
-602.5592086884604
 30
0.0
 40
3.878110411033739
100
AcDbArc
 50
-111.7423661422869
 51
-58.95473644602069
  0
ARC
  5
254
330
1F
100
AcDbEntity
  8
1
  6
Continuous
 62
     3
100
AcDbCircle
 10
631.315085158313
 20
-575.6173511539589
 30
0.0
 40
1.0
100
AcDbArc
 50
180.0
 51
-90.0
  0
ARC
  5
255
330
1F
100
AcDbEntity
  8
1
  6
Continuous
 62
     3
100
AcDbCircle
 10
669.315085158313
 20
-575.6173511539589
 30
0.0
 40
1.0
100
AcDbArc
 50
-90.0
 51
0.0
  0
ARC
  5
256
330
1F
100
AcDbEntity
  8
1
  6
Continuous
 62
     3
100
AcDbCircle
 10
668.315085158313
 20
-573.1173511539589
 30
0.0
 40
2.0
100
AcDbArc
 50
0.0
 51
30.00000000000054
  0
ARC
  5
257
330
1F
100
AcDbEntity
  8
1
  6
Continuous
 62
     3
100
AcDbCircle
 10
631.315085158313
 20
-640.1173511539589
 30
0.0
 40
1.999999999999967
100
AcDbArc
 50
-120.0000000000006
 51
-90.0
  0
ARC
  5
258
330
1F
100
AcDbEntity
  8
1
  6
Continuous
 62
     3
100
AcDbCircle
 10
631.315085158313
 20
-604.1173511539589
 30
0.0
 40
2.0
100
AcDbArc
 50
90.0
 51
120.0000000000006
  0
ARC
  5
259
330
1F
100
AcDbEntity
  8
1
  6
Continuous
 62
     3
100
AcDbCircle
 10
457.649968718577
 20
-482.367351153959
 30
0.0
 40
6.0
100
AcDbArc
 50
90.0
 51
180.0
  0
ARC
  5
25A
330
1F
100
AcDbEntity
  8
1
  6
Continuous
 62
     3
100
AcDbCircle
 10
457.649968718577
 20
-510.3673511539589
 30
0.0
 40
6.000000000000114
100
AcDbArc
 50
-90.0
 51
-32.54901099750765
  0
ARC
  5
25B
330
1F
100
AcDbEntity
  8
1
  6
Continuous
 62
     3
100
AcDbCircle
 10
485.649968718577
 20
-510.3673511539589
 30
0.0
 40
5.99999999999996
100
AcDbArc
 50
-147.4509890024924
 51
0.0
  0
ARC
  5
25C
330
1F
100
AcDbEntity
  8
1
  6
Continuous
 62
     3
100
AcDbCircle
 10
457.649968718577
 20
-482.367351153959
 30
0.0
 40
6.000000000000056
100
AcDbArc
 50
32.54901099750707
 51
90.0
  0
ARC
  5
25D
330
1F
100
AcDbEntity
  8
1
  6
Continuous
 62
     3
100
AcDbCircle
 10
457.649968718577
 20
-510.3673511539589
 30
0.0
 40
6.0
100
AcDbArc
 50
180.0
 51
-90.0
  0
ARC
  5
25E
330
1F
100
AcDbEntity
  8
1
  6
Continuous
 62
     3
100
AcDbCircle
 10
485.649968718577
 20
-482.367351153959
 30
0.0
 40
6.0
100
AcDbArc
 50
0.0
 51
147.4509890024914
  0
ARC
  5
25F
330
1F
100
AcDbEntity
  8
1
  6
Continuous
 62
     3
100
AcDbCircle
 10
492.649968718577
 20
-499.1957782787051
 30
0.0
 40
1.000000000000018
100
AcDbArc
 50
109.4712206344857
 51
180.0
  0
ARC
  5
260
330
1F
100
AcDbEntity
  8
1
  6
Continuous
 62
     3
100
AcDbCircle
 10
492.649968718577
 20
-493.5389240292127
 30
0.0
 40
1.0
100
AcDbArc
 50
180.0
 51
-109.4712206344857
  0
ARC
  5
261
330
1F
100
AcDbEntity
  8
1
  6
Continuous
 62
     3
100
AcDbCircle
 10
543.8214967324321
 20
-604.2288073339605
 30
0.0
 40
5.00000000000006
100
AcDbArc
 50
-15.06674489648045
 51
0.0
  0
ARC
  5
262
330
1F
100
AcDbEntity
  8
1
  6
Continuous
 62
     3
100
AcDbCircle
 10
575.8214967324321
 20
-604.2288073339607
 30
0.0
 40
5.0
100
AcDbArc
 50
180.0
 51
-164.9332551035253
  0
TEXT
  5
264
330
1F
100
AcDbEntity
  8
1
 62
     3
100
AcDbText
 10
350.815730953656
 20
-663.683016109975
 30
0.0
 40
5.0
  1
VY5502A002X
 41
1.08
  7
CONVERTER_2
100
AcDbText
  0
MTEXT
  5
266
330
1F
100
AcDbEntity
  8
1
 62
     3
100
AcDbMText
 10
471.649968718577
 20
-616.117351153959
 30
0.0
 40
5.0
 41
0.0
 71
     8
 72
     1
  1
20
  7
CONVERTER_3
 73
     1
 44
0.84033613445378
  0
MTEXT
  5
268
330
1F
100
AcDbEntity
  8
1
 62
     3
100
AcDbMText
 10
471.649968718577
 20
-628.117351153959
 30
0.0
 40
5.0
 41
0.0
 71
     2
 72
     1
  1
PN16
  7
CONVERTER_4
 73
     1
 44
0.84033613445378
  0
TEXT
  5
26A
330
1F
100
AcDbEntity
  8
1
 62
     1
100
AcDbText
 10
632.0743241647431
 20
-623.9541769661939
 30
0.0
 40
4.0
  1
VY5502A002X
 41
0.855
  7
CONVERTER_5
100
AcDbText
  0
DIMENSION
  5
27D
330
1F
100
AcDbEntity
  8
1
100
AcDbDimension
  2
*D06
 10
422.3025378058947
 20
-622.1173511539589
 30
0.0
 11
418.9525378058947
 21
-596.13601558008
 31
0.0
 70
    32
  1
<>
 71
     5
 42
-1.0
 53
90.0
  3
ME10_DIM_0
100
AcDbAlignedDimension
 13
451.9179179110081
 23
-572.1173511539589
 33
0.0
 14
430.3025378058947
 24
-622.1173511539589
 34
0.0
 50
90.0
100
AcDbRotatedDimension
  0
DIMENSION
  5
28A
330
1F
100
AcDbEntity
  8
1
100
AcDbDimension
  2
*D18
 10
422.248161997586
 20
-572.1173511539589
 30
0.0
 11
418.898161997586
 21
-558.08212047822
 31
0.0
 70
    32
  1
<>
 71
     5
 42
-1.0
 53
90.0
  3
ME10_DIM_1
100
AcDbAlignedDimension
 13
467.399968718577
 23
-547.1173511539589
 33
0.0
 14
451.9179179110081
 24
-572.1173511539589
 34
0.0
 50
90.0
100
AcDbRotatedDimension
  0
DIMENSION
  5
297
330
1F
100
AcDbEntity
  8
1
100
AcDbDimension
  2
*D29
 10
436.649968718577
 20
-655.6950589052871
 30
0.0
 11
454.864712642382
 21
-652.345058905287
 31
0.0
 70
    32
  1
<>
 71
     5
 42
-1.0
 53
0.00013888888889
  3
ME10_DIM_2
100
AcDbAlignedDimension
 13
471.649968718577
 23
-647.6950589052871
 33
0.0
 14
436.649968718577
 24
-638.5994019615281
 34
0.0
100
AcDbRotatedDimension
  0
DIMENSION
  5
2A4
330
1F
100
AcDbEntity
  8
1
100
AcDbDimension
  2
*D310
 10
436.649968718577
 20
-666.281038206129
 30
0.0
 11
479.431151252443
 21
-662.931038206129
 31
0.0
 70
    32
  1
<>
 71
     5
 42
-1.0
 53
0.00013888888889
  3
ME10_DIM_3
100
AcDbAlignedDimension
 13
516.6499687185769
 23
-638.598449238474
 33
0.0
 14
436.649968718577
 24
-638.5994019615281
 34
0.0
100
AcDbRotatedDimension
  0
ENDSEC
  0
SECTION
  2
OBJECTS
  0
DICTIONARY
  5
C
330
0
100
AcDbDictionary
281
     1
  3
ACAD_GROUP
350
D
  3
ACAD_LAYOUT
350
1A
  3
ACAD_MLINESTYLE
350
17
  3
ACAD_PLOTSETTINGS
350
19
  3
ACAD_PLOTSTYLENAME
350
E
  0
DICTIONARY
  5
D
102
{ACAD_REACTORS
330
C
102
}
330
C
100
AcDbDictionary
281
     1
  0
DICTIONARY
  5
1A
102
{ACAD_REACTORS
330
C
102
}
330
C
100
AcDbDictionary
281
     1
  3
Layout1
350
1E
  3
Layout2
350
26
  3
Model
350
22
  0
DICTIONARY
  5
17
102
{ACAD_REACTORS
330
C
102
}
330
C
100
AcDbDictionary
281
     1
  3
Standard
350
18
  0
DICTIONARY
  5
19
102
{ACAD_REACTORS
330
C
102
}
330
C
100
AcDbDictionary
281
     1
  0
ACDBDICTIONARYWDFLT
  5
E
102
{ACAD_REACTORS
330
C
102
}
330
C
100
AcDbDictionary
281
     1
  3
Normal
350
F
100
AcDbDictionaryWithDefault
340
F
  0
LAYOUT
  5
1E
102
{ACAD_REACTORS
330
1A
102
}
330
1A
100
AcDbPlotSettings
  1

  2

  4

  6

 40
0.0
 41
0.0
 42
0.0
 43
0.0
 44
0.0
 45
0.0
 46
0.0
 47
0.0
 48
0.0
 49
0.0
140
0.0
141
0.0
142
1.0
143
1.0
 70
   688
 72
     0
 73
     0
 74
     5
  7

 75
    16
147
1.0
148
0.0
149
0.0
100
AcDbLayout
  1
Layout1
 70
     1
 71
     1
 10
0.0
 20
0.0
 11
0.0
 21
0.0
 12
0.0
 22
0.0
 32
0.0
 14
0.0
 24
0.0
 34
0.0
 15
0.0
 25
0.0
 35
0.0
146
0.0
 13
0.0
 23
0.0
 33
0.0
 16
1.0
 26
0.0
 36
0.0
 17
0.0
 27
1.0
 37
0.0
 76
     0
330
1B
  0
LAYOUT
  5
26
102
{ACAD_REACTORS
330
1A
102
}
330
1A
100
AcDbPlotSettings
  1

  2

  4

  6

 40
0.0
 41
0.0
 42
0.0
 43
0.0
 44
0.0
 45
0.0
 46
0.0
 47
0.0
 48
0.0
 49
0.0
140
0.0
141
0.0
142
1.0
143
1.0
 70
   688
 72
     0
 73
     0
 74
     5
  7

 75
    16
147
1.0
148
0.0
149
0.0
100
AcDbLayout
  1
Layout2
 70
     1
 71
     2
 10
0.0
 20
0.0
 11
0.0
 21
0.0
 12
0.0
 22
0.0
 32
0.0
 14
0.0
 24
0.0
 34
0.0
 15
0.0
 25
0.0
 35
0.0
146
0.0
 13
0.0
 23
0.0
 33
0.0
 16
1.0
 26
0.0
 36
0.0
 17
0.0
 27
1.0
 37
0.0
 76
     0
330
23
  0
LAYOUT
  5
22
102
{ACAD_REACTORS
330
1A
102
}
330
1A
100
AcDbPlotSettings
  1

  2

  4

  6

 40
0.0
 41
0.0
 42
0.0
 43
0.0
 44
0.0
 45
0.0
 46
0.0
 47
0.0
 48
0.0
 49
0.0
140
0.0
141
0.0
142
1.0
143
1.0
 70
  1712
 72
     0
 73
     0
 74
     0
  7

 75
     0
147
1.0
148
0.0
149
0.0
100
AcDbLayout
  1
Model
 70
     1
 71
     0
 10
0.0
 20
0.0
 11
0.0
 21
0.0
 12
0.0
 22
0.0
 32
0.0
 14
350.815730953656
 24
-667.281038206129
 34
0.0
 15
691.6625160709953
 25
-473.3673511539591
 35
0.0
146
0.0
 13
0.0
 23
0.0
 33
0.0
 16
1.0
 26
0.0
 36
0.0
 17
0.0
 27
1.0
 37
0.0
 76
     0
330
1F
  0
MLINESTYLE
  5
18
102
{ACAD_REACTORS
330
17
102
}
330
17
100
AcDbMlineStyle
  2
Standard
 70
     0
  3

 62
   256
 51
90.0
 52
90.0
 71
     2
 49
0.5
 62
   256
  6
BYLAYER
 49
-0.5
 62
   256
  6
BYLAYER
  0
ACDBPLACEHOLDER
  5
F
102
{ACAD_REACTORS
330
E
102
}
330
E
  0
ENDSEC
  0
EOF
