  0
SECTION
  2
HEADER
  9
$ACADVER
  1
AC1024
  9
$ACADMAINTVER
 70
     6
  9
$DWGCODEPAGE
  3
ANSI_932
  9
$INSBASE
 10
0.0
 20
0.0
 30
0.0
  9
$EXTMIN
 10
69.2775980694215
 20
-350.735818501068
 30
0.0
  9
$EXTMAX
 10
203.835188516309
 20
-215.878779577844
 30
0.0
  9
$LIMMIN
 10
0.0
 20
0.0
  9
$LIMMAX
 10
12.0
 20
9.0
  9
$ORTHOMODE
 70
     0
  9
$REGENMODE
 70
     1
  9
$FILLMODE
 70
     1
  9
$QTEXTMODE
 70
     0
  9
$MIRRTEXT
 70
     1
  9
$LTSCALE
 40
1.0
  9
$ATTMODE
 70
     1
  9
$TEXTSIZE
 40
0.2
  9
$TRACEWID
 40
0.05
  9
$TEXTSTYLE
  7
Standard
  9
$CLAYER
  8
0
  9
$CELTYPE
  6
ByLayer
  9
$CECOLOR
 62
   256
  9
$CELTSCALE
 40
1.0
  9
$DISPSILH
 70
     0
  9
$DIMSCALE
 40
1.0
  9
$DIMASZ
 40
0.18
  9
$DIMEXO
 40
0.0625
  9
$DIMDLI
 40
0.38
  9
$DIMRND
 40
0.0
  9
$DIMDLE
 40
0.0
  9
$DIMEXE
 40
0.18
  9
$DIMTP
 40
0.0
  9
$DIMTM
 40
0.0
  9
$DIMTXT
 40
0.18
  9
$DIMCEN
 40
0.09
  9
$DIMTSZ
 40
0.0
  9
$DIMTOL
 70
     0
  9
$DIMLIM
 70
     0
  9
$DIMTIH
 70
     1
  9
$DIMTOH
 70
     1
  9
$DIMSE1
 70
     0
  9
$DIMSE2
 70
     0
  9
$DIMTAD
 70
     0
  9
$DIMZIN
 70
     0
  9
$DIMBLK
  1

  9
$DIMASO
 70
     1
  9
$DIMSHO
 70
     1
  9
$DIMPOST
  1

  9
$DIMAPOST
  1

  9
$DIMALT
 70
     0
  9
$DIMALTD
 70
     2
  9
$DIMALTF
 40
25.4
  9
$DIMLFAC
 40
1.0
  9
$DIMTOFL
 70
     0
  9
$DIMTVP
 40
0.0
  9
$DIMTIX
 70
     0
  9
$DIMSOXD
 70
     0
  9
$DIMSAH
 70
     0
  9
$DIMBLK1
  1

  9
$DIMBLK2
  1

  9
$DIMSTYLE
  2
Standard
  9
$DIMCLRD
 70
     0
  9
$DIMCLRE
 70
     0
  9
$DIMCLRT
 70
     0
  9
$DIMTFAC
 40
1.0
  9
$DIMGAP
 40
0.09
  9
$DIMJUST
 70
     0
  9
$DIMSD1
 70
     0
  9
$DIMSD2
 70
     0
  9
$DIMTOLJ
 70
     1
  9
$DIMTZIN
 70
     0
  9
$DIMALTZ
 70
     0
  9
$DIMALTTZ
 70
     0
  9
$DIMUPT
 70
     0
  9
$DIMDEC
 70
     4
  9
$DIMTDEC
 70
     4
  9
$DIMALTU
 70
     2
  9
$DIMALTTD
 70
     2
  9
$DIMTXSTY
  7
Standard
  9
$DIMAUNIT
 70
     0
  9
$DIMADEC
 70
     0
  9
$DIMALTRND
 40
0.0
  9
$DIMAZIN
 70
     0
  9
$DIMDSEP
 70
    46
  9
$DIMATFIT
 70
     3
  9
$DIMFRAC
 70
     0
  9
$DIMLDRBLK
  1

  9
$DIMLUNIT
 70
     2
  9
$DIMLWD
 70
    -2
  9
$DIMLWE
 70
    -2
  9
$DIMTMOVE
 70
     0
  9
$DIMFXL
 40
1.0
  9
$DIMFXLON
 70
     0
  9
$DIMJOGANG
 40
0.78539816339745
  9
$DIMTFILL
 70
     0
  9
$DIMTFILLCLR
 70
     0
  9
$DIMARCSYM
 70
     0
  9
$DIMLTYPE
  6

  9
$DIMLTEX1
  6

  9
$DIMLTEX2
  6

  9
$DIMTXTDIRECTION
 70
     0
  9
$LUNITS
 70
     2
  9
$LUPREC
 70
     4
  9
$SKETCHINC
 40
0.1
  9
$FILLETRAD
 40
0.5
  9
$AUNITS
 70
     0
  9
$AUPREC
 70
     0
  9
$MENU
  1
.
  9
$ELEVATION
 40
0.0
  9
$PELEVATION
 40
0.0
  9
$THICKNESS
 40
0.0
  9
$LIMCHECK
 70
     0
  9
$CHAMFERA
 40
0.0
  9
$CHAMFERB
 40
0.0
  9
$CHAMFERC
 40
0.0
  9
$CHAMFERD
 40
0.0
  9
$SKPOLY
 70
     0
  9
$TDCREATE
 40
2460342.852421632
  9
$TDUCREATE
 40
2460342.477421632
  9
$TDUPDATE
 40
2460342.852422072
  9
$TDUUPDATE
 40
2460342.477422072
  9
$TDINDWG
 40
0.0000000116
  9
$TDUSRTIMER
 40
0.0000000116
  9
$USRTIMER
 70
     1
  9
$ANGBASE
 50
0.0
  9
$ANGDIR
 70
     0
  9
$PDMODE
 70
     0
  9
$PDSIZE
 40
0.0
  9
$PLINEWID
 40
0.0
  9
$SPLFRAME
 70
     0
  9
$SPLINETYPE
 70
     6
  9
$SPLINESEGS
 70
     8
  9
$HANDSEED
  5
230
  9
$SURFTAB1
 70
     6
  9
$SURFTAB2
 70
     6
  9
$SURFTYPE
 70
     6
  9
$SURFU
 70
     6
  9
$SURFV
 70
     6
  9
$UCSBASE
  2

  9
$UCSNAME
  2

  9
$UCSORG
 10
0.0
 20
0.0
 30
0.0
  9
$UCSXDIR
 10
1.0
 20
0.0
 30
0.0
  9
$UCSYDIR
 10
0.0
 20
1.0
 30
0.0
  9
$UCSORTHOREF
  2

  9
$UCSORTHOVIEW
 70
     0
  9
$UCSORGTOP
 10
0.0
 20
0.0
 30
0.0
  9
$UCSORGBOTTOM
 10
0.0
 20
0.0
 30
0.0
  9
$UCSORGLEFT
 10
0.0
 20
0.0
 30
0.0
  9
$UCSORGRIGHT
 10
0.0
 20
0.0
 30
0.0
  9
$UCSORGFRONT
 10
0.0
 20
0.0
 30
0.0
  9
$UCSORGBACK
 10
0.0
 20
0.0
 30
0.0
  9
$PUCSBASE
  2

  9
$PUCSNAME
  2

  9
$PUCSORG
 10
0.0
 20
0.0
 30
0.0
  9
$PUCSXDIR
 10
1.0
 20
0.0
 30
0.0
  9
$PUCSYDIR
 10
0.0
 20
1.0
 30
0.0
  9
$PUCSORTHOREF
  2

  9
$PUCSORTHOVIEW
 70
     0
  9
$PUCSORGTOP
 10
0.0
 20
0.0
 30
0.0
  9
$PUCSORGBOTTOM
 10
0.0
 20
0.0
 30
0.0
  9
$PUCSORGLEFT
 10
0.0
 20
0.0
 30
0.0
  9
$PUCSORGRIGHT
 10
0.0
 20
0.0
 30
0.0
  9
$PUCSORGFRONT
 10
0.0
 20
0.0
 30
0.0
  9
$PUCSORGBACK
 10
0.0
 20
0.0
 30
0.0
  9
$USERI1
 70
     0
  9
$USERI2
 70
     0
  9
$USERI3
 70
     0
  9
$USERI4
 70
     0
  9
$USERI5
 70
     0
  9
$USERR1
 40
20.3
  9
$USERR2
 40
0.0
  9
$USERR3
 40
0.0
  9
$USERR4
 40
0.0
  9
$USERR5
 40
0.0
  9
$WORLDVIEW
 70
     1
  9
$SHADEDGE
 70
     3
  9
$SHADEDIF
 70
    70
  9
$TILEMODE
 70
     1
  9
$MAXACTVP
 70
    64
  9
$PINSBASE
 10
0.0
 20
0.0
 30
0.0
  9
$PLIMCHECK
 70
     0
  9
$PEXTMIN
 10
1.00000000000000E+20
 20
1.00000000000000E+20
 30
1.00000000000000E+20
  9
$PEXTMAX
 10
-1.00000000000000E+20
 20
-1.00000000000000E+20
 30
-1.00000000000000E+20
  9
$PLIMMIN
 10
0.0
 20
0.0
  9
$PLIMMAX
 10
12.0
 20
9.0
  9
$UNITMODE
 70
     0
  9
$VISRETAIN
 70
     1
  9
$PLINEGEN
 70
     0
  9
$PSLTSCALE
 70
     1
  9
$TREEDEPTH
 70
  3020
  9
$CMLSTYLE
  2
Standard
  9
$CMLJUST
 70
     0
  9
$CMLSCALE
 40
1.0
  9
$PROXYGRAPHICS
 70
     1
  9
$MEASUREMENT
 70
     1
  9
$CELWEIGHT
370
    -1
  9
$ENDCAPS
280
     0
  9
$JOINSTYLE
280
     0
  9
$LWDISPLAY
290
     0
  9
$INSUNITS
 70
     4
  9
$HYPERLINKBASE
  1

  9
$STYLESHEET
  1

  9
$XEDIT
290
     1
  9
$CEPSNTYPE
380
     0
  9
$PSTYLEMODE
290
     1
  9
$FINGERPRINTGUID
  2
{ea8a151e-6396-4a77-b71d-ed13183fe815}
  9
$VERSIONGUID
  2
{FAEB1C32-E019-11D5-929B-00C0DF256EC4}
  9
$EXTNAMES
290
     1
  9
$PSVPSCALE
 40
0.0
  9
$OLESTARTUP
290
     0
  9
$SORTENTS
280
   127
  9
$INDEXCTL
280
     0
  9
$HIDETEXT
280
     1
  9
$XCLIPFRAME
280
     2
  9
$HALOGAP
280
     0
  9
$OBSCOLOR
 70
   257
  9
$OBSLTYPE
280
     0
  9
$INTERSECTIONDISPLAY
280
     0
  9
$INTERSECTIONCOLOR
 70
   257
  9
$DIMASSOC
280
     2
  9
$PROJECTNAME
  1

  9
$CAMERADISPLAY
290
     0
  9
$LENSLENGTH
 40
50.0
  9
$CAMERAHEIGHT
 40
0.0
  9
$STEPSPERSEC
 40
2.0
  9
$STEPSIZE
 40
6.0
  9
$3DDWFPREC
 40
2.0
  9
$PSOLWIDTH
 40
0.25
  9
$PSOLHEIGHT
 40
4.0
  9
$LOFTANG1
 40
1.5707963267949
  9
$LOFTANG2
 40
1.5707963267949
  9
$LOFTMAG1
 40
0.0
  9
$LOFTMAG2
 40
0.0
  9
$LOFTPARAM
 70
     7
  9
$LOFTNORMALS
280
     1
  9
$LATITUDE
 40
37.795
  9
$LONGITUDE
 40
-122.394
  9
$NORTHDIRECTION
 40
0.0
  9
$TIMEZONE
 70
 -8000
  9
$LIGHTGLYPHDISPLAY
280
     1
  9
$TILEMODELIGHTSYNCH
280
     1
  9
$CMATERIAL
347
44
  9
$SOLIDHIST
280
     0
  9
$SHOWHIST
280
     1
  9
$DWFFRAME
280
     2
  9
$DGNFRAME
280
     2
  9
$REALWORLDSCALE
290
     1
  9
$INTERFERECOLOR
 62
   256
  9
$CSHADOW
280
     0
  9
$SHADOWPLANELOCATION
 40
0.0
  0
ENDSEC
  0
SECTION
  2
CLASSES
  0
CLASS
  1
ACDBDICTIONARYWDFLT
  2
AcDbDictionaryWithDefault
  3
ObjectDBX Classes
 90
        0
 91
        3
280
     0
281
     0
  0
CLASS
  1
VISUALSTYLE
  2
AcDbVisualStyle
  3
ObjectDBX Classes
 90
     4095
 91
        3
280
     0
281
     0
  0
CLASS
  1
MATERIAL
  2
AcDbMaterial
  3
ObjectDBX Classes
 90
     1153
 91
        3
280
     0
281
     0
  0
CLASS
  1
SCALE
  2
AcDbScale
  3
ObjectDBX Classes
 90
     1153
 91
        3
280
     0
281
     0
  0
CLASS
  1
TABLESTYLE
  2
AcDbTableStyle
  3
ObjectDBX Classes
 90
     4095
 91
        3
280
     0
281
     0
  0
CLASS
  1
MLEADERSTYLE
  2
AcDbMLeaderStyle
  3
ACDB_MLEADERSTYLE_CLASS
 90
     4095
 91
        3
280
     0
281
     0
  0
CLASS
  1
SUN
  2
AcDbSun
  3
SCENEOE
 90
     1153
 91
        3
280
     0
281
     0
  0
CLASS
  1
DICTIONARYVAR
  2
AcDbDictionaryVar
  3
ObjectDBX Classes
 90
        0
 91
        3
280
     0
281
     0
  0
CLASS
  1
CELLSTYLEMAP
  2
AcDbCellStyleMap
  3
ObjectDBX Classes
 90
     1152
 91
        3
280
     0
281
     0
  0
ENDSEC
  0
SECTION
  2
TABLES
  0
TABLE
  2
VPORT
  5
8
330
0
100
AcDbSymbolTable
 70
     1
  0
VPORT
  5
29
330
8
100
AcDbSymbolTableRecord
100
AcDbViewportTableRecord
  2
*Active
 70
     0
 10
0.0
 20
0.0
 11
1.0
 21
1.0
 12
136.5563932928652
 22
-283.307299039456
 13
0.0
 23
0.0
 14
0.5
 24
0.5
 15
0.5
 25
0.5
 16
0.0
 26
0.0
 36
1.0
 17
0.0
 27
0.0
 37
0.0
 40
148.3427428155464
 41
1.60267857142857
 42
50.0
 43
0.0
 44
0.0
 50
0.0
 51
0.0
 71
     0
 72
   100
 73
     1
 74
     3
 75
     0
 76
     0
 77
     0
 78
     0
281
     0
 65
     1
110
0.0
120
0.0
130
0.0
111
1.0
121
0.0
131
0.0
112
0.0
122
1.0
132
0.0
 79
     0
146
0.0
348
2F
 60
     3
 61
     5
292
     1
282
     1
141
0.0
142
0.0
 63
   250
361
6D
  0
ENDTAB
  0
TABLE
  2
LTYPE
  5
5
330
0
100
AcDbSymbolTable
 70
     8
  0
LTYPE
  5
14
330
5
100
AcDbSymbolTableRecord
100
AcDbLinetypeTableRecord
  2
ByBlock
 70
     0
  3

 72
    65
 73
     0
 40
0.0
  0
LTYPE
  5
15
330
5
100
AcDbSymbolTableRecord
100
AcDbLinetypeTableRecord
  2
ByLayer
 70
     0
  3

 72
    65
 73
     0
 40
0.0
  0
LTYPE
  5
16
330
5
100
AcDbSymbolTableRecord
100
AcDbLinetypeTableRecord
  2
Continuous
 70
     0
  3
Solid line
 72
    65
 73
     0
 40
0.0
  0
LTYPE
  5
6E
330
5
100
AcDbSymbolTableRecord
100
AcDbLinetypeTableRecord
  2
DASHED
 70
     0
  3
Dashed
 72
    65
 73
     2
 40
15.0
 49
7.0
 74
     0
 49
-8.0
 74
     0
  0
LTYPE
  5
6F
330
5
100
AcDbSymbolTableRecord
100
AcDbLinetypeTableRecord
  2
DOTTED
 70
     0
  3
Dotted
 72
    65
 73
     2
 40
1.0
 49
0.0
 74
     0
 49
-1.0
 74
     0
  0
LTYPE
  5
70
330
5
100
AcDbSymbolTableRecord
100
AcDbLinetypeTableRecord
  2
DOT_CENTER
 70
     0
  3
Dot_Center
 72
    65
 73
     4
 40
14.0
 49
12.0
 74
     0
 49
-1.0
 74
     0
 49
0.0
 74
     0
 49
-1.0
 74
     0
  0
LTYPE
  5
71
330
5
100
AcDbSymbolTableRecord
100
AcDbLinetypeTableRecord
  2
LONG_DASHED
 70
     0
  3
Long_Dashed
 72
    65
 73
     2
 40
15.0
 49
10.0
 74
     0
 49
-5.0
 74
     0
  0
LTYPE
  5
72
330
5
100
AcDbSymbolTableRecord
100
AcDbLinetypeTableRecord
  2
DASH_CENTER
 70
     0
  3
Dash_Center
 72
    65
 73
     4
 40
14.0
 49
11.0
 74
     0
 49
-1.0
 74
     0
 49
1.0
 74
     0
 49
-1.0
 74
     0
  0
LTYPE
  5
73
330
5
100
AcDbSymbolTableRecord
100
AcDbLinetypeTableRecord
  2
PHANTOM
 70
     0
  3
Phantom
 72
    65
 73
     6
 40
13.0
 49
10.0
 74
     0
 49
-1.0
 74
     0
 49
0.0
 74
     0
 49
-1.0
 74
     0
 49
0.0
 74
     0
 49
-1.0
 74
     0
  0
LTYPE
  5
74
330
5
100
AcDbSymbolTableRecord
100
AcDbLinetypeTableRecord
  2
CENTER_DASH_DASH
 70
     0
  3
Center_Dash_Dash
 72
    65
 73
     6
 40
14.0
 49
9.0
 74
     0
 49
-1.0
 74
     0
 49
1.0
 74
     0
 49
-1.0
 74
     0
 49
1.0
 74
     0
 49
-1.0
 74
     0
  0
ENDTAB
  0
TABLE
  2
LAYER
  5
2
330
0
100
AcDbSymbolTable
 70
     6
  0
LAYER
  5
10
330
2
100
AcDbSymbolTableRecord
100
AcDbLayerTableRecord
  2
0
 70
     0
 62
     7
  6
Continuous
370
    -3
390
F
347
46
  0
LAYER
  5
75
330
2
100
AcDbSymbolTableRecord
100
AcDbLayerTableRecord
  2
1
 70
     0
 62
     7
  6
Continuous
370
    -3
390
F
347
46
  0
LAYER
  5
76
330
2
100
AcDbSymbolTableRecord
100
AcDbLayerTableRecord
  2
2
 70
     0
 62
     7
  6
Continuous
370
    -3
390
F
347
46
  0
LAYER
  5
77
330
2
100
AcDbSymbolTableRecord
100
AcDbLayerTableRecord
  2
3
 70
     0
 62
     7
  6
Continuous
370
    -3
390
F
347
46
  0
LAYER
  5
78
330
2
100
AcDbSymbolTableRecord
100
AcDbLayerTableRecord
  2
4
 70
     0
 62
     7
  6
Continuous
370
    -3
390
F
347
46
  0
LAYER
  5
79
330
2
100
AcDbSymbolTableRecord
100
AcDbLayerTableRecord
  2
LAYER_2
 70
     0
 62
     7
  6
Continuous
370
    -3
390
F
347
46
  0
ENDTAB
  0
TABLE
  2
STYLE
  5
3
330
0
100
AcDbSymbolTable
 70
     2
  0
STYLE
  5
11
330
3
100
AcDbSymbolTableRecord
100
AcDbTextStyleTableRecord
  2
Standard
 70
     0
 40
0.0
 41
1.0
 50
0.0
 71
     0
 42
0.2
  3
txt
  4

  0
STYLE
  5
1A8
330
3
100
AcDbSymbolTableRecord
100
AcDbTextStyleTableRecord
  2
CONVERTER_11
 70
     0
 40
0.0
 41
0.9
 50
0.0
 71
     0
 42
0.2
  3
txt.shx
  4

  0
ENDTAB
  0
TABLE
  2
VIEW
  5
6
330
0
100
AcDbSymbolTable
 70
     0
  0
ENDTAB
  0
TABLE
  2
UCS
  5
7
330
0
100
AcDbSymbolTable
 70
     0
  0
ENDTAB
  0
TABLE
  2
APPID
  5
9
330
0
100
AcDbSymbolTable
 70
     1
  0
APPID
  5
12
330
9
100
AcDbSymbolTableRecord
100
AcDbRegAppTableRecord
  2
ACAD
 70
     0
  0
ENDTAB
  0
TABLE
  2
DIMSTYLE
  5
A
330
0
100
AcDbSymbolTable
 70
     6
100
AcDbDimStyleTable
  0
DIMSTYLE
105
27
330
A
100
AcDbSymbolTableRecord
100
AcDbDimStyleTableRecord
  2
Standard
 70
     0
178
     0
340
11
  0
DIMSTYLE
105
1BB
102
{ACAD_REACTORS
330
1BC
102
}
330
A
100
AcDbSymbolTableRecord
100
AcDbDimStyleTableRecord
  2
ME10_DIM_10
 70
     0
 41
3.0
 42
0.5
 44
1.5
 73
     0
 74
     0
 77
     1
 78
    12
140
3.0
147
1.0
172
     1
173
     1
174
     1
175
     1
176
     2
177
     2
271
     2
178
     3
271
     2
340
1A8
343
1B5
344
1B5
  0
DIMSTYLE
105
1C8
102
{ACAD_REACTORS
330
1C9
102
}
330
A
100
AcDbSymbolTableRecord
100
AcDbDimStyleTableRecord
  2
ME10_DIM_11
 70
     0
 41
3.0
 42
0.5
 44
1.5
 73
     0
 74
     0
 77
     1
 78
    12
140
3.0
147
1.0
172
     1
173
     1
174
     1
175
     1
176
     2
177
     2
271
     2
178
     3
271
     2
340
1A8
343
1B5
344
1B5
  0
DIMSTYLE
105
1D5
102
{ACAD_REACTORS
330
1D6
102
}
330
A
100
AcDbSymbolTableRecord
100
AcDbDimStyleTableRecord
  2
ME10_DIM_12
 70
     0
 41
3.0
 42
0.5
 44
1.5
 73
     0
 74
     0
 77
     1
 78
    12
140
3.0
147
1.0
172
     1
173
     1
174
     1
175
     1
176
     2
177
     2
271
     2
178
     3
271
     2
340
1A8
343
1B5
344
1B5
  0
DIMSTYLE
105
1E2
102
{ACAD_REACTORS
330
1E3
102
}
330
A
100
AcDbSymbolTableRecord
100
AcDbDimStyleTableRecord
  2
ME10_DIM_13
 70
     0
 41
3.0
 42
0.5
 44
1.5
 73
     0
 74
     0
 77
     1
 78
    12
140
3.0
147
1.0
172
     1
173
     1
174
     1
175
     1
176
     2
177
     2
271
     2
178
     3
271
     2
340
1A8
343
1B5
344
1B5
  0
DIMSTYLE
105
1EF
102
{ACAD_REACTORS
330
1F0
102
}
330
A
100
AcDbSymbolTableRecord
100
AcDbDimStyleTableRecord
  2
ME10_DIM_14
 70
     0
 41
3.0
 42
0.5
 44
1.5
 73
     0
 74
     0
 77
     1
 78
     8
140
3.0
147
1.0
172
     1
173
     1
174
     1
175
     1
176
     2
177
     2
271
     2
178
     3
271
     2
340
1A8
343
1B5
344
1B5
  0
ENDTAB
  0
TABLE
  2
BLOCK_RECORD
  5
1
330
0
100
AcDbSymbolTable
 70
     8
  0
BLOCK_RECORD
  5
1F
330
1
100
AcDbSymbolTableRecord
100
AcDbBlockTableRecord
  2
*Model_Space
340
22
 70
     0
280
     1
281
     0
  0
BLOCK_RECORD
  5
1B
330
1
100
AcDbSymbolTableRecord
100
AcDbBlockTableRecord
  2
*Paper_Space
340
1E
 70
     0
280
     1
281
     0
  0
BLOCK_RECORD
  5
23
330
1
100
AcDbSymbolTableRecord
100
AcDbBlockTableRecord
  2
*Paper_Space0
340
26
 70
     0
280
     1
281
     0
  0
BLOCK_RECORD
  5
7A
330
1
100
AcDbSymbolTableRecord
100
AcDbBlockTableRecord
  2
TOP__1
340
0
102
{BLKREFS
331
7D
102
}
 70
     0
280
     1
281
     0
  0
BLOCK_RECORD
  5
1AA
330
1
100
AcDbSymbolTableRecord
100
AcDbBlockTableRecord
  2
*D2
340
0
 70
     0
280
     1
281
     0
  0
BLOCK_RECORD
  5
1B5
330
1
100
AcDbSymbolTableRecord
100
AcDbBlockTableRecord
  2
_Open30
340
0
 70
     0
280
     1
281
     0
  0
BLOCK_RECORD
  5
1BD
330
1
100
AcDbSymbolTableRecord
100
AcDbBlockTableRecord
  2
*D4
340
0
 70
     0
280
     1
281
     0
  0
BLOCK_RECORD
  5
1CA
330
1
100
AcDbSymbolTableRecord
100
AcDbBlockTableRecord
  2
*D5
340
0
 70
     0
280
     1
281
     0
  0
BLOCK_RECORD
  5
1D7
330
1
100
AcDbSymbolTableRecord
100
AcDbBlockTableRecord
  2
*D6
340
0
 70
     0
280
     1
281
     0
  0
BLOCK_RECORD
  5
1E4
330
1
100
AcDbSymbolTableRecord
100
AcDbBlockTableRecord
  2
*D7
340
0
 70
     0
280
     1
281
     0
  0
ENDTAB
  0
ENDSEC
  0
SECTION
  2
BLOCKS
  0
BLOCK
  5
20
330
1F
100
AcDbEntity
  8
0
100
AcDbBlockBegin
  2
*Model_Space
 70
     0
 10
0.0
 20
0.0
 30
0.0
  3
*Model_Space
  1

  0
ENDBLK
  5
21
330
1F
100
AcDbEntity
  8
0
100
AcDbBlockEnd
  0
BLOCK
  5
1C
330
1B
100
AcDbEntity
 67
     1
  8
0
100
AcDbBlockBegin
  2
*Paper_Space
 70
     0
 10
0.0
 20
0.0
 30
0.0
  3
*Paper_Space
  1

  0
ENDBLK
  5
1D
330
1B
100
AcDbEntity
 67
     1
  8
0
100
AcDbBlockEnd
  0
BLOCK
  5
24
330
23
100
AcDbEntity
  8
0
100
AcDbBlockBegin
  2
*Paper_Space0
 70
     0
 10
0.0
 20
0.0
 30
0.0
  3
*Paper_Space0
  1

  0
ENDBLK
  5
25
330
23
100
AcDbEntity
  8
0
100
AcDbBlockEnd
  0
BLOCK
  5
7B
330
7A
100
AcDbEntity
  8
0
100
AcDbBlockBegin
  2
TOP__1
 70
     0
 10
-181.160325777999
 20
-1.66887924518937
 30
0.0
  3
TOP__1
  1

  0
LWPOLYLINE
  5
89
330
7A
100
AcDbEntity
  8
1
  6
Continuous
 62
     3
 60
     1
100
AcDbPolyline
 90
        4
 70
     0
 43
0.0
 10
5.07486273831
 20
-242.0476588220544
 10
10.17486273810602
 20
-242.0538914147904
 10
10.17486273810602
 20
-245.0476588219344
 10
2.57486273841002
 20
-245.0476588219344
  0
LWPOLYLINE
  5
8A
330
7A
100
AcDbEntity
  8
1
  6
Continuous
 62
     3
 60
     1
100
AcDbPolyline
 90
        4
 70
     0
 43
0.0
 10
5.07486273831
 20
-313.0476588192144
 10
5.072394190399
 20
-316.7976588190644
 10
1.47486273845402
 20
-316.7976588190644
 10
1.47486273845402
 20
-314.0976588191724
  0
LWPOLYLINE
  5
8B
330
7A
100
AcDbEntity
  8
1
  6
Continuous
 62
     2
 60
     1
100
AcDbPolyline
 90
        2
 70
     0
 43
0.0
 10
5.07486273831
 20
-337.5476588182334
 10
5.07486273831
 20
-335.0476588183334
  0
LWPOLYLINE
  5
8C
330
7A
100
AcDbEntity
  8
1
  6
Continuous
 62
     2
 60
     1
100
AcDbPolyline
 90
        3
 70
     0
 43
0.0
 10
1.47486273845402
 20
-326.5476588186734
 10
1.47486273845402
 20
-327.5476588186334
 10
-2.925137261369
 20
-327.5476588186334
  0
LWPOLYLINE
  5
8D
330
7A
100
AcDbEntity
  8
1
  6
Continuous
 62
     2
 60
     1
100
AcDbPolyline
 90
        2
 70
     0
 43
0.0
 10
1.47486273845402
 20
-314.2976588191644
 10
2.57486273841002
 20
-316.7976588190644
  0
LWPOLYLINE
  5
8E
330
7A
100
AcDbEntity
  8
1
  6
Continuous
 62
     2
 60
     1
100
AcDbPolyline
 90
        2
 70
     0
 43
0.0
 10
-2.025137261406
 20
-240.7976588221034
 10
2.57486273841002
 20
-238.2976588222034
  0
ENDBLK
  5
7C
330
7A
100
AcDbEntity
  8
0
100
AcDbBlockEnd
  0
BLOCK
  5
1B3
330
1AA
100
AcDbEntity
  8
0
100
AcDbBlockBegin
  2
*D2
 70
     1
 10
0.0
 20
0.0
 30
0.0
  3
*D2
  1

  0
LINE
  5
1AB
330
1AA
100
AcDbEntity
  8
1
  6
Continuous
 62
     2
100
AcDbLine
 10
160.037240149434
 20
-335.878779573044
 30
0.0
 11
160.037240149434
 21
-215.878779577844
 31
0.0
  0
LINE
  5
1AC
330
1AA
100
AcDbEntity
  8
1
  6
Continuous
 62
     2
100
AcDbLine
 10
130.777598066982
 20
-335.878779573044
 30
0.0
 11
161.537240149434
 21
-335.878779573044
 31
0.0
  0
LINE
  5
1AD
330
1AA
100
AcDbEntity
  8
1
  6
Continuous
 62
     2
100
AcDbLine
 10
130.777598066982
 20
-215.878779577844
 30
0.0
 11
161.537240149434
 21
-215.878779577844
 31
0.0
  0
LINE
  5
1AE
330
1AA
100
AcDbEntity
  8
1
 62
     2
100
AcDbLine
 10
160.037240149434
 20
-335.878779573044
 30
0.0
 11
159.2333925721406
 21
-332.878779573044
 31
0.0
  0
LINE
  5
1AF
330
1AA
100
AcDbEntity
  8
1
 62
     2
100
AcDbLine
 10
160.037240149434
 20
-335.878779573044
 30
0.0
 11
160.8410877267274
 21
-332.878779573044
 31
0.0
  0
LINE
  5
1B0
330
1AA
100
AcDbEntity
  8
1
 62
     2
100
AcDbLine
 10
160.037240149434
 20
-215.878779577844
 30
0.0
 11
160.8410877267274
 21
-218.878779577844
 31
0.0
  0
LINE
  5
1B1
330
1AA
100
AcDbEntity
  8
1
 62
     2
100
AcDbLine
 10
160.037240149434
 20
-215.878779577844
 30
0.0
 11
159.2333925721406
 21
-218.878779577844
 31
0.0
  0
MTEXT
  5
1B2
330
1AA
100
AcDbEntity
  8
1
 62
     3
100
AcDbMText
 10
159.037240149434
 20
-279.199779575444
 30
0.0
 40
3.0
 41
0.0
 46
0.0
 71
     7
 72
     1
  1
120
  7
CONVERTER_11
 11
0.0
 21
1.0
 31
0.0
 73
     1
 44
0.60024009603842
  0
ENDBLK
  5
1B4
330
1AA
100
AcDbEntity
  8
0
100
AcDbBlockEnd
  0
BLOCK
  5
1B6
330
1B5
100
AcDbEntity
  8
0
100
AcDbBlockBegin
  2
_Open30
 70
     0
 10
0.0
 20
0.0
 30
0.0
  3
_Open30
  1

  0
LINE
  5
1B8
330
1B5
100
AcDbEntity
  8
0
  6
ByBlock
 62
     0
370
    -2
100
AcDbLine
 10
-1.0
 20
0.267949
 30
0.0
 11
0.0
 21
0.0
 31
0.0
  0
LINE
  5
1B9
330
1B5
100
AcDbEntity
  8
0
  6
ByBlock
 62
     0
370
    -2
100
AcDbLine
 10
0.0
 20
0.0
 30
0.0
 11
-1.0
 21
-0.267949
 31
0.0
  0
LINE
  5
1BA
330
1B5
100
AcDbEntity
  8
0
  6
ByBlock
 62
     0
370
    -2
100
AcDbLine
 10
0.0
 20
0.0
 30
0.0
 11
-1.0
 21
0.0
 31
0.0
  0
ENDBLK
  5
1B7
330
1B5
100
AcDbEntity
  8
0
100
AcDbBlockEnd
  0
BLOCK
  5
1C6
330
1BD
100
AcDbEntity
  8
0
100
AcDbBlockBegin
  2
*D4
 70
     1
 10
0.0
 20
0.0
 30
0.0
  3
*D4
  1

  0
LINE
  5
1BE
330
1BD
100
AcDbEntity
  8
1
  6
Continuous
 62
     2
100
AcDbLine
 10
69.2775980694217
 20
-349.235818501068
 30
0.0
 11
139.2775980666222
 21
-349.235818501068
 31
0.0
  0
LINE
  5
1BF
330
1BD
100
AcDbEntity
  8
1
  6
Continuous
 62
     2
100
AcDbLine
 10
69.2775980694217
 20
-327.378779573404
 30
0.0
 11
69.2775980694217
 21
-350.735818501068
 31
0.0
  0
LINE
  5
1C0
330
1BD
100
AcDbEntity
  8
1
  6
Continuous
 62
     2
100
AcDbLine
 10
139.2775980666222
 20
-327.378779573404
 30
0.0
 11
139.2775980666222
 21
-350.735818501068
 31
0.0
  0
LINE
  5
1C1
330
1BD
100
AcDbEntity
  8
1
 62
     2
100
AcDbLine
 10
139.2775980666222
 20
-349.235818501068
 30
0.0
 11
136.2775980666222
 21
-350.0396660783614
 31
0.0
  0
LINE
  5
1C2
330
1BD
100
AcDbEntity
  8
1
 62
     2
100
AcDbLine
 10
139.2775980666222
 20
-349.235818501068
 30
0.0
 11
136.2775980666222
 21
-348.4319709237747
 31
0.0
  0
LINE
  5
1C3
330
1BD
100
AcDbEntity
  8
1
 62
     2
100
AcDbLine
 10
69.2775980694217
 20
-349.235818501068
 30
0.0
 11
72.2775980694217
 21
-348.4319709237747
 31
0.0
  0
LINE
  5
1C4
330
1BD
100
AcDbEntity
  8
1
 62
     2
100
AcDbLine
 10
69.2775980694217
 20
-349.235818501068
 30
0.0
 11
72.2775980694217
 21
-350.0396660783614
 31
0.0
  0
MTEXT
  5
1C5
330
1BD
100
AcDbEntity
  8
1
 62
     3
100
AcDbMText
 10
102.0636017041311
 20
-348.2358238679511
 30
0.0
 40
3.0
 41
0.0
 46
0.0
 71
     7
 72
     1
  1
70
  7
CONVERTER_11
 11
0.9999999999882478
 21
4.848136811095759E-6
 31
0.0
 73
     1
 44
0.60024009603842
  0
ENDBLK
  5
1C7
330
1BD
100
AcDbEntity
  8
0
100
AcDbBlockEnd
  0
BLOCK
  5
1D3
330
1CA
100
AcDbEntity
  8
0
100
AcDbBlockBegin
  2
*D5
 70
     1
 10
0.0
 20
0.0
 30
0.0
  3
*D5
  1

  0
LINE
  5
1CB
330
1CA
100
AcDbEntity
  8
1
  6
Continuous
 62
     2
100
AcDbLine
 10
171.235188516669
 20
-348.316807055236
 30
0.0
 11
192.235188516309
 21
-348.316807055236
 31
0.0
  0
LINE
  5
1CC
330
1CA
100
AcDbEntity
  8
1
  6
Continuous
 62
     2
100
AcDbLine
 10
177.235188516669
 20
-325.72877957347
 30
0.0
 11
177.235188516669
 21
-349.816807055236
 31
0.0
  0
LINE
  5
1CD
330
1CA
100
AcDbEntity
  8
1
  6
Continuous
 62
     2
100
AcDbLine
 10
186.235188516309
 20
-336.378779573044
 30
0.0
 11
186.235188516309
 21
-349.816807055236
 31
0.0
  0
LINE
  5
1CE
330
1CA
100
AcDbEntity
  8
1
 62
     2
100
AcDbLine
 10
186.235188516309
 20
-348.316807055236
 30
0.0
 11
189.235188516309
 21
-347.5129594779426
 31
0.0
  0
LINE
  5
1CF
330
1CA
100
AcDbEntity
  8
1
 62
     2
100
AcDbLine
 10
186.235188516309
 20
-348.316807055236
 30
0.0
 11
189.235188516309
 21
-349.1206546325294
 31
0.0
  0
LINE
  5
1D0
330
1CA
100
AcDbEntity
  8
1
 62
     2
100
AcDbLine
 10
177.235188516669
 20
-348.316807055236
 30
0.0
 11
174.235188516669
 21
-349.1206546325294
 31
0.0
  0
LINE
  5
1D1
330
1CA
100
AcDbEntity
  8
1
 62
     2
100
AcDbLine
 10
177.235188516669
 20
-348.316807055236
 30
0.0
 11
174.235188516669
 21
-347.5129594779426
 31
0.0
  0
MTEXT
  5
1D2
330
1CA
100
AcDbEntity
  8
1
 62
     3
100
AcDbMText
 10
180.6281921525949
 20
-347.3168097386753
 30
0.0
 40
3.0
 41
0.0
 46
0.0
 71
     7
 72
     1
  1
9
  7
CONVERTER_11
 11
0.9999999999882478
 21
4.848136811095759E-6
 31
0.0
 73
     1
 44
0.60024009603842
  0
ENDBLK
  5
1D4
330
1CA
100
AcDbEntity
  8
0
100
AcDbBlockEnd
  0
BLOCK
  5
1E0
330
1D7
100
AcDbEntity
  8
0
100
AcDbBlockBegin
  2
*D6
 70
     1
 10
0.0
 20
0.0
 30
0.0
  3
*D6
  1

  0
LINE
  5
1D8
330
1D7
100
AcDbEntity
  8
1
  6
Continuous
 62
     2
100
AcDbLine
 10
186.235188516309
 20
-348.316807055236
 30
0.0
 11
203.835188516309
 21
-348.316807055236
 31
0.0
  0
LINE
  5
1D9
330
1D7
100
AcDbEntity
  8
1
  6
Continuous
 62
     2
100
AcDbLine
 10
186.235188516309
 20
-336.378779573044
 30
0.0
 11
186.235188516309
 21
-349.816807055236
 31
0.0
  0
LINE
  5
1DA
330
1D7
100
AcDbEntity
  8
1
  6
Continuous
 62
     2
100
AcDbLine
 10
203.835188516309
 20
-270.828779577845
 30
0.0
 11
203.835188516309
 21
-349.816807055236
 31
0.0
  0
LINE
  5
1DB
330
1D7
100
AcDbEntity
  8
1
 62
     2
100
AcDbLine
 10
203.835188516309
 20
-348.316807055236
 30
0.0
 11
200.835188516309
 21
-349.1206546325294
 31
0.0
  0
LINE
  5
1DC
330
1D7
100
AcDbEntity
  8
1
 62
     2
100
AcDbLine
 10
203.835188516309
 20
-348.316807055236
 30
0.0
 11
200.835188516309
 21
-347.5129594779426
 31
0.0
  0
LINE
  5
1DD
330
1D7
100
AcDbEntity
  8
1
 62
     2
100
AcDbLine
 10
186.235188516309
 20
-348.316807055236
 30
0.0
 11
189.235188516309
 21
-347.5129594779426
 31
0.0
  0
LINE
  5
1DE
330
1D7
100
AcDbEntity
  8
1
 62
     2
100
AcDbLine
 10
186.235188516309
 20
-348.316807055236
 30
0.0
 11
189.235188516309
 21
-349.1206546325294
 31
0.0
  0
MTEXT
  5
1DF
330
1D7
100
AcDbEntity
  8
1
 62
     3
100
AcDbMText
 10
190.6071921524246
 20
-347.3168177890064
 30
0.0
 40
3.0
 41
0.0
 46
0.0
 71
     7
 72
     1
  1
17.6
  7
CONVERTER_11
 11
0.9999999999882478
 21
4.848136811095759E-6
 31
0.0
 73
     1
 44
0.60024009603842
  0
ENDBLK
  5
1E1
330
1D7
100
AcDbEntity
  8
0
100
AcDbBlockEnd
  0
BLOCK
  5
1ED
330
1E4
100
AcDbEntity
  8
0
100
AcDbBlockBegin
  2
*D7
 70
     1
 10
0.0
 20
0.0
 30
0.0
  3
*D7
  1

  0
LINE
  5
1E5
330
1E4
100
AcDbEntity
  8
1
  6
Continuous
 62
     2
100
AcDbLine
 10
150.900231173809
 20
-277.378779577844
 30
0.0
 11
150.900231173809
 21
-215.878779577844
 31
0.0
  0
LINE
  5
1E6
330
1E4
100
AcDbEntity
  8
1
  6
Continuous
 62
     2
100
AcDbLine
 10
114.221875368075
 20
-277.378779577844
 30
0.0
 11
152.400231173809
 21
-277.378779577844
 31
0.0
  0
LINE
  5
1E7
330
1E4
100
AcDbEntity
  8
1
  6
Continuous
 62
     2
100
AcDbLine
 10
130.777598066982
 20
-215.878779577844
 30
0.0
 11
152.400231173809
 21
-215.878779577844
 31
0.0
  0
LINE
  5
1E8
330
1E4
100
AcDbEntity
  8
1
 62
     2
100
AcDbLine
 10
150.900231173809
 20
-277.378779577844
 30
0.0
 11
150.0963835965156
 21
-274.378779577844
 31
0.0
  0
LINE
  5
1E9
330
1E4
100
AcDbEntity
  8
1
 62
     2
100
AcDbLine
 10
150.900231173809
 20
-277.378779577844
 30
0.0
 11
151.7040787511024
 21
-274.378779577844
 31
0.0
  0
LINE
  5
1EA
330
1E4
100
AcDbEntity
  8
1
 62
     2
100
AcDbLine
 10
150.900231173809
 20
-215.878779577844
 30
0.0
 11
151.7040787511024
 21
-218.878779577844
 31
0.0
  0
LINE
  5
1EB
330
1E4
100
AcDbEntity
  8
1
 62
     2
100
AcDbLine
 10
150.900231173809
 20
-215.878779577844
 30
0.0
 11
150.0963835965156
 21
-218.878779577844
 31
0.0
  0
MTEXT
  5
1EC
330
1E4
100
AcDbEntity
  8
1
 62
     3
100
AcDbMText
 10
149.900231173809
 20
-250.266279577844
 30
0.0
 40
3.0
 41
0.0
 46
0.0
 71
     7
 72
     1
  1
61.5
  7
CONVERTER_11
 11
0.0
 21
1.0
 31
0.0
 73
     1
 44
0.60024009603842
  0
ENDBLK
  5
1EE
330
1E4
100
AcDbEntity
  8
0
100
AcDbBlockEnd
  0
ENDSEC
  0
SECTION
  2
ENTITIES
  0
INSERT
  5
7D
330
1F
100
AcDbEntity
  8
0
100
AcDbBlockReference
  2
TOP__1
 10
-181.160325777999
 20
-1.66887924518937
 30
0.0
  0
POINT
  5
8F
330
1F
100
AcDbEntity
  8
1
 62
     2
100
AcDbPoint
 10
130.277598066982
 20
-215.878779577844
 30
0.0
  0
POINT
  5
90
330
1F
100
AcDbEntity
  8
1
 62
     2
100
AcDbPoint
 10
130.277598066982
 20
-335.878779573044
 30
0.0
  0
POINT
  5
91
330
1F
100
AcDbEntity
  8
1
 62
     2
100
AcDbPoint
 10
69.2775980694215
 20
-326.878779573404
 30
0.0
  0
POINT
  5
92
330
1F
100
AcDbEntity
  8
1
 62
     2
100
AcDbPoint
 10
139.277598066622
 20
-326.878779573404
 30
0.0
  0
POINT
  5
93
330
1F
100
AcDbEntity
  8
1
 62
     2
100
AcDbPoint
 10
177.235188516669
 20
-325.22877957347
 30
0.0
  0
POINT
  5
94
330
1F
100
AcDbEntity
  8
1
 62
     2
100
AcDbPoint
 10
186.235188516309
 20
-335.878779573044
 30
0.0
  0
POINT
  5
95
330
1F
100
AcDbEntity
  8
1
 62
     2
100
AcDbPoint
 10
186.235188516309
 20
-335.878779573044
 30
0.0
  0
POINT
  5
96
330
1F
100
AcDbEntity
  8
1
 62
     2
100
AcDbPoint
 10
203.835188516309
 20
-270.328779577845
 30
0.0
  0
LINE
  5
BF
330
1F
100
AcDbEntity
  8
1
  6
Continuous
 62
     2
100
AcDbLine
 10
187.835188516245
 20
-243.878779576724
 30
0.0
 11
186.235188516309
 21
-243.878779576724
 31
0.0
  0
LINE
  5
C0
330
1F
100
AcDbEntity
  8
1
  6
Continuous
 62
     2
100
AcDbLine
 10
187.835188516245
 20
-253.878779576324
 30
0.0
 11
187.835188516245
 21
-243.878779576724
 31
0.0
  0
LINE
  5
C1
330
1F
100
AcDbEntity
  8
2
  6
Continuous
 62
     2
100
AcDbLine
 10
124.777598067202
 20
-325.878779573444
 30
0.0
 11
83.7775980688416
 21
-325.878779573444
 31
0.0
  0
LINE
  5
C2
330
1F
100
AcDbEntity
  8
2
  6
Continuous
 62
     2
100
AcDbLine
 10
81.2775980689415
 20
-323.378779573544
 30
0.0
 11
81.2775980689415
 21
-228.378779577344
 31
0.0
  0
LINE
  5
C3
330
1F
100
AcDbEntity
  8
2
  6
Continuous
 62
     2
100
AcDbLine
 10
83.7775980688416
 20
-225.878779577444
 30
0.0
 11
124.777598067202
 21
-225.878779577444
 31
0.0
  0
LINE
  5
C4
330
1F
100
AcDbEntity
  8
2
  6
Continuous
 62
     2
100
AcDbLine
 10
127.277598067102
 20
-228.378779577344
 30
0.0
 11
127.277598067102
 21
-323.378779573544
 31
0.0
  0
LINE
  5
C5
330
1F
100
AcDbEntity
  8
2
  6
Continuous
 62
     2
100
AcDbLine
 10
78.2775980690616
 20
-215.878779577844
 30
0.0
 11
130.277598066982
 21
-215.878779577844
 31
0.0
  0
LINE
  5
C6
330
1F
100
AcDbEntity
  8
2
  6
Continuous
 62
     2
100
AcDbLine
 10
69.2775980694215
 20
-326.878779573404
 30
0.0
 11
69.2775980694216
 21
-224.878779577484
 31
0.0
  0
LINE
  5
C7
330
1F
100
AcDbEntity
  8
2
  6
Continuous
 62
     2
100
AcDbLine
 10
130.277598066982
 20
-335.878779573044
 30
0.0
 11
78.2775980690616
 21
-335.878779573044
 31
0.0
  0
LINE
  5
C8
330
1F
100
AcDbEntity
  8
2
  6
Continuous
 62
     2
100
AcDbLine
 10
139.277598066622
 20
-224.878779577484
 30
0.0
 11
139.277598066622
 21
-326.878779573404
 31
0.0
  0
LINE
  5
C9
330
1F
100
AcDbEntity
  8
1
  6
Continuous
 62
     2
100
AcDbLine
 10
186.235188516309
 20
-215.878779577845
 30
0.0
 11
183.235188516429
 21
-215.878779577845
 31
0.0
  0
LINE
  5
CA
330
1F
100
AcDbEntity
  8
1
  6
Continuous
 62
     2
100
AcDbLine
 10
178.23518851663
 20
-325.72877957345
 30
0.0
 11
178.23518851663
 21
-325.878779573444
 31
0.0
  0
LINE
  5
CB
330
1F
100
AcDbEntity
  8
1
  6
Continuous
 62
     2
100
AcDbLine
 10
193.802726197139
 20
-269.528779575698
 30
0.0
 11
193.835188516006
 21
-269.528779575698
 31
0.0
  0
LINE
  5
CC
330
1F
100
AcDbEntity
  8
3
  6
Continuous
 62
     2
100
AcDbLine
 10
178.23518851663
 20
-226.028779577438
 30
0.0
 11
177.735188516649
 21
-226.028779577438
 31
0.0
  0
LINE
  5
CD
330
1F
100
AcDbEntity
  8
3
  6
Continuous
 62
     2
100
AcDbLine
 10
177.235188516669
 20
-226.528779577418
 30
0.0
 11
177.735188516649
 21
-226.028779577438
 31
0.0
  0
LINE
  5
CE
330
1F
100
AcDbEntity
  8
3
  6
Continuous
 62
     2
100
AcDbLine
 10
177.235188516669
 20
-226.528779577418
 30
0.0
 11
177.235188516669
 21
-325.22877957347
 31
0.0
  0
LINE
  5
CF
330
1F
100
AcDbEntity
  8
3
  6
Continuous
 62
     2
100
AcDbLine
 10
177.735188516649
 20
-325.72877957345
 30
0.0
 11
178.23518851663
 21
-325.72877957345
 31
0.0
  0
LINE
  5
D0
330
1F
100
AcDbEntity
  8
3
  6
Continuous
 62
     2
100
AcDbLine
 10
177.735188516649
 20
-325.72877957345
 30
0.0
 11
177.235188516669
 21
-325.22877957347
 31
0.0
  0
LINE
  5
D1
330
1F
100
AcDbEntity
  8
3
  6
Continuous
 62
     2
100
AcDbLine
 10
83.7775980688416
 20
-226.528779577418
 30
0.0
 11
124.777598067202
 21
-226.528779577418
 31
0.0
  0
LINE
  5
D2
330
1F
100
AcDbEntity
  8
3
  6
Continuous
 62
     2
100
AcDbLine
 10
126.627598067128
 20
-228.378779577344
 30
0.0
 11
126.627598067128
 21
-323.378779573544
 31
0.0
  0
LINE
  5
D3
330
1F
100
AcDbEntity
  8
3
  6
Continuous
 62
     2
100
AcDbLine
 10
124.777598067202
 20
-325.22877957347
 30
0.0
 11
83.7775980688416
 21
-325.22877957347
 31
0.0
  0
LINE
  5
D4
330
1F
100
AcDbEntity
  8
3
  6
Continuous
 62
     2
100
AcDbLine
 10
81.9275980689157
 20
-323.378779573544
 30
0.0
 11
81.9275980689157
 21
-228.378779577344
 31
0.0
  0
LINE
  5
D5
330
1F
100
AcDbEntity
  8
1
  6
Continuous
 62
     2
100
AcDbLine
 10
186.235188516309
 20
-215.878779577845
 30
0.0
 11
186.235188516309
 21
-335.878779573044
 31
0.0
  0
LINE
  5
D6
330
1F
100
AcDbEntity
  8
1
  6
Continuous
 62
     2
100
AcDbLine
 10
186.235188516309
 20
-297.878779574564
 30
0.0
 11
193.335188516026
 21
-297.878779574564
 31
0.0
  0
LINE
  5
D7
330
1F
100
AcDbEntity
  8
1
  6
Continuous
 62
     2
100
AcDbLine
 10
186.235188516309
 20
-253.878779576324
 30
0.0
 11
193.335188516026
 21
-253.878779576324
 31
0.0
  0
LINE
  5
D8
330
1F
100
AcDbEntity
  8
1
  6
Continuous
 62
     2
100
AcDbLine
 10
183.235188516429
 20
-215.878779577845
 30
0.0
 11
183.235188516429
 21
-335.878779573044
 31
0.0
  0
LINE
  5
D9
330
1F
100
AcDbEntity
  8
1
  6
Continuous
 62
     2
100
AcDbLine
 10
178.23518851663
 20
-225.878779577445
 30
0.0
 11
178.23518851663
 21
-325.878779573444
 31
0.0
  0
LINE
  5
DA
330
1F
100
AcDbEntity
  8
1
  6
Continuous
 62
     2
100
AcDbLine
 10
183.235188516429
 20
-335.878779573044
 30
0.0
 11
186.235188516309
 21
-335.878779573044
 31
0.0
  0
LINE
  5
DB
330
1F
100
AcDbEntity
  8
1
  6
Continuous
 62
     2
100
AcDbLine
 10
189.335188516185
 20
-255.878779576244
 30
0.0
 11
193.335188516026
 21
-255.878779576244
 31
0.0
  0
LINE
  5
DC
330
1F
100
AcDbEntity
  8
1
  6
Continuous
 62
     2
100
AcDbLine
 10
189.335188516185
 20
-258.878779576124
 30
0.0
 11
193.335188516026
 21
-258.878779576124
 31
0.0
  0
LINE
  5
DD
330
1F
100
AcDbEntity
  8
1
  6
Continuous
 62
     2
100
AcDbLine
 10
189.335188516185
 20
-255.878779576244
 30
0.0
 11
189.335188516185
 21
-258.878779576124
 31
0.0
  0
LINE
  5
DE
330
1F
100
AcDbEntity
  8
1
  6
Continuous
 62
     2
100
AcDbLine
 10
189.335188516185
 20
-292.878779574765
 30
0.0
 11
193.335188516026
 21
-292.878779574765
 31
0.0
  0
LINE
  5
DF
330
1F
100
AcDbEntity
  8
1
  6
Continuous
 62
     2
100
AcDbLine
 10
189.335188516185
 20
-295.878779574645
 30
0.0
 11
193.335188516026
 21
-295.878779574645
 31
0.0
  0
LINE
  5
E0
330
1F
100
AcDbEntity
  8
1
  6
Continuous
 62
     2
100
AcDbLine
 10
189.335188516185
 20
-292.878779574765
 30
0.0
 11
189.335188516185
 21
-295.878779574645
 31
0.0
  0
LINE
  5
E1
330
1F
100
AcDbEntity
  8
1
  6
Continuous
 62
     2
100
AcDbLine
 10
193.335188516026
 20
-297.878779574564
 30
0.0
 11
193.335188516026
 21
-253.878779576324
 31
0.0
  0
LINE
  5
E2
330
1F
100
AcDbEntity
  8
1
  6
Continuous
 62
     2
100
AcDbLine
 10
187.835188516245
 20
-297.878779574564
 30
0.0
 11
187.835188516245
 21
-307.878779574504
 31
0.0
  0
LINE
  5
E3
330
1F
100
AcDbEntity
  8
1
  6
Continuous
 62
     2
100
AcDbLine
 10
187.835188516245
 20
-307.878779574504
 30
0.0
 11
186.235188516309
 21
-307.878779574504
 31
0.0
  0
LINE
  5
E4
330
1F
100
AcDbEntity
  8
4
  6
Continuous
 62
     2
100
AcDbLine
 10
96.5275980666215
 20
-269.628779577844
 30
0.0
 11
112.027598066621
 21
-269.628779577844
 31
0.0
  0
LINE
  5
E5
330
1F
100
AcDbEntity
  8
4
  6
Continuous
 62
     2
100
AcDbLine
 10
112.027598066621
 20
-269.628779577844
 30
0.0
 11
112.027598066621
 21
-285.128779577844
 31
0.0
  0
LINE
  5
E6
330
1F
100
AcDbEntity
  8
4
  6
Continuous
 62
     2
100
AcDbLine
 10
112.027598066621
 20
-285.128779577844
 30
0.0
 11
96.5275980666215
 21
-285.128779577844
 31
0.0
  0
LINE
  5
E7
330
1F
100
AcDbEntity
  8
4
  6
Continuous
 62
     2
100
AcDbLine
 10
96.5275980666215
 20
-285.128779577844
 30
0.0
 11
96.5275980666215
 21
-269.628779577844
 31
0.0
  0
LINE
  5
E8
330
1F
100
AcDbEntity
  8
4
  6
Continuous
 62
     2
100
AcDbLine
 10
98.0275980666215
 20
-271.128779577844
 30
0.0
 11
110.527598066621
 21
-271.128779577844
 31
0.0
  0
LINE
  5
E9
330
1F
100
AcDbEntity
  8
4
  6
Continuous
 62
     2
100
AcDbLine
 10
110.527598066621
 20
-271.128779577844
 30
0.0
 11
110.527598066621
 21
-283.628779577844
 31
0.0
  0
LINE
  5
EA
330
1F
100
AcDbEntity
  8
4
  6
Continuous
 62
     2
100
AcDbLine
 10
110.527598066621
 20
-283.628779577844
 30
0.0
 11
98.0275980666215
 21
-283.628779577844
 31
0.0
  0
LINE
  5
EB
330
1F
100
AcDbEntity
  8
4
  6
Continuous
 62
     2
100
AcDbLine
 10
98.0275980666215
 20
-283.628779577844
 30
0.0
 11
98.0275980666215
 21
-271.128779577844
 31
0.0
  0
LINE
  5
EC
330
1F
100
AcDbEntity
  8
4
  6
Continuous
 62
     2
100
AcDbLine
 10
102.777598066621
 20
-272.628779577844
 30
0.0
 11
105.777598066621
 21
-272.628779577844
 31
0.0
  0
LINE
  5
ED
330
1F
100
AcDbEntity
  8
4
  6
Continuous
 62
     2
100
AcDbLine
 10
105.777598066621
 20
-272.628779577844
 30
0.0
 11
105.777598066621
 21
-274.128779577844
 31
0.0
  0
LINE
  5
EE
330
1F
100
AcDbEntity
  8
4
  6
Continuous
 62
     2
100
AcDbLine
 10
105.777598066621
 20
-274.128779577844
 30
0.0
 11
102.777598066621
 21
-274.128779577844
 31
0.0
  0
LINE
  5
EF
330
1F
100
AcDbEntity
  8
4
  6
Continuous
 62
     2
100
AcDbLine
 10
102.777598066621
 20
-274.128779577844
 30
0.0
 11
102.777598066621
 21
-272.628779577844
 31
0.0
  0
LINE
  5
F0
330
1F
100
AcDbEntity
  8
4
  6
Continuous
 62
     2
100
AcDbLine
 10
176.235188516669
 20
-283.578779577845
 30
0.0
 11
176.735188516669
 21
-283.578779577845
 31
0.0
  0
LINE
  5
F1
330
1F
100
AcDbEntity
  8
4
  6
Continuous
 62
     2
100
AcDbLine
 10
176.235188516669
 20
-270.978779577844
 30
0.0
 11
176.235188516669
 21
-283.578779577845
 31
0.0
  0
LINE
  5
F2
330
1F
100
AcDbEntity
  8
4
  6
Continuous
 62
     2
100
AcDbLine
 10
176.735188516669
 20
-269.528779577845
 30
0.0
 11
176.735188516669
 21
-285.028779577845
 31
0.0
  0
LINE
  5
F3
330
1F
100
AcDbEntity
  8
4
  6
Continuous
 62
     2
100
AcDbLine
 10
176.735188516669
 20
-270.978779577844
 30
0.0
 11
176.235188516669
 21
-270.978779577844
 31
0.0
  0
LINE
  5
F4
330
1F
100
AcDbEntity
  8
4
  6
Continuous
 62
     2
100
AcDbLine
 10
177.235188516669
 20
-269.528779577845
 30
0.0
 11
176.735188516669
 21
-269.528779577845
 31
0.0
  0
LINE
  5
F5
330
1F
100
AcDbEntity
  8
4
  6
Continuous
 62
     2
100
AcDbLine
 10
176.835188516669
 20
-285.028779577845
 30
0.0
 11
177.235188516669
 21
-285.028779577845
 31
0.0
  0
LINE
  5
F6
330
1F
100
AcDbEntity
  8
4
  6
Continuous
 62
     2
100
AcDbLine
 10
203.835188516309
 20
-253.968779577845
 30
0.0
 11
203.835188516309
 21
-270.328779577845
 31
0.0
  0
LINE
  5
F7
330
1F
100
AcDbEntity
  8
4
  6
Continuous
 62
     2
100
AcDbLine
 10
193.335188516026
 20
-253.968779577845
 30
0.0
 11
203.835188516309
 21
-253.968779577845
 31
0.0
  0
LINE
  5
F8
330
1F
100
AcDbEntity
  8
4
  6
Continuous
 62
     2
100
AcDbLine
 10
200.655188516309
 20
-255.673779577845
 30
0.0
 11
199.385188516309
 21
-255.673779577845
 31
0.0
  0
LINE
  5
F9
330
1F
100
AcDbEntity
  8
4
  6
Continuous
 62
     2
100
AcDbLine
 10
200.655188516309
 20
-268.623779577845
 30
0.0
 11
200.655188516309
 21
-255.673779577845
 31
0.0
  0
LINE
  5
FA
330
1F
100
AcDbEntity
  8
4
  6
Continuous
 62
     2
100
AcDbLine
 10
199.385188516309
 20
-268.623779577845
 30
0.0
 11
200.655188516309
 21
-268.623779577845
 31
0.0
  0
LINE
  5
FB
330
1F
100
AcDbEntity
  8
4
  6
Continuous
 62
     2
100
AcDbLine
 10
199.385188516309
 20
-255.673779577845
 30
0.0
 11
199.385188516309
 21
-268.623779577845
 31
0.0
  0
LINE
  5
FC
330
1F
100
AcDbEntity
  8
4
  6
Continuous
 62
     2
100
AcDbLine
 10
203.835188516309
 20
-270.328779577845
 30
0.0
 11
193.335188516026
 21
-270.328779577845
 31
0.0
  0
LINE
  5
FD
330
1F
100
AcDbEntity
  8
1
  6
DOT_CENTER
 62
     2
100
AcDbLine
 10
104.277598068022
 20
-267.667056133664
 30
0.0
 11
104.277598068022
 21
-286.667056133664
 31
0.0
  0
LINE
  5
FE
330
1F
100
AcDbEntity
  8
1
  6
DOT_CENTER
 62
     2
100
AcDbLine
 10
94.7218753680753
 20
-277.378779577844
 30
0.0
 11
113.721875368075
 21
-277.378779577844
 31
0.0
  0
ARC
  5
FF
330
1F
100
AcDbEntity
  8
2
  6
Continuous
 62
     2
100
AcDbCircle
 10
130.277598066982
 20
-224.878779577484
 30
0.0
 40
8.99999999964001
100
AcDbArc
 50
0.0
 51
90.0
  0
ARC
  5
100
330
1F
100
AcDbEntity
  8
2
  6
Continuous
 62
     2
100
AcDbCircle
 10
130.277598066982
 20
-326.878779573404
 30
0.0
 40
8.99999999964001
100
AcDbArc
 50
270.0
 51
0.0
  0
ARC
  5
101
330
1F
100
AcDbEntity
  8
2
  6
Continuous
 62
     2
100
AcDbCircle
 10
78.2775980690616
 20
-326.878779573404
 30
0.0
 40
8.999999999640096
100
AcDbArc
 50
180.0
 51
270.0
  0
ARC
  5
102
330
1F
100
AcDbEntity
  8
2
  6
Continuous
 62
     2
100
AcDbCircle
 10
83.7775980688416
 20
-228.378779577344
 30
0.0
 40
2.499999999900012
100
AcDbArc
 50
90.0
 51
180.0
  0
ARC
  5
103
330
1F
100
AcDbEntity
  8
2
  6
Continuous
 62
     2
100
AcDbCircle
 10
124.777598067202
 20
-228.378779577344
 30
0.0
 40
2.499999999899998
100
AcDbArc
 50
0.0
 51
90.0
  0
ARC
  5
104
330
1F
100
AcDbEntity
  8
2
  6
Continuous
 62
     2
100
AcDbCircle
 10
124.777598067202
 20
-323.378779573544
 30
0.0
 40
2.499999999899956
100
AcDbArc
 50
270.0
 51
0.0
  0
ARC
  5
105
330
1F
100
AcDbEntity
  8
2
  6
Continuous
 62
     2
100
AcDbCircle
 10
83.7775980688416
 20
-323.378779573544
 30
0.0
 40
2.499999999900098
100
AcDbArc
 50
180.0
 51
270.0
  0
ARC
  5
106
330
1F
100
AcDbEntity
  8
3
  6
Continuous
 62
     2
100
AcDbCircle
 10
124.777598067202
 20
-228.378779577344
 30
0.0
 40
1.849999999925998
100
AcDbArc
 50
0.0
 51
90.0
  0
ARC
  5
107
330
1F
100
AcDbEntity
  8
3
  6
Continuous
 62
     2
100
AcDbCircle
 10
124.777598067202
 20
-323.378779573544
 30
0.0
 40
1.849999999925956
100
AcDbArc
 50
270.0
 51
0.0
  0
ARC
  5
108
330
1F
100
AcDbEntity
  8
3
  6
Continuous
 62
     2
100
AcDbCircle
 10
83.7775980688416
 20
-323.378779573544
 30
0.0
 40
1.849999999925899
100
AcDbArc
 50
180.0
 51
270.0
  0
ARC
  5
109
330
1F
100
AcDbEntity
  8
3
  6
Continuous
 62
     2
100
AcDbCircle
 10
83.7775980688416
 20
-228.378779577344
 30
0.0
 40
1.849999999926013
100
AcDbArc
 50
90.0
 51
180.0
  0
ARC
  5
10A
330
1F
100
AcDbEntity
  8
2
  6
Continuous
 62
     2
100
AcDbCircle
 10
78.2775980690615
 20
-224.878779577485
 30
0.0
 40
8.999999999641005
100
AcDbArc
 50
89.99999999999936
 51
179.9999999999937
  0
ARC
  5
10B
330
1F
100
AcDbEntity
  8
1
  6
Continuous
 62
     2
100
AcDbCircle
 10
207.098041168403
 20
-317.697353247308
 30
0.0
 40
29.99999999879919
100
AcDbArc
 50
195.8258422565363
 51
217.3042600976168
  0
ARC
  5
10C
330
1F
100
AcDbEntity
  8
1
  6
Continuous
 62
     2
100
AcDbCircle
 10
207.098041168403
 20
-234.060205903581
 30
0.0
 40
29.99999999879982
100
AcDbArc
 50
142.6957399023832
 51
164.1741577434637
  0
ARC
  5
10D
102
{ACAD_REACTORS
330
1F1
102
}
330
1F
100
AcDbEntity
  8
LAYER_2
  6
Continuous
 62
     2
100
AcDbCircle
 10
108.186446635461
 20
-317.321589025191
 30
0.0
 40
0.2405745728950325
100
AcDbArc
 50
13.62612679825478
 51
39.71189079801339
  0
ARC
  5
10E
102
{ACAD_REACTORS
330
1F1
102
}
330
1F
100
AcDbEntity
  8
LAYER_2
  6
Continuous
 62
     2
100
AcDbCircle
 10
108.123297426086
 20
-317.340099171411
 30
0.0
 40
0.3063228919285292
100
AcDbArc
 50
0.80480689283253
 51
14.20824089281042
  0
ARC
  5
10F
102
{ACAD_REACTORS
330
1F1
102
}
330
1F
100
AcDbEntity
  8
LAYER_2
  6
Continuous
 62
     2
100
AcDbCircle
 10
108.029041649435
 20
-317.344240730471
 30
0.0
 40
0.4006374480857721
100
AcDbArc
 50
351.0160342530257
 51
1.20770625309098
  0
ARC
  5
110
102
{ACAD_REACTORS
330
1F1
102
}
330
1F
100
AcDbEntity
  8
LAYER_2
  6
Continuous
 62
     2
100
AcDbCircle
 10
107.894782887539
 20
-317.325624012092
 30
0.0
 40
0.5361624790570227
100
AcDbArc
 50
340.1746499999049
 51
351.2914479999645
  0
ARC
  5
111
102
{ACAD_REACTORS
330
1F1
102
}
330
1F
100
AcDbEntity
  8
LAYER_2
  6
Continuous
 62
     2
100
AcDbCircle
 10
107.698848767131
 20
-317.260879243143
 30
0.0
 40
0.7424629028726143
100
AcDbArc
 50
329.4287205410139
 51
340.6025205409623
  0
ARC
  5
112
102
{ACAD_REACTORS
330
1F1
102
}
330
1F
100
AcDbEntity
  8
LAYER_2
  6
Continuous
 62
     2
100
AcDbCircle
 10
107.481327314605
 20
-317.141478139198
 30
0.0
 40
0.9905077669162522
100
AcDbArc
 50
318.6931910000058
 51
329.881625
  0
ARC
  5
113
102
{ACAD_REACTORS
330
1F1
102
}
330
1F
100
AcDbEntity
  8
LAYER_2
  6
Continuous
 62
     2
100
AcDbCircle
 10
107.332574964672
 20
-317.020352562718
 30
0.0
 40
1.182224239001141
100
AcDbArc
 50
309.6902162226406
 51
319.0422472226049
  0
ARC
  5
114
102
{ACAD_REACTORS
330
1F1
102
}
330
1F
100
AcDbEntity
  8
LAYER_2
  6
Continuous
 62
     2
100
AcDbCircle
 10
107.325510474629
 20
-317.016334210283
 30
0.0
 40
1.189831497694043
100
AcDbArc
 50
296.1464119999554
 51
309.8284160000322
  0
ARC
  5
115
102
{ACAD_REACTORS
330
1F1
102
}
330
1F
100
AcDbEntity
  8
LAYER_2
  6
Continuous
 62
     2
100
AcDbCircle
 10
107.439323006261
 20
-317.234518070793
 30
0.0
 40
0.9438400244729541
100
AcDbArc
 50
284.6151343846589
 51
295.7809723846535
  0
ARC
  5
116
102
{ACAD_REACTORS
330
1F1
102
}
330
1F
100
AcDbEntity
  8
LAYER_2
  6
Continuous
 62
     2
100
AcDbCircle
 10
107.509557528396
 20
-317.479992545652
 30
0.0
 40
0.6886128904459197
100
AcDbArc
 50
274.9627619544887
 51
284.1140219544446
  0
ARC
  5
117
102
{ACAD_REACTORS
330
1F1
102
}
330
1F
100
AcDbEntity
  8
LAYER_2
  6
Continuous
 62
     2
100
AcDbCircle
 10
107.528586255835
 20
-317.664408530738
 30
0.0
 40
0.5032510792411705
100
AcDbArc
 50
263.3006079722006
 51
274.6207639722235
  0
ARC
  5
118
102
{ACAD_REACTORS
330
1F1
102
}
330
1F
100
AcDbEntity
  8
LAYER_2
  6
Continuous
 62
     2
100
AcDbCircle
 10
107.514080527805
 20
-317.81508358311
 30
0.0
 40
0.3519268991416745
100
AcDbArc
 50
247.2686791241861
 51
262.784327124152
  0
ARC
  5
119
102
{ACAD_REACTORS
330
1F1
102
}
330
1F
100
AcDbEntity
  8
LAYER_2
  6
Continuous
 62
     2
100
AcDbCircle
 10
107.480397284149
 20
-317.905480615285
 30
0.0
 40
0.2555649271019911
100
AcDbArc
 50
220.6744409999241
 51
246.4025049999991
  0
ARC
  5
11A
102
{ACAD_REACTORS
330
1F1
102
}
330
1F
100
AcDbEntity
  8
LAYER_2
  6
Continuous
 62
     2
100
AcDbCircle
 10
107.471339437573
 20
-317.918484064725
 30
0.0
 40
0.2402527131095697
100
AcDbArc
 50
193.6221642583976
 51
219.7303462581729
  0
ARC
  5
11B
102
{ACAD_REACTORS
330
1F1
102
}
330
1F
100
AcDbEntity
  8
LAYER_2
  6
Continuous
 62
     2
100
AcDbCircle
 10
107.532689944116
 20
-317.900385452593
 30
0.0
 40
0.3041561904236547
100
AcDbArc
 50
181.7929036708259
 51
194.2137406709141
  0
ARC
  5
11C
102
{ACAD_REACTORS
330
1F1
102
}
330
1F
100
AcDbEntity
  8
LAYER_2
  6
Continuous
 62
     2
100
AcDbCircle
 10
107.620875849382
 20
-317.895484438642
 30
0.0
 40
0.392458093595454
100
AcDbArc
 50
171.7693679108821
 51
182.1052619108807
  0
ARC
  5
11D
102
{ACAD_REACTORS
330
1F1
102
}
330
1F
100
AcDbEntity
  8
LAYER_2
  6
Continuous
 62
     2
100
AcDbCircle
 10
107.752203289857
 20
-317.911964044547
 30
0.0
 40
0.5247979391411646
100
AcDbArc
 50
160.7567009453938
 51
172.0412979454334
  0
ARC
  5
11E
102
{ACAD_REACTORS
330
1F1
102
}
330
1F
100
AcDbEntity
  8
LAYER_2
  6
Continuous
 62
     2
100
AcDbCircle
 10
107.933112331512
 20
-317.969128290706
 30
0.0
 40
0.7144617286603709
100
AcDbArc
 50
152.0747765459332
 51
161.2101005458784
  0
ARC
  5
11F
102
{ACAD_REACTORS
330
1F1
102
}
330
1F
100
AcDbEntity
  8
LAYER_2
  6
Continuous
 62
     2
100
AcDbCircle
 10
108.131835549111
 20
-318.069262890438
 30
0.0
 40
0.936951690990554
100
AcDbArc
 50
140.7835536600227
 51
152.355519660058
  0
ARC
  5
120
102
{ACAD_REACTORS
330
1F1
102
}
330
1F
100
AcDbEntity
  8
LAYER_2
  6
Continuous
 62
     2
100
AcDbCircle
 10
108.31076549973
 20
-318.20474423772
 30
0.0
 40
1.16126700730329
100
AcDbArc
 50
129.5962039697262
 51
141.1863029697069
  0
ARC
  5
121
102
{ACAD_REACTORS
330
1F1
102
}
330
1F
100
AcDbEntity
  8
LAYER_2
  6
Continuous
 62
     2
100
AcDbCircle
 10
108.332390715381
 20
-318.223024521388
 30
0.0
 40
1.18914686978348
100
AcDbArc
 50
116.1496395333902
 51
129.8376975334008
  0
ARC
  5
122
102
{ACAD_REACTORS
330
1F1
102
}
330
1F
100
AcDbEntity
  8
LAYER_2
  6
Continuous
 62
     2
100
AcDbCircle
 10
108.21872890447
 20
-318.004986662
 30
0.0
 40
0.9433520129192762
100
AcDbArc
 50
104.6185478248628
 51
115.7891618248857
  0
ARC
  5
123
102
{ACAD_REACTORS
330
1F1
102
}
330
1F
100
AcDbEntity
  8
LAYER_2
  6
Continuous
 62
     2
100
AcDbCircle
 10
108.148756559905
 20
-317.760803378097
 30
0.0
 40
0.6894405499826575
100
AcDbArc
 50
94.97363374560592
 51
104.1133017455563
  0
ARC
  5
124
102
{ACAD_REACTORS
330
1F1
102
}
330
1F
100
AcDbEntity
  8
LAYER_2
  6
Continuous
 62
     2
100
AcDbCircle
 10
108.129610246514
 20
-317.574842603697
 30
0.0
 40
0.5025287100050086
100
AcDbArc
 50
83.30159943864254
 51
94.63706843864577
  0
ARC
  5
125
102
{ACAD_REACTORS
330
1F1
102
}
330
1F
100
AcDbEntity
  8
LAYER_2
  6
Continuous
 62
     2
100
AcDbCircle
 10
108.144084410378
 20
-317.424808133929
 30
0.0
 40
0.3518439585826454
100
AcDbArc
 50
67.27536732622083
 51
82.7926863263146
  0
ARC
  5
126
102
{ACAD_REACTORS
330
1F1
102
}
330
1F
100
AcDbEntity
  8
LAYER_2
  6
Continuous
 62
     2
100
AcDbCircle
 10
108.177665866221
 20
-317.334543320414
 30
0.0
 40
0.255643281892164
100
AcDbArc
 50
40.68800599980889
 51
66.40238499984507
  0
ARC
  5
127
102
{ACAD_REACTORS
330
1F3
102
}
330
1F
100
AcDbEntity
  8
LAYER_2
  6
Continuous
 62
     2
100
AcDbCircle
 10
99.6178285993868
 20
-318.970549718067
 30
0.0
 40
1.167498469908555
100
AcDbArc
 50
296.1544211668951
 51
309.840165166879
  0
ARC
  5
128
102
{ACAD_REACTORS
330
1F3
102
}
330
1F
100
AcDbEntity
  8
LAYER_2
  6
Continuous
 62
     2
100
AcDbCircle
 10
99.7298031360894
 20
-319.185391329088
 30
0.0
 40
0.9253154011360363
100
AcDbArc
 50
284.6153069999974
 51
295.7947280000183
  0
ARC
  5
129
102
{ACAD_REACTORS
330
1F3
102
}
330
1F
100
AcDbEntity
  8
LAYER_2
  6
Continuous
 62
     2
100
AcDbCircle
 10
99.7983119769205
 20
-319.424736824871
 30
0.0
 40
0.6764537226782783
100
AcDbArc
 50
274.9710874440907
 51
284.1156984440977
  0
ARC
  5
12A
102
{ACAD_REACTORS
330
1F3
102
}
330
1F
100
AcDbEntity
  8
LAYER_2
  6
Continuous
 62
     2
100
AcDbCircle
 10
99.8170707208666
 20
-319.60686584481
 30
0.0
 40
0.493392828469025
100
AcDbArc
 50
263.2987984271001
 51
274.6336054270879
  0
ARC
  5
12B
102
{ACAD_REACTORS
330
1F3
102
}
330
1F
100
AcDbEntity
  8
LAYER_2
  6
Continuous
 62
     2
100
AcDbCircle
 10
99.802913669904
 20
-319.753949181399
 30
0.0
 40
0.3456762549571276
100
AcDbArc
 50
247.2763922012705
 51
262.7844612012178
  0
ARC
  5
12C
102
{ACAD_REACTORS
330
1F3
102
}
330
1F
100
AcDbEntity
  8
LAYER_2
  6
Continuous
 62
     2
100
AcDbCircle
 10
99.7691276650341
 20
-319.843728697342
 30
0.0
 40
0.2498392062905426
100
AcDbArc
 50
220.6282444527417
 51
246.4697914528163
  0
ARC
  5
12D
102
{ACAD_REACTORS
330
1F3
102
}
330
1F
100
AcDbEntity
  8
LAYER_2
  6
Continuous
 62
     2
100
AcDbCircle
 10
99.7609824786221
 20
-319.855598404945
 30
0.0
 40
0.2359575587512425
100
AcDbArc
 50
193.623104502679
 51
219.7286005026021
  0
ARC
  5
12E
102
{ACAD_REACTORS
330
1F3
102
}
330
1F
100
AcDbEntity
  8
LAYER_2
  6
Continuous
 62
     2
100
AcDbCircle
 10
99.823229806084
 20
-319.837365404837
 30
0.0
 40
0.3007636715358216
100
AcDbArc
 50
180.8058583086236
 51
194.2057943085702
  0
ARC
  5
12F
102
{ACAD_REACTORS
330
1F3
102
}
330
1F
100
AcDbEntity
  8
LAYER_2
  6
Continuous
 62
     2
100
AcDbCircle
 10
99.9159322204799
 20
-319.833342204921
 30
0.0
 40
0.3935228942014827
100
AcDbArc
 50
171.0155833859241
 51
181.2017393859723
  0
ARC
  5
130
102
{ACAD_REACTORS
330
1F3
102
}
330
1F
100
AcDbEntity
  8
LAYER_2
  6
Continuous
 62
     2
100
AcDbCircle
 10
100.047040343507
 20
-319.851499055299
 30
0.0
 40
0.5258640485863733
100
AcDbArc
 50
160.1645638591302
 51
171.2923888591168
  0
ARC
  5
131
102
{ACAD_REACTORS
330
1F3
102
}
330
1F
100
AcDbEntity
  8
LAYER_2
  6
Continuous
 62
     2
100
AcDbCircle
 10
100.23988733561
 20
-319.915198127492
 30
0.0
 40
0.7289048712646744
100
AcDbArc
 50
149.4231452026302
 51
160.5982272026691
  0
ARC
  5
132
102
{ACAD_REACTORS
330
1F3
102
}
330
1F
100
AcDbEntity
  8
LAYER_2
  6
Continuous
 62
     2
100
AcDbCircle
 10
100.453657505928
 20
-320.032585195162
 30
0.0
 40
0.9726941571377213
100
AcDbArc
 50
138.6880290200265
 51
149.8755000200113
  0
ARC
  5
133
102
{ACAD_REACTORS
330
1F3
102
}
330
1F
100
AcDbEntity
  8
LAYER_2
  6
Continuous
 62
     2
100
AcDbCircle
 10
100.599761074394
 20
-320.151588954406
 30
0.0
 40
1.161019229713572
100
AcDbArc
 50
129.6851672547304
 51
139.0366702547442
  0
ARC
  5
134
102
{ACAD_REACTORS
330
1F3
102
}
330
1F
100
AcDbEntity
  8
LAYER_2
  6
Continuous
 62
     2
100
AcDbCircle
 10
100.606210702742
 20
-320.154782426801
 30
0.0
 40
1.167599005852048
100
AcDbArc
 50
116.1457620032274
 51
129.8286600032553
  0
ARC
  5
135
102
{ACAD_REACTORS
330
1F3
102
}
330
1F
100
AcDbEntity
  8
LAYER_2
  6
Continuous
 62
     2
100
AcDbCircle
 10
100.494614480949
 20
-319.940702980404
 30
0.0
 40
0.926267889285455
100
AcDbArc
 50
104.6174025331642
 51
115.7844065331375
  0
ARC
  5
136
102
{ACAD_REACTORS
330
1F3
102
}
330
1F
100
AcDbEntity
  8
LAYER_2
  6
Continuous
 62
     2
100
AcDbCircle
 10
100.425757402733
 20
-319.700095264197
 30
0.0
 40
0.6760968423486811
100
AcDbArc
 50
94.96820397714035
 51
104.1167399770891
  0
ARC
  5
137
102
{ACAD_REACTORS
330
1F3
102
}
330
1F
100
AcDbEntity
  8
LAYER_2
  6
Continuous
 62
     2
100
AcDbCircle
 10
100.40706929779
 20
-319.518385107098
 30
0.0
 40
0.4934593542142959
100
AcDbArc
 50
83.30226500011766
 51
94.63365700008903
  0
ARC
  5
138
102
{ACAD_REACTORS
330
1F3
102
}
330
1F
100
AcDbEntity
  8
LAYER_2
  6
Continuous
 62
     2
100
AcDbCircle
 10
100.421295950721
 20
-319.370865200912
 30
0.0
 40
0.3453006575725812
100
AcDbArc
 50
67.27125103844672
 51
82.7918730385954
  0
ARC
  5
139
102
{ACAD_REACTORS
330
1F3
102
}
330
1F
100
AcDbEntity
  8
LAYER_2
  6
Continuous
 62
     2
100
AcDbCircle
 10
100.455090490636
 20
-319.281173494311
 30
0.0
 40
0.2495411814963258
100
AcDbArc
 50
40.6091699240664
 51
66.47130992411704
  0
ARC
  5
13A
102
{ACAD_REACTORS
330
1F3
102
}
330
1F
100
AcDbEntity
  8
LAYER_2
  6
Continuous
 62
     2
100
AcDbCircle
 10
100.463173316343
 20
-319.26962267189
 30
0.0
 40
0.2359126670270448
100
AcDbArc
 50
13.6449919196297
 51
39.75717291952712
  0
ARC
  5
13B
102
{ACAD_REACTORS
330
1F3
102
}
330
1F
100
AcDbEntity
  8
LAYER_2
  6
Continuous
 62
     2
100
AcDbCircle
 10
100.401053747012
 20
-319.287841004494
 30
0.0
 40
0.3005922498719898
100
AcDbArc
 50
0.81818511264773
 51
14.22632411274998
  0
ARC
  5
13C
102
{ACAD_REACTORS
330
1F3
102
}
330
1F
100
AcDbEntity
  8
LAYER_2
  6
Continuous
 62
     2
100
AcDbCircle
 10
100.308236923276
 20
-319.291889492613
 30
0.0
 40
0.3934668410497992
100
AcDbArc
 50
351.0269989999037
 51
1.21466099989985
  0
ARC
  5
13D
102
{ACAD_REACTORS
330
1F3
102
}
330
1F
100
AcDbEntity
  8
LAYER_2
  6
Continuous
 62
     2
100
AcDbCircle
 10
100.177149607738
 20
-319.273743383427
 30
0.0
 40
0.5257861802797886
100
AcDbArc
 50
340.1719497575871
 51
351.3017747574754
  0
ARC
  5
13E
102
{ACAD_REACTORS
330
1F3
102
}
330
1F
100
AcDbEntity
  8
LAYER_2
  6
Continuous
 62
     2
100
AcDbCircle
 10
99.9843595206059
 20
-319.210061681039
 30
0.0
 40
0.7287680732385746
100
AcDbArc
 50
329.4263049999846
 51
340.6034040000606
  0
ARC
  5
13F
102
{ACAD_REACTORS
330
1F3
102
}
330
1F
100
AcDbEntity
  8
LAYER_2
  6
Continuous
 62
     2
100
AcDbCircle
 10
99.7709864589018
 20
-319.092889841996
 30
0.0
 40
0.9721061870080081
100
AcDbArc
 50
318.6836988542302
 51
329.8771578542115
  0
ARC
  5
140
102
{ACAD_REACTORS
330
1F3
102
}
330
1F
100
AcDbEntity
  8
LAYER_2
  6
Continuous
 62
     2
100
AcDbCircle
 10
99.6265403485783
 20
-318.975504089074
 30
0.0
 40
1.158118501363605
100
AcDbArc
 50
309.6662581384232
 51
319.0399021384288
  0
ARC
  5
141
102
{ACAD_REACTORS
330
1F3
102
}
330
1F
100
AcDbEntity
  8
LAYER_2
  6
Continuous
 62
     2
100
AcDbCircle
 10
100.672334004113
 20
-319.097100000102
 30
0.0
 40
0.7888258351730228
100
AcDbArc
 50
39.88387064825502
 51
66.77589464826188
  0
ARC
  5
142
102
{ACAD_REACTORS
330
1F3
102
}
330
1F
100
AcDbEntity
  8
LAYER_2
  6
Continuous
 62
     2
100
AcDbCircle
 10
100.601739170465
 20
-319.242288840556
 30
0.0
 40
0.9501180901160292
100
AcDbArc
 50
66.31623010724708
 51
81.74384410726381
  0
ARC
  5
143
102
{ACAD_REACTORS
330
1F3
102
}
330
1F
100
AcDbEntity
  8
LAYER_2
  6
Continuous
 62
     2
100
AcDbCircle
 10
100.556483025113
 20
-319.484854354854
 30
0.0
 40
1.196709788071844
100
AcDbArc
 50
81.2672176579888
 51
94.33168965796477
  0
ARC
  5
144
102
{ACAD_REACTORS
330
1F3
102
}
330
1F
100
AcDbEntity
  8
LAYER_2
  6
Continuous
 62
     2
100
AcDbCircle
 10
100.568539205645
 20
-319.790120888649
 30
0.0
 40
1.502055473951771
100
AcDbArc
 50
93.91075235407699
 51
106.3708793540622
  0
ARC
  5
145
102
{ACAD_REACTORS
330
1F3
102
}
330
1F
100
AcDbEntity
  8
LAYER_2
  6
Continuous
 62
     2
100
AcDbCircle
 10
100.651907053602
 20
-320.115990893334
 30
0.0
 40
1.838249652511109
100
AcDbArc
 50
106.0012220791002
 51
120.3919490791237
  0
ARC
  5
146
102
{ACAD_REACTORS
330
1F3
102
}
330
1F
100
AcDbEntity
  8
LAYER_2
  6
Continuous
 62
     2
100
AcDbCircle
 10
100.772428647897
 20
-320.348764637864
 30
0.0
 40
2.100055489471197
100
AcDbArc
 50
120.0153574223165
 51
129.9085234223134
  0
ARC
  5
147
102
{ACAD_REACTORS
330
1F3
102
}
330
1F
100
AcDbEntity
  8
LAYER_2
  6
Continuous
 62
     2
100
AcDbCircle
 10
100.773924863382
 20
-320.35624463518
 30
0.0
 40
2.106756250457277
100
AcDbArc
 50
129.8092247568344
 51
146.5729887568428
  0
ARC
  5
148
102
{ACAD_REACTORS
330
1F3
102
}
330
1F
100
AcDbEntity
  8
LAYER_2
  6
Continuous
 62
     2
100
AcDbCircle
 10
100.495128281949
 20
-320.15679838508
 30
0.0
 40
1.764253063320839
100
AcDbArc
 50
146.9910760000004
 51
160.2087279999974
  0
ARC
  5
149
102
{ACAD_REACTORS
330
1F3
102
}
330
1F
100
AcDbEntity
  8
LAYER_2
  6
Continuous
 62
     2
100
AcDbCircle
 10
100.158084204438
 20
-320.023539797927
 30
0.0
 40
1.402042012200681
100
AcDbArc
 50
160.6691293902077
 51
173.4029843902161
  0
ARC
  5
14A
102
{ACAD_REACTORS
330
1F3
102
}
330
1F
100
AcDbEntity
  8
LAYER_2
  6
Continuous
 62
     2
100
AcDbCircle
 10
99.855461384382
 20
-319.97888678191
 30
0.0
 40
1.096334901042936
100
AcDbArc
 50
173.9041971925649
 51
187.5362291925497
  0
ARC
  5
14B
102
{ACAD_REACTORS
330
1F3
102
}
330
1F
100
AcDbEntity
  8
LAYER_2
  6
Continuous
 62
     2
100
AcDbCircle
 10
99.6362189868271
 20
-319.999913203988
 30
0.0
 40
0.876264309087568
100
AcDbArc
 50
188.0534110973958
 51
206.0652620973802
  0
ARC
  5
14C
102
{ACAD_REACTORS
330
1F3
102
}
330
1F
100
AcDbEntity
  8
LAYER_2
  6
Continuous
 62
     2
100
AcDbCircle
 10
99.5439267708976
 20
-320.036673725589
 30
0.0
 40
0.7772428623015005
100
AcDbArc
 50
206.6204270000414
 51
219.7647420000692
  0
ARC
  5
14D
102
{ACAD_REACTORS
330
1F3
102
}
330
1F
100
AcDbEntity
  8
LAYER_2
  6
Continuous
 62
     2
100
AcDbCircle
 10
99.5496655360369
 20
-320.030127390778
 30
0.0
 40
0.7858425764108651
100
AcDbArc
 50
219.8639939517875
 51
245.1564099517593
  0
ARC
  5
14E
102
{ACAD_REACTORS
330
1F3
102
}
330
1F
100
AcDbEntity
  8
LAYER_2
  6
Continuous
 62
     2
100
AcDbCircle
 10
99.6128294013623
 20
-319.907792504628
 30
0.0
 40
0.9234131695132534
100
AcDbArc
 50
244.7890554228067
 51
258.4029204227984
  0
ARC
  5
14F
102
{ACAD_REACTORS
330
1F3
102
}
330
1F
100
AcDbEntity
  8
LAYER_2
  6
Continuous
 62
     2
100
AcDbCircle
 10
99.6592743252938
 20
-319.713700587901
 30
0.0
 40
1.122898217005186
100
AcDbArc
 50
258.0723350480195
 51
269.875272048026
  0
ARC
  5
150
102
{ACAD_REACTORS
330
1F3
102
}
330
1F
100
AcDbEntity
  8
LAYER_2
  6
Continuous
 62
     2
100
AcDbCircle
 10
99.6676415913396
 20
-319.466747693147
 30
0.0
 40
1.369891116890722
100
AcDbArc
 50
269.5477946105631
 51
279.8304686105628
  0
ARC
  5
151
102
{ACAD_REACTORS
330
1F3
102
}
330
1F
100
AcDbEntity
  8
LAYER_2
  6
Continuous
 62
     2
100
AcDbCircle
 10
99.6350739962761
 20
-319.235078181644
 30
0.0
 40
1.603736831958622
100
AcDbArc
 50
279.5637937755421
 51
286.1150377755288
  0
ARC
  5
152
102
{ACAD_REACTORS
330
1F3
102
}
330
1F
100
AcDbEntity
  8
LAYER_2
  6
Continuous
 62
     2
100
AcDbCircle
 10
103.196964396759
 20
-320.794363073041
 30
0.0
 40
2.819884071694344
100
AcDbArc
 50
165.4054428034651
 51
172.2633608034604
  0
ARC
  5
153
102
{ACAD_REACTORS
330
1F3
102
}
330
1F
100
AcDbEntity
  8
LAYER_2
  6
Continuous
 62
     2
100
AcDbCircle
 10
103.608997248976
 20
-320.862948054215
 30
0.0
 40
3.237423324612656
100
AcDbArc
 50
172.0422620432207
 51
178.5102220432227
  0
ARC
  5
154
102
{ACAD_REACTORS
330
1F3
102
}
330
1F
100
AcDbEntity
  8
LAYER_2
  6
Continuous
 62
     2
100
AcDbCircle
 10
106.586430953569
 20
-321.000533871507
 30
0.0
 40
5.364021781908117
100
AcDbArc
 50
175.8733480764361
 51
177.63065707644
  0
ARC
  5
155
102
{ACAD_REACTORS
330
1F3
102
}
330
1F
100
AcDbEntity
  8
LAYER_2
  6
Continuous
 62
     2
100
AcDbCircle
 10
110.105205837233
 20
-321.240340580399
 30
0.0
 40
8.890941849847643
100
AcDbArc
 50
172.2051149786521
 51
175.9637679786474
  0
ARC
  5
156
102
{ACAD_REACTORS
330
1F3
102
}
330
1F
100
AcDbEntity
  8
LAYER_2
  6
Continuous
 62
     2
100
AcDbCircle
 10
105.976152556845
 20
-320.686704910668
 30
0.0
 40
4.724967179111786
100
AcDbArc
 50
170.3340330000036
 51
172.0657660000072
  0
ARC
  5
157
102
{ACAD_REACTORS
330
1F3
102
}
330
1F
100
AcDbEntity
  8
LAYER_2
  6
Continuous
 62
     2
100
AcDbCircle
 10
103.751008169311
 20
-320.311914779064
 30
0.0
 40
2.468487095878851
100
AcDbArc
 50
168.2817540276075
 51
170.2379180276253
  0
ARC
  5
158
102
{ACAD_REACTORS
330
1F3
102
}
330
1F
100
AcDbEntity
  8
LAYER_2
  6
Continuous
 62
     2
100
AcDbCircle
 10
105.675849840617
 20
-320.726729875809
 30
0.0
 40
4.437486306664016
100
AcDbArc
 50
165.1809217000119
 51
168.0850307000024
  0
ARC
  5
159
102
{ACAD_REACTORS
330
1F3
102
}
330
1F
100
AcDbEntity
  8
LAYER_2
  6
Continuous
 62
     2
100
AcDbCircle
 10
111.911921675984
 20
-322.357333827928
 30
0.0
 40
10.88320735596109
100
AcDbArc
 50
164.7591919629618
 51
165.2789399629626
  0
ARC
  5
15A
102
{ACAD_REACTORS
330
1F3
102
}
330
1F
100
AcDbEntity
  8
LAYER_2
  6
Continuous
 62
     2
100
AcDbCircle
 10
100.14968962339
 20
-319.119658110711
 30
0.0
 40
1.316833678122099
100
AcDbArc
 50
343.3758009999763
 51
347.9823909999968
  0
ARC
  5
15B
102
{ACAD_REACTORS
330
1F3
102
}
330
1F
100
AcDbEntity
  8
LAYER_2
  6
Continuous
 62
     2
100
AcDbCircle
 10
100.241454287436
 20
-319.135657303048
 30
0.0
 40
1.223715662879164
100
AcDbArc
 50
348.2326105440091
 51
359.8957275440029
  0
ARC
  5
15C
102
{ACAD_REACTORS
330
1F3
102
}
330
1F
100
AcDbEntity
  8
LAYER_2
  6
Continuous
 62
     2
100
AcDbCircle
 10
100.489753033856
 20
-319.142235680671
 30
0.0
 40
0.975424595624163
100
AcDbArc
 50
0.25559570128975
 51
16.68000770127911
  0
ARC
  5
15D
102
{ACAD_REACTORS
330
1F3
102
}
330
1F
100
AcDbEntity
  8
LAYER_2
  6
Continuous
 62
     2
100
AcDbCircle
 10
100.658246512369
 20
-319.101221187314
 30
0.0
 40
0.8022999366332312
100
AcDbArc
 50
17.32798900119504
 51
39.46459300123161
  0
ARC
  5
15E
102
{ACAD_REACTORS
330
1F4
102
}
330
1F
100
AcDbEntity
  8
LAYER_2
  6
Continuous
 62
     2
100
AcDbCircle
 10
105.003761593824
 20
-318.970605810095
 30
0.0
 40
1.167426085419961
100
AcDbArc
 50
296.1534327138019
 51
309.8402037138131
  0
ARC
  5
15F
102
{ACAD_REACTORS
330
1F4
102
}
330
1F
100
AcDbEntity
  8
LAYER_2
  6
Continuous
 62
     2
100
AcDbCircle
 10
105.11564773856
 20
-319.185261524465
 30
0.0
 40
0.9254489818936031
100
AcDbArc
 50
284.6151750000043
 51
295.7933719999567
  0
ARC
  5
160
102
{ACAD_REACTORS
330
1F4
102
}
330
1F
100
AcDbEntity
  8
LAYER_2
  6
Continuous
 62
     2
100
AcDbCircle
 10
105.184176094414
 20
-319.424645933511
 30
0.0
 40
0.6765448194013925
100
AcDbArc
 50
274.9710154440004
 51
284.1148174439958
  0
ARC
  5
161
102
{ACAD_REACTORS
330
1F4
102
}
330
1F
100
AcDbEntity
  8
LAYER_2
  6
Continuous
 62
     2
100
AcDbCircle
 10
105.202940246089
 20
-319.606809904286
 30
0.0
 40
0.4934486551674864
100
AcDbArc
 50
263.29915600001
 51
274.6332710000202
  0
ARC
  5
162
102
{ACAD_REACTORS
330
1F4
102
}
330
1F
100
AcDbEntity
  8
LAYER_2
  6
Continuous
 62
     2
100
AcDbCircle
 10
105.188785850403
 20
-319.75390356881
 30
0.0
 40
0.3457221391161157
100
AcDbArc
 50
247.2777910446116
 51
262.784403044697
  0
ARC
  5
163
102
{ACAD_REACTORS
330
1F4
102
}
330
1F
100
AcDbEntity
  8
LAYER_2
  6
Continuous
 62
     2
100
AcDbCircle
 10
105.154997151461
 20
-319.843712786303
 30
0.0
 40
0.2498566595598246
100
AcDbArc
 50
220.6296171842208
 51
246.4697221840565
  0
ARC
  5
164
102
{ACAD_REACTORS
330
1F4
102
}
330
1F
100
AcDbEntity
  8
LAYER_2
  6
Continuous
 62
     2
100
AcDbCircle
 10
105.146871947152
 20
-319.855634606628
 30
0.0
 40
0.2359569803150362
100
AcDbArc
 50
193.6132501492508
 51
219.7172871493472
  0
ARC
  5
165
102
{ACAD_REACTORS
330
1F4
102
}
330
1F
100
AcDbEntity
  8
LAYER_2
  6
Continuous
 62
     2
100
AcDbCircle
 10
105.209294965704
 20
-319.83736725716
 30
0.0
 40
0.3009414292183278
100
AcDbArc
 50
180.8034164407074
 51
194.1962004407948
  0
ARC
  5
166
102
{ACAD_REACTORS
330
1F4
102
}
330
1F
100
AcDbEntity
  8
LAYER_2
  6
Continuous
 62
     2
100
AcDbCircle
 10
105.302110033952
 20
-319.833361216755
 30
0.0
 40
0.3938128293720391
100
AcDbArc
 50
171.0174650000376
 51
181.196854999973
  0
ARC
  5
167
102
{ACAD_REACTORS
330
1F4
102
}
330
1F
100
AcDbEntity
  8
LAYER_2
  6
Continuous
 62
     2
100
AcDbCircle
 10
105.433017307919
 20
-319.851486479429
 30
0.0
 40
0.525950726626547
100
AcDbArc
 50
160.1670741000148
 51
171.2937341001032
  0
ARC
  5
168
102
{ACAD_REACTORS
330
1F4
102
}
330
1F
100
AcDbEntity
  8
LAYER_2
  6
Continuous
 62
     2
100
AcDbCircle
 10
105.626068173958
 20
-319.91526112083
 30
0.0
 40
0.729209120747133
100
AcDbArc
 50
149.4293519873795
 51
160.5997069873745
  0
ARC
  5
169
102
{ACAD_REACTORS
330
1F4
102
}
330
1F
100
AcDbEntity
  8
LAYER_2
  6
Continuous
 62
     2
100
AcDbCircle
 10
105.839063298505
 20
-320.032146297682
 30
0.0
 40
0.9720767691769497
100
AcDbArc
 50
138.6890259999727
 51
149.8826739999512
  0
ARC
  5
16A
102
{ACAD_REACTORS
330
1F4
102
}
330
1F
100
AcDbEntity
  8
LAYER_2
  6
Continuous
 62
     2
100
AcDbCircle
 10
105.984498177411
 20
-320.150406621109
 30
0.0
 40
1.159409639191552
100
AcDbArc
 50
129.6808068681945
 51
139.0437708682014
  0
ARC
  5
16B
102
{ACAD_REACTORS
330
1F4
102
}
330
1F
100
AcDbEntity
  8
LAYER_2
  6
Continuous
 62
     2
100
AcDbCircle
 10
105.992510029618
 20
-320.155683930909
 30
0.0
 40
1.168590122003352
100
AcDbArc
 50
116.1438837228705
 51
129.8179147228662
  0
ARC
  5
16C
102
{ACAD_REACTORS
330
1F4
102
}
330
1F
100
AcDbEntity
  8
LAYER_2
  6
Continuous
 62
     2
100
AcDbCircle
 10
105.880782110959
 20
-319.941466125503
 30
0.0
 40
0.9270773612206193
100
AcDbArc
 50
104.6198289999829
 51
115.7788160000166
  0
ARC
  5
16D
102
{ACAD_REACTORS
330
1F4
102
}
330
1F
100
AcDbEntity
  8
LAYER_2
  6
Continuous
 62
     2
100
AcDbCircle
 10
105.811928520725
 20
-319.701524818663
 30
0.0
 40
0.6775530839178934
100
AcDbArc
 50
94.97727858655318
 51
104.1071995864917
  0
ARC
  5
16E
102
{ACAD_REACTORS
330
1F4
102
}
330
1F
100
AcDbEntity
  8
LAYER_2
  6
Continuous
 62
     2
100
AcDbCircle
 10
105.793011371731
 20
-319.518458112365
 30
0.0
 40
0.4935443172401005
100
AcDbArc
 50
83.3027979999806
 51
94.63332099999722
  0
ARC
  5
16F
102
{ACAD_REACTORS
330
1F4
102
}
330
1F
100
AcDbEntity
  8
LAYER_2
  6
Continuous
 62
     2
100
AcDbCircle
 10
105.807244283502
 20
-319.370873178111
 30
0.0
 40
0.3453202768573312
100
AcDbArc
 50
67.27126882945437
 51
82.79243682939415
  0
ARC
  5
170
102
{ACAD_REACTORS
330
1F4
102
}
330
1F
100
AcDbEntity
  8
LAYER_2
  6
Continuous
 62
     2
100
AcDbCircle
 10
105.840952849216
 20
-319.281301201706
 30
0.0
 40
0.2497048967247691
100
AcDbArc
 50
40.6155486352862
 51
66.46427763523239
  0
ARC
  5
171
102
{ACAD_REACTORS
330
1F4
102
}
330
1F
100
AcDbEntity
  8
LAYER_2
  6
Continuous
 62
     2
100
AcDbCircle
 10
105.848821137336
 20
-319.269609000924
 30
0.0
 40
0.2361505595629116
100
AcDbArc
 50
13.61826567683378
 51
39.70484867673294
  0
ARC
  5
172
102
{ACAD_REACTORS
330
1F4
102
}
330
1F
100
AcDbEntity
  8
LAYER_2
  6
Continuous
 62
     2
100
AcDbCircle
 10
105.786610432559
 20
-319.287817765891
 30
0.0
 40
0.3009150106887594
100
AcDbArc
 50
0.80417725902204
 51
14.19886125913931
  0
ARC
  5
173
102
{ACAD_REACTORS
330
1F4
102
}
330
1F
100
AcDbEntity
  8
LAYER_2
  6
Continuous
 62
     2
100
AcDbCircle
 10
105.693992786586
 20
-319.291847955134
 30
0.0
 40
0.3935895654202829
100
AcDbArc
 50
351.0167109999267
 51
1.20157800003115
  0
ARC
  5
174
102
{ACAD_REACTORS
330
1F4
102
}
330
1F
100
AcDbEntity
  8
LAYER_2
  6
Continuous
 62
     2
100
AcDbCircle
 10
105.562825003986
 20
-319.273686251466
 30
0.0
 40
0.5259904631763547
100
AcDbArc
 50
340.1684578138455
 51
351.2936588137995
  0
ARC
  5
175
102
{ACAD_REACTORS
330
1F4
102
}
330
1F
100
AcDbEntity
  8
LAYER_2
  6
Continuous
 62
     2
100
AcDbCircle
 10
105.37023227918
 20
-319.210076055585
 30
0.0
 40
0.7287622004720535
100
AcDbArc
 50
329.4248693993849
 51
340.6009123994211
  0
ARC
  5
176
102
{ACAD_REACTORS
330
1F4
102
}
330
1F
100
AcDbEntity
  8
LAYER_2
  6
Continuous
 62
     2
100
AcDbCircle
 10
105.157286505344
 20
-319.093221016906
 30
0.0
 40
0.9715716001083723
100
AcDbArc
 50
318.6813273631705
 51
329.8795973631703
  0
ARC
  5
177
102
{ACAD_REACTORS
330
1F4
102
}
330
1F
100
AcDbEntity
  8
LAYER_2
  6
Continuous
 62
     2
100
AcDbCircle
 10
105.012302096643
 20
-318.975428182062
 30
0.0
 40
1.158257034524548
100
AcDbArc
 50
309.6686389999724
 51
319.0403259999537
  0
ARC
  5
178
102
{ACAD_REACTORS
330
1F4
102
}
330
1F
100
AcDbEntity
  8
LAYER_2
  6
Continuous
 62
     2
100
AcDbCircle
 10
106.06035405035
 20
-319.094876524933
 30
0.0
 40
0.7857010268568634
100
AcDbArc
 50
39.855268946263
 51
65.15113494628122
  0
ARC
  5
179
102
{ACAD_REACTORS
330
1F4
102
}
330
1F
100
AcDbEntity
  8
LAYER_2
  6
Continuous
 62
     2
100
AcDbCircle
 10
105.997557335191
 20
-319.216307724644
 30
0.0
 40
0.9222980971132864
100
AcDbArc
 50
64.78122842795557
 51
78.41110742797581
  0
ARC
  5
17A
102
{ACAD_REACTORS
330
1F4
102
}
330
1F
100
AcDbEntity
  8
LAYER_2
  6
Continuous
 62
     2
100
AcDbCircle
 10
105.95084007847
 20
-319.411088701172
 30
0.0
 40
1.122512860713954
100
AcDbArc
 50
78.07240196546334
 51
89.87991696543298
  0
ARC
  5
17B
102
{ACAD_REACTORS
330
1F4
102
}
330
1F
100
AcDbEntity
  8
LAYER_2
  6
Continuous
 62
     2
100
AcDbCircle
 10
105.942495712846
 20
-319.659546847809
 30
0.0
 40
1.371010272916797
100
AcDbArc
 50
89.5529589999878
 51
99.82869999998559
  0
ARC
  5
17C
102
{ACAD_REACTORS
330
1F4
102
}
330
1F
100
AcDbEntity
  8
LAYER_2
  6
Continuous
 62
     2
100
AcDbCircle
 10
105.975000025701
 20
-319.890868415582
 30
0.0
 40
1.604502550923592
100
AcDbArc
 50
99.5623045377674
 51
106.1118585377914
  0
ARC
  5
17D
102
{ACAD_REACTORS
330
1F4
102
}
330
1F
100
AcDbEntity
  8
LAYER_2
  6
Continuous
 62
     2
100
AcDbCircle
 10
99.4316011561753
 20
-317.658962276559
 30
0.0
 40
5.874734661620637
100
AcDbArc
 50
346.3901312414715
 51
347.3746032414722
  0
ARC
  5
17E
102
{ACAD_REACTORS
330
1F4
102
}
330
1F
100
AcDbEntity
  8
LAYER_2
  6
Continuous
 62
     2
100
AcDbCircle
 10
103.621272049595
 20
-318.594805422869
 30
0.0
 40
1.581819508596011
100
AcDbArc
 50
347.2823746486337
 51
348.893533648658
  0
ARC
  5
17F
102
{ACAD_REACTORS
330
1F4
102
}
330
1F
100
AcDbEntity
  8
LAYER_2
  6
Continuous
 62
     2
100
AcDbCircle
 10
105.382260559814
 20
-319.991415180805
 30
0.0
 40
1.237583493900261
100
AcDbArc
 50
167.4930325123341
 51
179.2807385123332
  0
ARC
  5
180
102
{ACAD_REACTORS
330
1F4
102
}
330
1F
100
AcDbEntity
  8
LAYER_2
  6
Continuous
 62
     2
100
AcDbCircle
 10
105.13315771185
 20
-319.981895978444
 30
0.0
 40
0.9884014427995844
100
AcDbArc
 50
179.6512401139761
 51
195.0619061139858
  0
ARC
  5
181
102
{ACAD_REACTORS
330
1F4
102
}
330
1F
100
AcDbEntity
  8
LAYER_2
  6
Continuous
 62
     2
100
AcDbCircle
 10
104.95885169971
 20
-320.020193337318
 30
0.0
 40
0.810174216461943
100
AcDbArc
 50
195.6498800000539
 51
219.3542210000577
  0
ARC
  5
182
102
{ACAD_REACTORS
330
1F4
102
}
330
1F
100
AcDbEntity
  8
LAYER_2
  6
Continuous
 62
     2
100
AcDbCircle
 10
104.937646769464
 20
-320.028088099285
 30
0.0
 40
0.7888057030824233
100
AcDbArc
 50
219.8875063548789
 51
246.7792993548947
  0
ARC
  5
183
102
{ACAD_REACTORS
330
1F4
102
}
330
1F
100
AcDbEntity
  8
LAYER_2
  6
Continuous
 62
     2
100
AcDbCircle
 10
105.008359987325
 20
-319.882529346755
 30
0.0
 40
0.950483895524114
100
AcDbArc
 50
246.3214676723572
 51
261.7428906723246
  0
ARC
  5
184
102
{ACAD_REACTORS
330
1F4
102
}
330
1F
100
AcDbEntity
  8
LAYER_2
  6
Continuous
 62
     2
100
AcDbCircle
 10
105.053517325828
 20
-319.64052706089
 30
0.0
 40
1.19650401175119
100
AcDbArc
 50
261.2671877485893
 51
274.3339117485985
  0
ARC
  5
185
102
{ACAD_REACTORS
330
1F4
102
}
330
1F
100
AcDbEntity
  8
LAYER_2
  6
Continuous
 62
     2
100
AcDbCircle
 10
105.04151639709
 20
-319.335304733484
 30
0.0
 40
1.501801489623247
100
AcDbArc
 50
273.910476999997
 51
286.3730569999871
  0
ARC
  5
186
102
{ACAD_REACTORS
330
1F4
102
}
330
1F
100
AcDbEntity
  8
LAYER_2
  6
Continuous
 62
     2
100
AcDbCircle
 10
104.958128049061
 20
-319.009164617538
 30
0.0
 40
1.838260601153491
100
AcDbArc
 50
286.0012434857458
 51
300.3927394857512
  0
ARC
  5
187
102
{ACAD_REACTORS
330
1F4
102
}
330
1F
100
AcDbEntity
  8
LAYER_2
  6
Continuous
 62
     2
100
AcDbCircle
 10
104.83693976895
 20
-318.775333760922
 30
0.0
 40
2.101315114190594
100
AcDbArc
 50
300.0173726077296
 51
309.905674607718
  0
ARC
  5
188
102
{ACAD_REACTORS
330
1F4
102
}
330
1F
100
AcDbEntity
  8
LAYER_2
  6
Continuous
 62
     2
100
AcDbCircle
 10
104.836211518894
 20
-318.768883229462
 30
0.0
 40
2.106733559363972
100
AcDbArc
 50
309.8083236191444
 51
326.5709136191682
  0
ARC
  5
189
102
{ACAD_REACTORS
330
1F4
102
}
330
1F
100
AcDbEntity
  8
LAYER_2
  6
Continuous
 62
     2
100
AcDbCircle
 10
105.115558646684
 20
-318.968666850342
 30
0.0
 40
1.763584347460998
100
AcDbArc
 50
326.9880500225884
 51
340.2102080225818
  0
ARC
  5
18A
102
{ACAD_REACTORS
330
1F4
102
}
330
1F
100
AcDbEntity
  8
LAYER_2
  6
Continuous
 62
     2
100
AcDbCircle
 10
105.451823932576
 20
-319.101636744893
 30
0.0
 40
1.402204133198923
100
AcDbArc
 50
340.670613000004
 51
353.4026659999935
  0
ARC
  5
18B
102
{ACAD_REACTORS
330
1F4
102
}
330
1F
100
AcDbEntity
  8
LAYER_2
  6
Continuous
 62
     2
100
AcDbCircle
 10
105.75471848718
 20
-319.146370381862
 30
0.0
 40
1.096218189138788
100
AcDbArc
 50
353.9063975918386
 51
7.53995059186847
  0
ARC
  5
18C
102
{ACAD_REACTORS
330
1F4
102
}
330
1F
100
AcDbEntity
  8
LAYER_2
  6
Continuous
 62
     2
100
AcDbCircle
 10
105.974305555065
 20
-319.125228302423
 30
0.0
 40
0.8757907680171776
100
AcDbArc
 50
8.05380499999622
 51
26.07663999995842
  0
ARC
  5
18D
102
{ACAD_REACTORS
330
1F4
102
}
330
1F
100
AcDbEntity
  8
LAYER_2
  6
Continuous
 62
     2
100
AcDbCircle
 10
106.06591386155
 20
-319.088756730634
 30
0.0
 40
0.777511905570532
100
AcDbArc
 50
26.63003421921962
 51
39.77163321923512
  0
ARC
  5
18E
102
{ACAD_REACTORS
330
1F5
102
}
330
1F
100
AcDbEntity
  8
LAYER_2
  6
Continuous
 62
     2
100
AcDbCircle
 10
107.479842743066
 20
-324.436754802106
 30
0.0
 40
7.084961942027706
100
AcDbArc
 50
130.5243280000003
 51
133.432957000002
  0
ARC
  5
18F
102
{ACAD_REACTORS
330
1F5
102
}
330
1F
100
AcDbEntity
  8
LAYER_2
  6
Continuous
 62
     2
100
AcDbCircle
 10
106.962244838868
 20
-323.861633517458
 30
0.0
 40
6.311499650718299
100
AcDbArc
 50
133.6102510084924
 51
135.0747400084902
  0
ARC
  5
190
102
{ACAD_REACTORS
330
1F5
102
}
330
1F
100
AcDbEntity
  8
LAYER_2
  6
Continuous
 62
     2
100
AcDbCircle
 10
109.226753082758
 20
-326.128293047451
 30
0.0
 40
9.515516107626125
100
AcDbArc
 50
135.0404143844825
 51
135.6484943844799
  0
ARC
  5
191
102
{ACAD_REACTORS
330
1F5
102
}
330
1F
100
AcDbEntity
  8
LAYER_2
  6
Continuous
 62
     2
100
AcDbCircle
 10
121.894385484387
 20
-338.492615902561
 30
0.0
 40
27.21707876680212
100
AcDbArc
 50
135.6782289999996
 51
136.104765
  0
ARC
  5
192
102
{ACAD_REACTORS
330
1F5
102
}
330
1F
100
AcDbEntity
  8
LAYER_2
  6
Continuous
 62
     2
100
AcDbCircle
 10
99.6082133743737
 20
-316.302595065784
 30
0.0
 40
4.922496652000104
100
AcDbArc
 50
309.9908663513065
 51
315.3183623513024
  0
ARC
  5
193
102
{ACAD_REACTORS
330
1F5
102
}
330
1F
100
AcDbEntity
  8
LAYER_2
  6
Continuous
 62
     2
100
AcDbCircle
 10
97.0035237485219
 20
-313.718472922286
 30
0.0
 40
8.591566797753925
100
AcDbArc
 50
315.2793919795306
 51
316.5575309795315
  0
ARC
  5
194
102
{ACAD_REACTORS
330
1F5
102
}
330
1F
100
AcDbEntity
  8
LAYER_2
  6
Continuous
 62
     2
100
AcDbCircle
 10
68.2399665823663
 20
-286.367898075304
 30
0.0
 40
48.28281311276709
100
AcDbArc
 50
316.4629129862466
 51
316.6639789862468
  0
ARC
  5
195
102
{ACAD_REACTORS
330
1F6
102
}
330
1F
100
AcDbEntity
  8
LAYER_2
  6
Continuous
 62
     2
100
AcDbCircle
 10
107.255394869425
 20
-316.988596461009
 30
0.0
 40
1.922587624613193
100
AcDbArc
 50
286.5182796056529
 51
298.9539226056276
  0
ARC
  5
196
102
{ACAD_REACTORS
330
1F6
102
}
330
1F
100
AcDbEntity
  8
LAYER_2
  6
Continuous
 62
     2
100
AcDbCircle
 10
107.351134951751
 20
-317.280075325517
 30
0.0
 40
1.61594201738225
100
AcDbArc
 50
275.7240935244152
 51
286.2021765244215
  0
ARC
  5
197
102
{ACAD_REACTORS
330
1F6
102
}
330
1F
100
AcDbEntity
  8
LAYER_2
  6
Continuous
 62
     2
100
AcDbCircle
 10
107.385326684016
 20
-317.550114988641
 30
0.0
 40
1.343857319943827
100
AcDbArc
 50
266.6750828688924
 51
275.4218938688996
  0
LWPOLYLINE
  5
198
102
{ACAD_REACTORS
330
1F6
102
}
330
1F
100
AcDbEntity
  8
LAYER_2
  6
Continuous
 62
     2
100
AcDbPolyline
 90
        4
 70
     0
 43
0.0
 10
107.307385396733
 20
-318.891710177997
 10
106.974701287468
 20
-320.778779577844
 10
107.814501009689
 20
-320.778779577844
 10
108.18613125171
 20
-318.670878530404
  0
LWPOLYLINE
  5
199
102
{ACAD_REACTORS
330
1F5
102
}
330
1F
100
AcDbEntity
  8
LAYER_2
  6
Continuous
 62
     2
100
AcDbPolyline
 90
        4
 70
     0
 43
0.0
 10
103.358057879531
 20
-319.503222213244
 10
103.963594027629
 20
-318.867534658175
 10
104.064659435004
 20
-318.346379638933
 10
102.023159588396
 20
-318.346379638933
  0
LWPOLYLINE
  5
19A
102
{ACAD_REACTORS
330
1F5
102
}
330
1F
100
AcDbEntity
  8
LAYER_2
  6
Continuous
 62
     2
100
AcDbPolyline
 90
        7
 70
     0
 43
0.0
 10
102.28151967042
 20
-319.621874762859
 10
101.6693899118
 20
-320.239655586648
 10
101.574354833858
 20
-320.778779577844
 10
103.673705060767
 20
-320.778779577844
 10
103.796208606313
 20
-320.083870135791
 10
102.766934964109
 20
-320.083870135791
 10
102.771732070955
 20
-320.073950623847
  0
LWPOLYLINE
  5
19B
102
{ACAD_REACTORS
330
1F5
102
}
330
1F
100
AcDbEntity
  8
LAYER_2
  6
Continuous
 62
     2
100
AcDbPolyline
 90
        4
 70
     0
 43
0.0
 10
102.023159588396
 20
-318.346379638933
 10
101.900683105147
 20
-319.041397487513
 10
102.885996484403
 20
-319.041397487513
 10
102.876240922102
 20
-319.051261696178
  0
LWPOLYLINE
  5
19C
102
{ACAD_REACTORS
330
1F4
102
}
330
1F
100
AcDbEntity
  8
LAYER_2
  6
Continuous
 62
     2
100
AcDbPolyline
 90
        4
 70
     0
 43
0.0
 10
105.173465549702
 20
-318.899515606488
 10
105.516339976937
 20
-317.130179630142
 10
104.676540254717
 20
-317.130179630142
 10
104.174045318706
 20
-319.723406159448
  0
LWPOLYLINE
  5
19D
102
{ACAD_REACTORS
330
1F4
102
}
330
1F
100
AcDbEntity
  8
LAYER_2
  6
Continuous
 62
     2
100
AcDbPolyline
 90
        3
 70
     0
 43
0.0
 10
105.529728906504
 20
-318.349387936844
 10
105.150482579179
 20
-319.04134328425
 10
105.141376116191
 20
-319.04134328425
  0
LWPOLYLINE
  5
19E
102
{ACAD_REACTORS
330
1F3
102
}
330
1F
100
AcDbEntity
  8
LAYER_2
  6
Continuous
 62
     2
100
AcDbPolyline
 90
        2
 70
     0
 43
0.0
 10
101.437663121624
 20
-319.393839079569
 10
101.439451878716
 20
-319.3852205112
  0
LWPOLYLINE
  5
19F
102
{ACAD_REACTORS
330
1F3
102
}
330
1F
100
AcDbEntity
  8
LAYER_2
  6
Continuous
 62
     2
100
AcDbPolyline
 90
        2
 70
     0
 43
0.0
 10
100.372668240619
 20
-320.778779577844
 10
101.226994909541
 20
-320.778779577844
  0
LWPOLYLINE
  5
1A0
102
{ACAD_REACTORS
330
1F3
102
}
330
1F
100
AcDbEntity
  8
LAYER_2
  6
Continuous
 62
     2
100
AcDbPolyline
 90
        3
 70
     0
 43
0.0
 10
100.080218110543
 20
-320.775798319668
 10
100.459613265107
 20
-320.083815932527
 10
100.468069210259
 20
-320.083815932527
  0
LWPOLYLINE
  5
1A1
102
{ACAD_REACTORS
330
1F2
102
}
330
1F
100
AcDbEntity
  8
LAYER_2
  6
Continuous
 62
     2
100
AcDbPolyline
 90
        6
 70
     1
 43
0.0
 10
108.949989605331
 20
-317.130179630142
 10
108.949989605331
 20
-317.130179630142
 10
109.789870671782
 20
-317.130179630142
 10
109.146483123312
 20
-320.778779577844
 10
108.306737604355
 20
-320.778779577844
 10
108.949989605331
 20
-317.130179630142
  0
LWPOLYLINE
  5
1A2
330
1F
100
AcDbEntity
  8
1
  6
Continuous
 62
     2
 60
     1
100
AcDbPolyline
 90
        2
 70
     0
 43
0.0
 10
179.135188516593
 20
-239.128779576914
 10
183.735188516409
 20
-236.628779577014
  0
LWPOLYLINE
  5
1A3
330
1F
100
AcDbEntity
  8
1
  6
Continuous
 62
     2
 60
     1
100
AcDbPolyline
 90
        2
 70
     0
 43
0.0
 10
182.635188516453
 20
-312.628779573975
 10
183.735188516409
 20
-315.128779573875
  0
LWPOLYLINE
  5
1A4
330
1F
100
AcDbEntity
  8
1
  6
Continuous
 62
     2
 60
     1
100
AcDbPolyline
 90
        3
 70
     0
 43
0.0
 10
182.635188516453
 20
-324.878779573484
 10
182.635188516453
 20
-325.878779573444
 10
178.23518851663
 20
-325.878779573444
  0
LWPOLYLINE
  5
1A5
330
1F
100
AcDbEntity
  8
1
  6
Continuous
 62
     2
 60
     1
100
AcDbPolyline
 90
        2
 70
     0
 43
0.0
 10
186.235188516309
 20
-335.878779573044
 10
186.235188516309
 20
-333.378779573144
  0
LWPOLYLINE
  5
1A6
330
1F
100
AcDbEntity
  8
1
  6
Continuous
 62
     2
 60
     1
100
AcDbPolyline
 90
        4
 70
     0
 43
0.0
 10
186.235188516309
 20
-311.378779574025
 10
186.232719968398
 20
-315.128779573875
 10
182.635188516453
 20
-315.128779573875
 10
182.635188516453
 20
-312.428779573983
  0
LWPOLYLINE
  5
1A7
330
1F
100
AcDbEntity
  8
1
  6
Continuous
 62
     2
 60
     1
100
AcDbPolyline
 90
        4
 70
     0
 43
0.0
 10
186.235188516309
 20
-240.378779576865
 10
191.335188516105
 20
-240.385012169601
 10
191.335188516105
 20
-243.378779576745
 10
183.735188516409
 20
-243.378779576745
  0
MTEXT
  5
1A9
330
1F
100
AcDbEntity
  8
3
 62
     2
100
AcDbMText
 10
104.277598066621
 20
-261.628779577844
 30
0.0
 40
2.5
 41
0.0
 46
0.0
 71
     5
 72
     1
  1
AIRCON
  7
CONVERTER_11
 73
     1
 44
1.0
  0
DIMENSION
  5
1BC
330
1F
100
AcDbEntity
  8
1
100
AcDbDimension
280
     0
  2
*D2
 10
160.037240149434
 20
-335.878779573044
 30
0.0
 11
157.537240149434
 21
-275.878779575444
 31
0.0
 70
    32
  1
120
 71
     5
 42
-1.0
 73
     0
 74
     0
 75
     0
 53
90.0
  3
ME10_DIM_10
100
AcDbAlignedDimension
 13
130.277598066982
 23
-215.878779577844
 33
0.0
 14
130.277598066982
 24
-335.878779573044
 34
0.0
 50
90.0
100
AcDbRotatedDimension
  0
DIMENSION
  5
1C9
330
1F
100
AcDbEntity
  8
1
100
AcDbDimension
280
     0
  2
*D4
 10
139.2775980666222
 20
-349.235818501068
 30
0.0
 11
104.277598068022
 21
-346.735818501068
 31
0.0
 70
    32
  1
70
 71
     5
 42
-1.0
 73
     0
 74
     0
 75
     0
 53
0.00013888888889
  3
ME10_DIM_11
100
AcDbAlignedDimension
 13
69.2775980694215
 23
-326.878779573404
 33
0.0
 14
139.277598066622
 24
-326.878779573404
 34
0.0
100
AcDbRotatedDimension
  0
DIMENSION
  5
1D6
330
1F
100
AcDbEntity
  8
1
100
AcDbDimension
280
     0
  2
*D5
 10
186.235188516309
 20
-348.316807055236
 30
0.0
 11
181.735188516489
 21
-345.816807055236
 31
0.0
 70
    32
  1
9
 71
     5
 42
-1.0
 73
     0
 74
     0
 75
     0
 53
0.00013888888889
  3
ME10_DIM_12
100
AcDbAlignedDimension
 13
177.235188516669
 23
-325.22877957347
 33
0.0
 14
186.235188516309
 24
-335.878779573044
 34
0.0
100
AcDbRotatedDimension
  0
DIMENSION
  5
1E3
330
1F
100
AcDbEntity
  8
1
100
AcDbDimension
280
     0
  2
*D6
 10
203.835188516309
 20
-348.316807055236
 30
0.0
 11
195.035188516309
 21
-345.816807055236
 31
0.0
 70
    32
  1
17.6
 71
     5
 42
-1.0
 73
     0
 74
     0
 75
     0
 53
0.00013888888889
  3
ME10_DIM_13
100
AcDbAlignedDimension
 13
186.235188516309
 23
-335.878779573044
 33
0.0
 14
203.835188516309
 24
-270.328779577845
 34
0.0
100
AcDbRotatedDimension
  0
DIMENSION
  5
1F0
330
1F
100
AcDbEntity
  8
1
100
AcDbDimension
280
     0
  2
*D7
 10
150.900231173809
 20
-277.378779577844
 30
0.0
 11
148.400231173809
 21
-246.628779577844
 31
0.0
 70
    32
  1
<>
 71
     5
 42
-1.0
 73
     0
 74
     0
 75
     0
 53
90.0
  3
ME10_DIM_14
100
AcDbAlignedDimension
 13
130.277598066982
 23
-215.878779577844
 33
0.0
 14
113.721875368075
 24
-277.378779577844
 34
0.0
 50
90.0
100
AcDbRotatedDimension
  0
HATCH
  5
1F1
330
1F
100
AcDbEntity
  8
1
  6
Continuous
 62
     2
100
AcDbHatch
 10
0.0
 20
0.0
 30
0.0
210
0.0
220
0.0
230
1.0
  2
_USER
 70
     0
 71
     1
 91
        1
 92
        1
 93
       26
 72
     2
 10
108.31076549973
 20
-318.20474423772
 40
1.16126700730329
 50
129.5962039697262
 51
141.1863029697069
 73
     1
 72
     2
 10
108.131835549111
 20
-318.069262890438
 40
0.936951690990554
 50
140.7835536600227
 51
152.355519660058
 73
     1
 72
     2
 10
107.933112331512
 20
-317.969128290706
 40
0.7144617286603709
 50
152.0747765459332
 51
161.2101005458784
 73
     1
 72
     2
 10
107.752203289857
 20
-317.911964044547
 40
0.5247979391411646
 50
160.7567009453938
 51
172.0412979454334
 73
     1
 72
     2
 10
107.620875849382
 20
-317.895484438642
 40
0.392458093595454
 50
171.7693679108821
 51
182.1052619108807
 73
     1
 72
     2
 10
107.532689944116
 20
-317.900385452593
 40
0.3041561904236547
 50
181.7929036708259
 51
194.2137406709141
 73
     1
 72
     2
 10
107.471339437573
 20
-317.918484064725
 40
0.2402527131095697
 50
193.6221642583976
 51
219.7303462581729
 73
     1
 72
     2
 10
107.480397284149
 20
-317.905480615285
 40
0.2555649271019911
 50
220.6744409999241
 51
246.4025049999991
 73
     1
 72
     2
 10
107.514080527805
 20
-317.81508358311
 40
0.3519268991416745
 50
247.2686791241861
 51
262.784327124152
 73
     1
 72
     2
 10
107.528586255835
 20
-317.664408530738
 40
0.5032510792411705
 50
263.3006079722006
 51
274.6207639722235
 73
     1
 72
     2
 10
107.509557528396
 20
-317.479992545652
 40
0.6886128904459197
 50
274.9627619544887
 51
284.1140219544446
 73
     1
 72
     2
 10
107.439323006261
 20
-317.234518070793
 40
0.9438400244729541
 50
284.6151343846589
 51
295.7809723846535
 73
     1
 72
     2
 10
107.325510474629
 20
-317.016334210283
 40
1.189831497694043
 50
296.1464119999554
 51
309.8284160000322
 73
     1
 72
     2
 10
107.332574964672
 20
-317.020352562718
 40
1.182224239001141
 50
309.6902162226406
 51
319.0422472226049
 73
     1
 72
     2
 10
107.481327314605
 20
-317.141478139198
 40
0.9905077669162522
 50
318.6931910000058
 51
329.881625
 73
     1
 72
     2
 10
107.698848767131
 20
-317.260879243143
 40
0.7424629028726143
 50
329.4287205410139
 51
340.6025205409623
 73
     1
 72
     2
 10
107.894782887539
 20
-317.325624012092
 40
0.5361624790570227
 50
340.1746499999049
 51
351.2914479999645
 73
     1
 72
     2
 10
108.029041649435
 20
-317.344240730471
 40
0.4006374480857721
 50
351.0160342530257
 51
361.207706253091
 73
     1
 72
     2
 10
108.123297426086
 20
-317.340099171411
 40
0.3063228919285292
 50
0.8048068928325286
 51
14.20824089281042
 73
     1
 72
     2
 10
108.186446635461
 20
-317.321589025191
 40
0.2405745728950325
 50
13.62612679825478
 51
39.71189079801339
 73
     1
 72
     2
 10
108.177665866221
 20
-317.334543320414
 40
0.255643281892164
 50
40.68800599980889
 51
66.40238499984507
 73
     1
 72
     2
 10
108.144084410378
 20
-317.424808133929
 40
0.3518439585826454
 50
67.27536732622083
 51
82.7926863263146
 73
     1
 72
     2
 10
108.129610246514
 20
-317.574842603697
 40
0.5025287100050086
 50
83.30159943864254
 51
94.63706843864577
 73
     1
 72
     2
 10
108.148756559905
 20
-317.760803378097
 40
0.6894405499826575
 50
94.97363374560592
 51
104.1133017455563
 73
     1
 72
     2
 10
108.21872890447
 20
-318.004986662
 40
0.9433520129192762
 50
104.6185478248628
 51
115.7891618248857
 73
     1
 72
     2
 10
108.332390715381
 20
-318.223024521388
 40
1.18914686978348
 50
116.1496395333902
 51
129.8376975334008
 73
     1
 97
       26
330
122
330
123
330
124
330
125
330
126
330
10D
330
10E
330
10F
330
110
330
111
330
112
330
113
330
114
330
115
330
116
330
117
330
118
330
119
330
11A
330
11B
330
11C
330
11D
330
11E
330
11F
330
120
330
121
 75
     1
 76
     0
 52
44.99999999999998
 41
0.02
 77
     0
 78
     1
 53
44.99999999999998
 43
0.0
 44
0.0
 45
-0.0141421356237309
 46
0.014142135623731
 79
     0
 98
        1
 10
0.0
 20
0.0
  0
HATCH
  5
1F2
330
1F
100
AcDbEntity
  8
1
  6
Continuous
 62
     2
100
AcDbHatch
 10
0.0
 20
0.0
 30
0.0
210
0.0
220
0.0
230
1.0
  2
_USER
 70
     0
 71
     1
 91
        1
 92
        1
 93
        5
 72
     1
 10
108.949989605331
 20
-317.130179630142
 11
108.949989605331
 21
-317.130179630142
 72
     1
 10
108.949989605331
 20
-317.130179630142
 11
109.789870671782
 21
-317.130179630142
 72
     1
 10
109.789870671782
 20
-317.130179630142
 11
109.146483123312
 21
-320.778779577844
 72
     1
 10
109.146483123312
 20
-320.778779577844
 11
108.306737604355
 21
-320.778779577844
 72
     1
 10
108.306737604355
 20
-320.778779577844
 11
108.949989605331
 21
-317.130179630142
 97
        1
330
1A1
 75
     1
 76
     0
 52
44.99999999999998
 41
0.02
 77
     0
 78
     1
 53
44.99999999999998
 43
0.0
 44
0.0
 45
-0.0141421356237309
 46
0.014142135623731
 79
     0
 98
        1
 10
0.0
 20
0.0
  0
HATCH
  5
1F3
330
1F
100
AcDbEntity
  8
1
  6
Continuous
 62
     2
100
AcDbHatch
 10
0.0
 20
0.0
 30
0.0
210
0.0
220
0.0
230
1.0
  2
_USER
 70
     0
 71
     1
 91
        2
 92
        1
 93
       33
 72
     2
 10
100.772428647897
 20
-320.348764637864
 40
2.100055489471197
 50
120.0153574223165
 51
129.9085234223134
 73
     1
 72
     2
 10
100.773924863382
 20
-320.35624463518
 40
2.106756250457277
 50
129.8092247568344
 51
146.5729887568428
 73
     1
 72
     2
 10
100.495128281949
 20
-320.15679838508
 40
1.764253063320839
 50
146.9910760000004
 51
160.2087279999974
 73
     1
 72
     2
 10
100.158084204438
 20
-320.023539797927
 40
1.402042012200681
 50
160.6691293902077
 51
173.4029843902161
 73
     1
 72
     2
 10
99.855461384382
 20
-319.97888678191
 40
1.096334901042936
 50
173.9041971925649
 51
187.5362291925497
 73
     1
 72
     2
 10
99.6362189868271
 20
-319.999913203988
 40
0.876264309087568
 50
188.0534110973958
 51
206.0652620973802
 73
     1
 72
     2
 10
99.5439267708976
 20
-320.036673725589
 40
0.7772428623015005
 50
206.6204270000414
 51
219.7647420000692
 73
     1
 72
     2
 10
99.5496655360369
 20
-320.030127390778
 40
0.7858425764108651
 50
219.8639939517875
 51
245.1564099517593
 73
     1
 72
     2
 10
99.6128294013623
 20
-319.907792504628
 40
0.9234131695132534
 50
244.7890554228067
 51
258.4029204227984
 73
     1
 72
     2
 10
99.6592743252938
 20
-319.713700587901
 40
1.122898217005186
 50
258.0723350480195
 51
269.875272048026
 73
     1
 72
     2
 10
99.6676415913396
 20
-319.466747693147
 40
1.369891116890722
 50
269.5477946105631
 51
279.8304686105628
 73
     1
 72
     2
 10
99.6350739962761
 20
-319.235078181644
 40
1.603736831958622
 50
279.5637937755421
 51
286.1150377755288
 73
     1
 72
     1
 10
100.080218110543
 20
-320.775798319668
 11
100.459613265107
 21
-320.083815932527
 72
     1
 10
100.459613265107
 20
-320.083815932527
 11
100.468069210259
 21
-320.083815932527
 72
     2
 10
103.196964396759
 20
-320.794363073041
 40
2.819884071694344
 50
165.4054428034651
 51
172.2633608034604
 73
     1
 72
     2
 10
103.608997248976
 20
-320.862948054215
 40
3.237423324612656
 50
172.0422620432207
 51
178.5102220432227
 73
     1
 72
     1
 10
100.372668240619
 20
-320.778779577844
 11
101.226994909541
 21
-320.778779577844
 72
     2
 10
106.586430953569
 20
-321.000533871507
 40
5.364021781908117
 50
182.3693429235601
 51
184.1266519235639
 73
     0
 72
     2
 10
110.105205837233
 20
-321.240340580399
 40
8.890941849847643
 50
184.0362320213526
 51
187.7948850213479
 73
     0
 72
     2
 10
105.976152556845
 20
-320.686704910668
 40
4.724967179111786
 50
187.9342339999928
 51
189.6659669999964
 73
     0
 72
     2
 10
103.751008169311
 20
-320.311914779064
 40
2.468487095878851
 50
189.7620819723747
 51
191.7182459723926
 73
     0
 72
     2
 10
105.675849840617
 20
-320.726729875809
 40
4.437486306664016
 50
191.9149692999976
 51
194.8190782999881
 73
     0
 72
     2
 10
111.911921675984
 20
-322.357333827928
 40
10.88320735596109
 50
194.7210600370374
 51
195.2408080370382
 73
     0
 72
     2
 10
100.14968962339
 20
-319.119658110711
 40
1.316833678122099
 50
343.3758009999763
 51
347.9823909999968
 73
     1
 72
     1
 10
101.437663121624
 20
-319.393839079569
 11
101.439451878716
 21
-319.3852205112
 72
     2
 10
100.241454287436
 20
-319.135657303048
 40
1.223715662879164
 50
348.2326105440091
 51
359.8957275440029
 73
     1
 72
     2
 10
100.489753033856
 20
-319.142235680671
 40
0.975424595624163
 50
0.2555957012897531
 51
16.68000770127911
 73
     1
 72
     2
 10
100.658246512369
 20
-319.101221187314
 40
0.8022999366332312
 50
17.32798900119504
 51
39.46459300123161
 73
     1
 72
     2
 10
100.672334004113
 20
-319.097100000102
 40
0.7888258351730228
 50
39.88387064825502
 51
66.77589464826188
 73
     1
 72
     2
 10
100.601739170465
 20
-319.242288840556
 40
0.9501180901160292
 50
66.31623010724708
 51
81.74384410726381
 73
     1
 72
     2
 10
100.556483025113
 20
-319.484854354854
 40
1.196709788071844
 50
81.2672176579888
 51
94.33168965796477
 73
     1
 72
     2
 10
100.568539205645
 20
-319.790120888649
 40
1.502055473951771
 50
93.91075235407699
 51
106.3708793540622
 73
     1
 72
     2
 10
100.651907053602
 20
-320.115990893334
 40
1.838249652511109
 50
106.0012220791002
 51
120.3919490791237
 73
     1
 97
       32
330
144
330
143
330
142
330
141
330
15D
330
15C
330
15B
330
19E
330
15A
330
159
330
158
330
157
330
156
330
155
330
154
330
19F
330
153
330
152
330
1A0
330
151
330
150
330
14F
330
14E
330
14D
330
14C
330
14B
330
14A
330
149
330
148
330
147
330
146
330
145
 92
       16
 93
       26
 72
     2
 10
99.6265403485783
 20
-318.975504089074
 40
1.158118501363605
 50
309.6662581384232
 51
319.0399021384288
 73
     1
 72
     2
 10
99.7709864589018
 20
-319.092889841996
 40
0.9721061870080081
 50
318.6836988542302
 51
329.8771578542115
 73
     1
 72
     2
 10
99.9843595206059
 20
-319.210061681039
 40
0.7287680732385746
 50
329.4263049999846
 51
340.6034040000606
 73
     1
 72
     2
 10
100.177149607738
 20
-319.273743383427
 40
0.5257861802797886
 50
340.1719497575871
 51
351.3017747574754
 73
     1
 72
     2
 10
100.308236923276
 20
-319.291889492613
 40
0.3934668410497992
 50
351.0269989999037
 51
361.2146609998999
 73
     1
 72
     2
 10
100.401053747012
 20
-319.287841004494
 40
0.3005922498719898
 50
0.8181851126477285
 51
14.22632411274998
 73
     1
 72
     2
 10
100.463173316343
 20
-319.26962267189
 40
0.2359126670270448
 50
13.6449919196297
 51
39.75717291952712
 73
     1
 72
     2
 10
100.455090490636
 20
-319.281173494311
 40
0.2495411814963258
 50
40.6091699240664
 51
66.47130992411704
 73
     1
 72
     2
 10
100.421295950721
 20
-319.370865200912
 40
0.3453006575725812
 50
67.27125103844672
 51
82.7918730385954
 73
     1
 72
     2
 10
100.40706929779
 20
-319.518385107098
 40
0.4934593542142959
 50
83.30226500011766
 51
94.63365700008903
 73
     1
 72
     2
 10
100.425757402733
 20
-319.700095264197
 40
0.6760968423486811
 50
94.96820397714035
 51
104.1167399770891
 73
     1
 72
     2
 10
100.494614480949
 20
-319.940702980404
 40
0.926267889285455
 50
104.6174025331642
 51
115.7844065331375
 73
     1
 72
     2
 10
100.606210702742
 20
-320.154782426801
 40
1.167599005852048
 50
116.1457620032274
 51
129.8286600032553
 73
     1
 72
     2
 10
100.599761074394
 20
-320.151588954406
 40
1.161019229713572
 50
129.6851672547304
 51
139.0366702547442
 73
     1
 72
     2
 10
100.453657505928
 20
-320.032585195162
 40
0.9726941571377213
 50
138.6880290200265
 51
149.8755000200113
 73
     1
 72
     2
 10
100.23988733561
 20
-319.915198127492
 40
0.7289048712646744
 50
149.4231452026302
 51
160.5982272026691
 73
     1
 72
     2
 10
100.047040343507
 20
-319.851499055299
 40
0.5258640485863733
 50
160.1645638591302
 51
171.2923888591168
 73
     1
 72
     2
 10
99.9159322204799
 20
-319.833342204921
 40
0.3935228942014827
 50
171.0155833859241
 51
181.2017393859723
 73
     1
 72
     2
 10
99.823229806084
 20
-319.837365404837
 40
0.3007636715358216
 50
180.8058583086236
 51
194.2057943085702
 73
     1
 72
     2
 10
99.7609824786221
 20
-319.855598404945
 40
0.2359575587512425
 50
193.623104502679
 51
219.7286005026021
 73
     1
 72
     2
 10
99.7691276650341
 20
-319.843728697342
 40
0.2498392062905426
 50
220.6282444527417
 51
246.4697914528163
 73
     1
 72
     2
 10
99.802913669904
 20
-319.753949181399
 40
0.3456762549571276
 50
247.2763922012705
 51
262.7844612012178
 73
     1
 72
     2
 10
99.8170707208666
 20
-319.60686584481
 40
0.493392828469025
 50
263.2987984271001
 51
274.6336054270879
 73
     1
 72
     2
 10
99.7983119769205
 20
-319.424736824871
 40
0.6764537226782783
 50
274.9710874440907
 51
284.1156984440977
 73
     1
 72
     2
 10
99.7298031360894
 20
-319.185391329088
 40
0.9253154011360363
 50
284.6153069999974
 51
295.7947280000183
 73
     1
 72
     2
 10
99.6178285993868
 20
-318.970549718067
 40
1.167498469908555
 50
296.1544211668951
 51
309.840165166879
 73
     1
 97
       26
330
128
330
129
330
12A
330
12B
330
12C
330
12D
330
12E
330
12F
330
130
330
131
330
132
330
133
330
134
330
135
330
136
330
137
330
138
330
139
330
13A
330
13B
330
13C
330
13D
330
13E
330
13F
330
140
330
127
 75
     1
 76
     0
 52
44.99999999999998
 41
0.02
 77
     0
 78
     1
 53
44.99999999999998
 43
0.0
 44
0.0
 45
-0.0141421356237309
 46
0.014142135623731
 79
     0
 98
        1
 10
0.0
 20
0.0
  0
HATCH
  5
1F4
330
1F
100
AcDbEntity
  8
1
  6
Continuous
 62
     2
100
AcDbHatch
 10
0.0
 20
0.0
 30
0.0
210
0.0
220
0.0
230
1.0
  2
_USER
 70
     0
 71
     1
 91
        2
 92
        1
 93
       27
 72
     1
 10
105.516339976937
 20
-317.130179630142
 11
104.676540254717
 21
-317.130179630142
 72
     1
 10
104.676540254717
 20
-317.130179630142
 11
104.174045318706
 21
-319.723406159448
 72
     2
 10
105.382260559814
 20
-319.991415180805
 40
1.237583493900261
 50
167.4930325123341
 51
179.2807385123332
 73
     1
 72
     2
 10
105.13315771185
 20
-319.981895978444
 40
0.9884014427995844
 50
179.6512401139761
 51
195.0619061139858
 73
     1
 72
     2
 10
104.95885169971
 20
-320.020193337318
 40
0.810174216461943
 50
195.6498800000539
 51
219.3542210000577
 73
     1
 72
     2
 10
104.937646769464
 20
-320.028088099285
 40
0.7888057030824233
 50
219.8875063548789
 51
246.7792993548947
 73
     1
 72
     2
 10
105.008359987325
 20
-319.882529346755
 40
0.950483895524114
 50
246.3214676723572
 51
261.7428906723246
 73
     1
 72
     2
 10
105.053517325828
 20
-319.64052706089
 40
1.19650401175119
 50
261.2671877485893
 51
274.3339117485985
 73
     1
 72
     2
 10
105.04151639709
 20
-319.335304733484
 40
1.501801489623247
 50
273.910476999997
 51
286.3730569999871
 73
     1
 72
     2
 10
104.958128049061
 20
-319.009164617538
 40
1.838260601153491
 50
286.0012434857458
 51
300.3927394857512
 73
     1
 72
     2
 10
104.83693976895
 20
-318.775333760922
 40
2.101315114190594
 50
300.0173726077296
 51
309.905674607718
 73
     1
 72
     2
 10
104.836211518894
 20
-318.768883229462
 40
2.106733559363972
 50
309.8083236191444
 51
326.5709136191682
 73
     1
 72
     2
 10
105.115558646684
 20
-318.968666850342
 40
1.763584347460998
 50
326.9880500225884
 51
340.2102080225818
 73
     1
 72
     2
 10
105.451823932576
 20
-319.101636744893
 40
1.402204133198923
 50
340.670613000004
 51
353.4026659999935
 73
     1
 72
     2
 10
105.75471848718
 20
-319.146370381862
 40
1.096218189138788
 50
353.9063975918386
 51
367.5399505918684
 73
     1
 72
     2
 10
105.974305555065
 20
-319.125228302423
 40
0.8757907680171776
 50
8.05380499999622
 51
26.07663999995842
 73
     1
 72
     2
 10
106.06591386155
 20
-319.088756730634
 40
0.777511905570532
 50
26.63003421921962
 51
39.77163321923512
 73
     1
 72
     2
 10
106.06035405035
 20
-319.094876524933
 40
0.7857010268568634
 50
39.855268946263
 51
65.15113494628122
 73
     1
 72
     2
 10
105.997557335191
 20
-319.216307724644
 40
0.9222980971132864
 50
64.78122842795557
 51
78.41110742797581
 73
     1
 72
     2
 10
105.95084007847
 20
-319.411088701172
 40
1.122512860713954
 50
78.07240196546334
 51
89.87991696543298
 73
     1
 72
     2
 10
105.942495712846
 20
-319.659546847809
 40
1.371010272916797
 50
89.5529589999878
 51
99.82869999998559
 73
     1
 72
     2
 10
105.975000025701
 20
-319.890868415582
 40
1.604502550923592
 50
99.5623045377674
 51
106.1118585377914
 73
     1
 72
     1
 10
105.529728906504
 20
-318.349387936844
 11
105.150482579179
 21
-319.04134328425
 72
     1
 10
105.150482579179
 20
-319.04134328425
 11
105.141376116191
 21
-319.04134328425
 72
     2
 10
99.4316011561753
 20
-317.658962276559
 40
5.874734661620637
 50
346.3901312414715
 51
347.3746032414722
 73
     1
 72
     2
 10
103.621272049595
 20
-318.594805422869
 40
1.581819508596011
 50
347.2823746486337
 51
348.893533648658
 73
     1
 72
     1
 10
105.173465549702
 20
-318.899515606488
 11
105.516339976937
 21
-317.130179630142
 97
       24
330
17E
330
17D
330
19D
330
17C
330
17B
330
17A
330
179
330
178
330
18D
330
18C
330
18B
330
18A
330
189
330
188
330
187
330
186
330
185
330
184
330
183
330
182
330
181
330
180
330
17F
330
19C
 92
       16
 93
       26
 72
     2
 10
105.012302096643
 20
-318.975428182062
 40
1.158257034524548
 50
309.6686389999724
 51
319.0403259999537
 73
     1
 72
     2
 10
105.157286505344
 20
-319.093221016906
 40
0.9715716001083723
 50
318.6813273631705
 51
329.8795973631703
 73
     1
 72
     2
 10
105.37023227918
 20
-319.210076055585
 40
0.7287622004720535
 50
329.4248693993849
 51
340.6009123994211
 73
     1
 72
     2
 10
105.562825003986
 20
-319.273686251466
 40
0.5259904631763547
 50
340.1684578138455
 51
351.2936588137995
 73
     1
 72
     2
 10
105.693992786586
 20
-319.291847955134
 40
0.3935895654202829
 50
351.0167109999267
 51
361.2015780000311
 73
     1
 72
     2
 10
105.786610432559
 20
-319.287817765891
 40
0.3009150106887594
 50
0.8041772590220392
 51
14.19886125913931
 73
     1
 72
     2
 10
105.848821137336
 20
-319.269609000924
 40
0.2361505595629116
 50
13.61826567683378
 51
39.70484867673294
 73
     1
 72
     2
 10
105.840952849216
 20
-319.281301201706
 40
0.2497048967247691
 50
40.6155486352862
 51
66.46427763523239
 73
     1
 72
     2
 10
105.807244283502
 20
-319.370873178111
 40
0.3453202768573312
 50
67.27126882945437
 51
82.79243682939415
 73
     1
 72
     2
 10
105.793011371731
 20
-319.518458112365
 40
0.4935443172401005
 50
83.3027979999806
 51
94.63332099999722
 73
     1
 72
     2
 10
105.811928520725
 20
-319.701524818663
 40
0.6775530839178934
 50
94.97727858655318
 51
104.1071995864917
 73
     1
 72
     2
 10
105.880782110959
 20
-319.941466125503
 40
0.9270773612206193
 50
104.6198289999829
 51
115.7788160000166
 73
     1
 72
     2
 10
105.992510029618
 20
-320.155683930909
 40
1.168590122003352
 50
116.1438837228705
 51
129.8179147228662
 73
     1
 72
     2
 10
105.984498177411
 20
-320.150406621109
 40
1.159409639191552
 50
129.6808068681945
 51
139.0437708682014
 73
     1
 72
     2
 10
105.839063298505
 20
-320.032146297682
 40
0.9720767691769497
 50
138.6890259999727
 51
149.8826739999512
 73
     1
 72
     2
 10
105.626068173958
 20
-319.91526112083
 40
0.729209120747133
 50
149.4293519873795
 51
160.5997069873745
 73
     1
 72
     2
 10
105.433017307919
 20
-319.851486479429
 40
0.525950726626547
 50
160.1670741000148
 51
171.2937341001032
 73
     1
 72
     2
 10
105.302110033952
 20
-319.833361216755
 40
0.3938128293720391
 50
171.0174650000376
 51
181.196854999973
 73
     1
 72
     2
 10
105.209294965704
 20
-319.83736725716
 40
0.3009414292183278
 50
180.8034164407074
 51
194.1962004407948
 73
     1
 72
     2
 10
105.146871947152
 20
-319.855634606628
 40
0.2359569803150362
 50
193.6132501492508
 51
219.7172871493472
 73
     1
 72
     2
 10
105.154997151461
 20
-319.843712786303
 40
0.2498566595598246
 50
220.6296171842208
 51
246.4697221840565
 73
     1
 72
     2
 10
105.188785850403
 20
-319.75390356881
 40
0.3457221391161157
 50
247.2777910446116
 51
262.784403044697
 73
     1
 72
     2
 10
105.202940246089
 20
-319.606809904286
 40
0.4934486551674864
 50
263.29915600001
 51
274.6332710000202
 73
     1
 72
     2
 10
105.184176094414
 20
-319.424645933511
 40
0.6765448194013925
 50
274.9710154440004
 51
284.1148174439958
 73
     1
 72
     2
 10
105.11564773856
 20
-319.185261524465
 40
0.9254489818936031
 50
284.6151750000043
 51
295.7933719999567
 73
     1
 72
     2
 10
105.003761593824
 20
-318.970605810095
 40
1.167426085419961
 50
296.1534327138019
 51
309.8402037138131
 73
     1
 97
       26
330
15F
330
160
330
161
330
162
330
163
330
164
330
165
330
166
330
167
330
168
330
169
330
16A
330
16B
330
16C
330
16D
330
16E
330
16F
330
170
330
171
330
172
330
173
330
174
330
175
330
176
330
177
330
15E
 75
     1
 76
     0
 52
44.99999999999998
 41
0.02
 77
     0
 78
     1
 53
44.99999999999998
 43
0.0
 44
0.0
 45
-0.0141421356237309
 46
0.014142135623731
 79
     0
 98
        1
 10
0.0
 20
0.0
  0
HATCH
  5
1F5
330
1F
100
AcDbEntity
  8
1
  6
Continuous
 62
     2
100
AcDbHatch
 10
0.0
 20
0.0
 30
0.0
210
0.0
220
0.0
230
1.0
  2
_USER
 70
     0
 71
     1
 91
        1
 92
        1
 93
       19
 72
     1
 10
103.963594027629
 20
-318.867534658175
 11
104.064659435004
 21
-318.346379638933
 72
     1
 10
104.064659435004
 20
-318.346379638933
 11
102.023159588396
 21
-318.346379638933
 72
     1
 10
102.023159588396
 20
-318.346379638933
 11
101.900683105147
 21
-319.041397487513
 72
     1
 10
101.900683105147
 20
-319.041397487513
 11
102.885996484403
 21
-319.041397487513
 72
     1
 10
102.885996484403
 20
-319.041397487513
 11
102.876240922102
 21
-319.051261696178
 72
     2
 10
107.479842743066
 20
-324.436754802106
 40
7.084961942027706
 50
130.5243280000003
 51
133.432957000002
 73
     1
 72
     2
 10
106.962244838868
 20
-323.861633517458
 40
6.311499650718299
 50
133.6102510084924
 51
135.0747400084902
 73
     1
 72
     2
 10
109.226753082758
 20
-326.128293047451
 40
9.515516107626125
 50
135.0404143844825
 51
135.6484943844799
 73
     1
 72
     2
 10
121.894385484387
 20
-338.492615902561
 40
27.21707876680212
 50
135.6782289999996
 51
136.104765
 73
     1
 72
     1
 10
102.28151967042
 20
-319.621874762859
 11
101.6693899118
 21
-320.239655586648
 72
     1
 10
101.6693899118
 20
-320.239655586648
 11
101.574354833858
 21
-320.778779577844
 72
     1
 10
101.574354833858
 20
-320.778779577844
 11
103.673705060767
 21
-320.778779577844
 72
     1
 10
103.673705060767
 20
-320.778779577844
 11
103.796208606313
 21
-320.083870135791
 72
     1
 10
103.796208606313
 20
-320.083870135791
 11
102.766934964109
 21
-320.083870135791
 72
     1
 10
102.766934964109
 20
-320.083870135791
 11
102.771732070955
 21
-320.073950623847
 72
     2
 10
99.6082133743737
 20
-316.302595065784
 40
4.922496652000104
 50
309.9908663513065
 51
315.3183623513024
 73
     1
 72
     2
 10
97.0035237485219
 20
-313.718472922286
 40
8.591566797753925
 50
315.2793919795306
 51
316.5575309795315
 73
     1
 72
     2
 10
68.2399665823663
 20
-286.367898075304
 40
48.28281311276709
 50
316.4629129862466
 51
316.6639789862468
 73
     1
 72
     1
 10
103.358057879531
 20
-319.503222213244
 11
103.963594027629
 21
-318.867534658175
 97
       10
330
194
330
193
330
192
330
19A
330
191
330
190
330
18F
330
18E
330
19B
330
199
 75
     1
 76
     0
 52
44.99999999999998
 41
0.02
 77
     0
 78
     1
 53
44.99999999999998
 43
0.0
 44
0.0
 45
-0.0141421356237309
 46
0.014142135623731
 79
     0
 98
        1
 10
0.0
 20
0.0
  0
HATCH
  5
1F6
330
1F
100
AcDbEntity
  8
1
  6
Continuous
 62
     2
100
AcDbHatch
 10
0.0
 20
0.0
 30
0.0
210
0.0
220
0.0
230
1.0
  2
_USER
 70
     0
 71
     1
 91
        1
 92
        1
 93
        6
 72
     2
 10
107.255394869425
 20
-316.988596461009
 40
1.922587624613193
 50
286.5182796056529
 51
298.9539226056276
 73
     1
 72
     1
 10
108.18613125171
 20
-318.670878530404
 11
107.814501009689
 21
-320.778779577844
 72
     1
 10
107.814501009689
 20
-320.778779577844
 11
106.974701287468
 21
-320.778779577844
 72
     1
 10
106.974701287468
 20
-320.778779577844
 11
107.307385396733
 21
-318.891710177997
 72
     2
 10
107.385326684016
 20
-317.550114988641
 40
1.343857319943827
 50
266.6750828688924
 51
275.4218938688996
 73
     1
 72
     2
 10
107.351134951751
 20
-317.280075325517
 40
1.61594201738225
 50
275.7240935244152
 51
286.2021765244215
 73
     1
 97
        4
330
195
330
198
330
197
330
196
 75
     1
 76
     0
 52
44.99999999999998
 41
0.02
 77
     0
 78
     1
 53
44.99999999999998
 43
0.0
 44
0.0
 45
-0.0141421356237309
 46
0.014142135623731
 79
     0
 98
        1
 10
0.0
 20
0.0
  0
ENDSEC
  0
SECTION
  2
OBJECTS
  0
DICTIONARY
  5
C
330
0
100
AcDbDictionary
281
     1
  3
ACAD_DETAILVIEWSTYLE
350
22E
  3
ACAD_GROUP
350
D
  3
ACAD_LAYOUT
350
1A
  3
ACAD_MATERIAL
350
43
  3
ACAD_MLEADERSTYLE
350
6B
  3
ACAD_MLINESTYLE
350
17
  3
ACAD_PLOTSETTINGS
350
19
  3
ACAD_PLOTSTYLENAME
350
E
  3
ACAD_SCALELIST
350
47
  3
ACAD_SECTIONVIEWSTYLE
350
22F
  3
ACAD_TABLESTYLE
350
69
  3
ACAD_VISUALSTYLE
350
2A
  3
ACDB_RECOMPOSE_DATA
350
22B
  3
AcDbVariableDictionary
350
1F7
  0
SUN
  5
6D
330
29
100
AcDbSun
 90
        1
290
     0
 63
     7
421
 16777215
 40
1.0
291
     1
 91
  2455826
 92
 54000000
292
     0
 70
     2
 71
   256
280
     1
  0
DICTIONARY
  5
22E
102
{ACAD_REACTORS
330
C
102
}
330
C
100
AcDbDictionary
281
     1
  0
DICTIONARY
  5
D
102
{ACAD_REACTORS
330
C
102
}
330
C
100
AcDbDictionary
281
     1
  0
DICTIONARY
  5
1A
102
{ACAD_REACTORS
330
C
102
}
330
C
100
AcDbDictionary
281
     1
  3
Layout1
350
1E
  3
Layout2
350
26
  3
Model
350
22
  0
DICTIONARY
  5
43
102
{ACAD_REACTORS
330
C
102
}
330
C
100
AcDbDictionary
281
     1
  3
ByBlock
350
45
  3
ByLayer
350
44
  3
Global
350
46
  0
DICTIONARY
  5
6B
102
{ACAD_REACTORS
330
C
102
}
330
C
100
AcDbDictionary
281
     1
  3
Standard
350
6C
  0
DICTIONARY
  5
17
102
{ACAD_REACTORS
330
C
102
}
330
C
100
AcDbDictionary
281
     1
  3
Standard
350
18
  0
DICTIONARY
  5
19
102
{ACAD_REACTORS
330
C
102
}
330
C
100
AcDbDictionary
281
     1
  0
ACDBDICTIONARYWDFLT
  5
E
102
{ACAD_REACTORS
330
C
102
}
330
C
100
AcDbDictionary
281
     1
  3
Normal
350
F
100
AcDbDictionaryWithDefault
340
F
  0
DICTIONARY
  5
47
102
{ACAD_REACTORS
330
C
102
}
330
C
100
AcDbDictionary
281
     1
  3
A0
350
48
  3
A1
350
49
  3
A2
350
4A
  3
A3
350
4B
  3
A4
350
4C
  3
A5
350
4D
  3
A6
350
4E
  3
A7
350
4F
  3
A8
350
50
  3
A9
350
51
  3
B0
350
52
  3
B1
350
53
  3
B2
350
54
  3
B3
350
55
  3
B4
350
56
  3
B5
350
57
  3
B6
350
58
  3
B7
350
59
  3
B8
350
5A
  3
B9
350
5B
  3
C0
350
5C
  3
C1
350
5D
  3
C2
350
5E
  3
C3
350
5F
  3
C4
350
60
  3
C5
350
61
  3
C6
350
62
  3
C7
350
63
  3
C8
350
64
  3
C9
350
65
  3
D0
350
66
  3
D1
350
67
  3
D2
350
68
  0
DICTIONARY
  5
22F
102
{ACAD_REACTORS
330
C
102
}
330
C
100
AcDbDictionary
281
     1
  0
DICTIONARY
  5
69
102
{ACAD_REACTORS
330
C
102
}
330
C
100
AcDbDictionary
281
     1
  3
Standard
350
6A
  0
DICTIONARY
  5
2A
102
{ACAD_REACTORS
330
C
102
}
330
C
100
AcDbDictionary
281
     1
  3
2dWireframe
350
2F
  3
Basic
350
32
  3
Brighten
350
36
  3
ColorChange
350
3A
  3
Conceptual
350
34
  3
Dim
350
35
  3
EdgeColorOff
350
3D
  3
Facepattern
350
39
  3
Flat
350
2B
  3
FlatWithEdges
350
2C
  3
Gouraud
350
2D
  3
GouraudWithEdges
350
2E
  3
Hidden
350
31
  3
JitterOff
350
3B
  3
Linepattern
350
38
  3
OverhangOff
350
3C
  3
Realistic
350
33
  3
Shaded
350
42
  3
Shaded with edges
350
41
  3
Shades of Gray
350
3E
  3
Sketchy
350
3F
  3
Thicken
350
37
  3
Wireframe
350
30
  3
X-Ray
350
40
  0
XRECORD
  5
22B
102
{ACAD_REACTORS
330
C
102
}
330
C
100
AcDbXrecord
280
     1
 90
        1
330
6A
  0
DICTIONARY
  5
1F7
102
{ACAD_REACTORS
330
C
102
}
330
C
100
AcDbDictionary
281
     1
  3
CANNOSCALE
350
1F8
  3
CMLEADERSTYLE
350
22D
  3
CTABLESTYLE
350
22C
  0
LAYOUT
  5
1E
102
{ACAD_REACTORS
330
1A
102
}
330
1A
100
AcDbPlotSettings
  1

  2
none_device
  4

  6

 40
0.0
 41
0.0
 42
0.0
 43
0.0
 44
0.0
 45
0.0
 46
0.0
 47
0.0
 48
0.0
 49
0.0
140
0.0
141
0.0
142
1.0
143
1.0
 70
   688
 72
     0
 73
     0
 74
     5
  7

 75
    16
 76
     0
 77
     2
 78
   300
147
1.0
148
0.0
149
0.0
100
AcDbLayout
  1
Layout1
 70
     1
 71
     1
 10
0.0
 20
0.0
 11
12.0
 21
9.0
 12
0.0
 22
0.0
 32
0.0
 14
1.00000000000000E+20
 24
1.00000000000000E+20
 34
1.00000000000000E+20
 15
-1.00000000000000E+20
 25
-1.00000000000000E+20
 35
-1.00000000000000E+20
146
0.0
 13
0.0
 23
0.0
 33
0.0
 16
1.0
 26
0.0
 36
0.0
 17
0.0
 27
1.0
 37
0.0
 76
     0
330
1B
  0
LAYOUT
  5
26
102
{ACAD_REACTORS
330
1A
102
}
330
1A
100
AcDbPlotSettings
  1

  2
none_device
  4

  6

 40
0.0
 41
0.0
 42
0.0
 43
0.0
 44
0.0
 45
0.0
 46
0.0
 47
0.0
 48
0.0
 49
0.0
140
0.0
141
0.0
142
1.0
143
1.0
 70
   688
 72
     0
 73
     0
 74
     5
  7

 75
    16
 76
     0
 77
     2
 78
   300
147
1.0
148
0.0
149
0.0
100
AcDbLayout
  1
Layout2
 70
     1
 71
     2
 10
0.0
 20
0.0
 11
0.0
 21
0.0
 12
0.0
 22
0.0
 32
0.0
 14
0.0
 24
0.0
 34
0.0
 15
0.0
 25
0.0
 35
0.0
146
0.0
 13
0.0
 23
0.0
 33
0.0
 16
1.0
 26
0.0
 36
0.0
 17
0.0
 27
1.0
 37
0.0
 76
     0
330
23
  0
LAYOUT
  5
22
102
{ACAD_REACTORS
330
1A
102
}
330
1A
100
AcDbPlotSettings
  1

  2
none_device
  4
Letter_(8.50_x_11.00_Inches)
  6

 40
6.35
 41
6.35
 42
6.35000508
 43
6.35000508
 44
215.9
 45
279.4
 46
0.0
 47
0.0
 48
0.0
 49
0.0
140
0.0
141
0.0
142
1.0
143
1.0
 70
  1712
 72
     0
 73
     0
 74
     0
  7

 75
     0
 76
     0
 77
     2
 78
   300
147
1.0
148
0.0
149
0.0
100
AcDbLayout
  1
Model
 70
     1
 71
     0
 10
0.0
 20
0.0
 11
12.0
 21
9.0
 12
0.0
 22
0.0
 32
0.0
 14
69.2775980694215
 24
-350.735818501068
 34
0.0
 15
203.835188516309
 25
-215.878779577844
 35
0.0
146
0.0
 13
0.0
 23
0.0
 33
0.0
 16
1.0
 26
0.0
 36
0.0
 17
0.0
 27
1.0
 37
0.0
 76
     0
330
1F
331
29
  0
MATERIAL
  5
45
102
{ACAD_REACTORS
330
43
102
}
330
43
100
AcDbMaterial
  1
ByBlock
 72
     1
 94
      127
  0
MATERIAL
  5
44
102
{ACAD_REACTORS
330
43
102
}
330
43
100
AcDbMaterial
  1
ByLayer
 72
     1
 94
      127
  0
MATERIAL
  5
46
102
{ACAD_REACTORS
330
43
102
}
330
43
100
AcDbMaterial
  1
Global
 72
     1
 94
      127
  0
MLEADERSTYLE
  5
6C
102
{ACAD_REACTORS
330
6B
102
}
330
6B
100
AcDbMLeaderStyle
179
     2
170
     2
171
     1
172
     0
 90
        2
 40
0.0
 41
0.0
173
     1
 91
-1056964608
340
14
 92
       -2
290
     1
 42
0.09
291
     1
 43
0.36
  3
Standard
341
0
 44
0.18
300

342
11
174
     1
178
     6
175
     1
176
     0
 93
-1056964608
 45
0.18
292
     0
297
     0
 46
0.18
343
0
 94
-1056964608
 47
1.0
 49
1.0
140
1.0
293
     1
141
0.0
294
     1
177
     0
142
1.0
295
     0
296
     0
143
0.125
271
     0
272
     9
273
     9
  0
MLINESTYLE
  5
18
102
{ACAD_REACTORS
330
17
102
}
330
17
100
AcDbMlineStyle
  2
Standard
 70
     0
  3

 62
   256
 51
90.0
 52
90.0
 71
     2
 49
0.5
 62
   256
  6
BYLAYER
 49
-0.5
 62
   256
  6
BYLAYER
  0
ACDBPLACEHOLDER
  5
F
102
{ACAD_REACTORS
330
E
102
}
330
E
  0
SCALE
  5
48
102
{ACAD_REACTORS
330
47
102
}
330
47
100
AcDbScale
 70
     0
300
1:1
140
1.0
141
1.0
290
     1
  0
SCALE
  5
49
102
{ACAD_REACTORS
330
47
102
}
330
47
100
AcDbScale
 70
     0
300
1:2
140
1.0
141
2.0
290
     0
  0
SCALE
  5
4A
102
{ACAD_REACTORS
330
47
102
}
330
47
100
AcDbScale
 70
     0
300
1:4
140
1.0
141
4.0
290
     0
  0
SCALE
  5
4B
102
{ACAD_REACTORS
330
47
102
}
330
47
100
AcDbScale
 70
     0
300
1:5
140
1.0
141
5.0
290
     0
  0
SCALE
  5
4C
102
{ACAD_REACTORS
330
47
102
}
330
47
100
AcDbScale
 70
     0
300
1:8
140
1.0
141
8.0
290
     0
  0
SCALE
  5
4D
102
{ACAD_REACTORS
330
47
102
}
330
47
100
AcDbScale
 70
     0
300
1:10
140
1.0
141
10.0
290
     0
  0
SCALE
  5
4E
102
{ACAD_REACTORS
330
47
102
}
330
47
100
AcDbScale
 70
     0
300
1:16
140
1.0
141
16.0
290
     0
  0
SCALE
  5
4F
102
{ACAD_REACTORS
330
47
102
}
330
47
100
AcDbScale
 70
     0
300
1:20
140
1.0
141
20.0
290
     0
  0
SCALE
  5
50
102
{ACAD_REACTORS
330
47
102
}
330
47
100
AcDbScale
 70
     0
300
1:30
140
1.0
141
30.0
290
     0
  0
SCALE
  5
51
102
{ACAD_REACTORS
330
47
102
}
330
47
100
AcDbScale
 70
     0
300
1:40
140
1.0
141
40.0
290
     0
  0
SCALE
  5
52
102
{ACAD_REACTORS
330
47
102
}
330
47
100
AcDbScale
 70
     0
300
1:50
140
1.0
141
50.0
290
     0
  0
SCALE
  5
53
102
{ACAD_REACTORS
330
47
102
}
330
47
100
AcDbScale
 70
     0
300
1:100
140
1.0
141
100.0
290
     0
  0
SCALE
  5
54
102
{ACAD_REACTORS
330
47
102
}
330
47
100
AcDbScale
 70
     0
300
2:1
140
2.0
141
1.0
290
     0
  0
SCALE
  5
55
102
{ACAD_REACTORS
330
47
102
}
330
47
100
AcDbScale
 70
     0
300
4:1
140
4.0
141
1.0
290
     0
  0
SCALE
  5
56
102
{ACAD_REACTORS
330
47
102
}
330
47
100
AcDbScale
 70
     0
300
8:1
140
8.0
141
1.0
290
     0
  0
SCALE
  5
57
102
{ACAD_REACTORS
330
47
102
}
330
47
100
AcDbScale
 70
     0
300
10:1
140
10.0
141
1.0
290
     0
  0
SCALE
  5
58
102
{ACAD_REACTORS
330
47
102
}
330
47
100
AcDbScale
 70
     0
300
100:1
140
100.0
141
1.0
290
     0
  0
SCALE
  5
59
102
{ACAD_REACTORS
330
47
102
}
330
47
100
AcDbScale
 70
     0
300
1/128" = 1'-0"
140
0.0078125
141
12.0
290
     0
  0
SCALE
  5
5A
102
{ACAD_REACTORS
330
47
102
}
330
47
100
AcDbScale
 70
     0
300
1/64" = 1'-0"
140
0.015625
141
12.0
290
     0
  0
SCALE
  5
5B
102
{ACAD_REACTORS
330
47
102
}
330
47
100
AcDbScale
 70
     0
300
1/32" = 1'-0"
140
0.03125
141
12.0
290
     0
  0
SCALE
  5
5C
102
{ACAD_REACTORS
330
47
102
}
330
47
100
AcDbScale
 70
     0
300
1/16" = 1'-0"
140
0.0625
141
12.0
290
     0
  0
SCALE
  5
5D
102
{ACAD_REACTORS
330
47
102
}
330
47
100
AcDbScale
 70
     0
300
3/32" = 1'-0"
140
0.09375
141
12.0
290
     0
  0
SCALE
  5
5E
102
{ACAD_REACTORS
330
47
102
}
330
47
100
AcDbScale
 70
     0
300
1/8" = 1'-0"
140
0.125
141
12.0
290
     0
  0
SCALE
  5
5F
102
{ACAD_REACTORS
330
47
102
}
330
47
100
AcDbScale
 70
     0
300
3/16" = 1'-0"
140
0.1875
141
12.0
290
     0
  0
SCALE
  5
60
102
{ACAD_REACTORS
330
47
102
}
330
47
100
AcDbScale
 70
     0
300
1/4" = 1'-0"
140
0.25
141
12.0
290
     0
  0
SCALE
  5
61
102
{ACAD_REACTORS
330
47
102
}
330
47
100
AcDbScale
 70
     0
300
3/8" = 1'-0"
140
0.375
141
12.0
290
     0
  0
SCALE
  5
62
102
{ACAD_REACTORS
330
47
102
}
330
47
100
AcDbScale
 70
     0
300
1/2" = 1'-0"
140
0.5
141
12.0
290
     0
  0
SCALE
  5
63
102
{ACAD_REACTORS
330
47
102
}
330
47
100
AcDbScale
 70
     0
300
3/4" = 1'-0"
140
0.75
141
12.0
290
     0
  0
SCALE
  5
64
102
{ACAD_REACTORS
330
47
102
}
330
47
100
AcDbScale
 70
     0
300
1" = 1'-0"
140
1.0
141
12.0
290
     0
  0
SCALE
  5
65
102
{ACAD_REACTORS
330
47
102
}
330
47
100
AcDbScale
 70
     0
300
1-1/2" = 1'-0"
140
1.5
141
12.0
290
     0
  0
SCALE
  5
66
102
{ACAD_REACTORS
330
47
102
}
330
47
100
AcDbScale
 70
     0
300
3" = 1'-0"
140
3.0
141
12.0
290
     0
  0
SCALE
  5
67
102
{ACAD_REACTORS
330
47
102
}
330
47
100
AcDbScale
 70
     0
300
6" = 1'-0"
140
6.0
141
12.0
290
     0
  0
SCALE
  5
68
102
{ACAD_REACTORS
330
47
102
}
330
47
100
AcDbScale
 70
     0
300
1'-0" = 1'-0"
140
12.0
141
12.0
290
     0
  0
TABLESTYLE
  5
6A
102
{ACAD_REACTORS
330
69
102
}
102
{ACAD_XDICTIONARY
360
229
102
}
330
69
100
AcDbTableStyle
  3
Standard
 70
     0
 71
     0
 40
0.06
 41
0.06
280
     0
281
     0
  7
Standard
140
0.18
170
     2
 62
     0
 63
   257
283
     0
 90
        4
 91
        0
  1

274
    -2
284
     1
 64
     0
275
    -2
285
     1
 65
     0
276
    -2
286
     1
 66
     0
277
    -2
287
     1
 67
     0
278
    -2
288
     1
 68
     0
279
    -2
289
     1
 69
     0
  7
Standard
140
0.25
170
     5
 62
     0
 63
   257
283
     0
 90
        4
 91
        0
  1

274
    -2
284
     1
 64
     0
275
    -2
285
     1
 65
     0
276
    -2
286
     1
 66
     0
277
    -2
287
     1
 67
     0
278
    -2
288
     1
 68
     0
279
    -2
289
     1
 69
     0
  7
Standard
140
0.18
170
     5
 62
     0
 63
   257
283
     0
 90
        4
 91
        0
  1

274
    -2
284
     1
 64
     0
275
    -2
285
     1
 65
     0
276
    -2
286
     1
 66
     0
277
    -2
287
     1
 67
     0
278
    -2
288
     1
 68
     0
279
    -2
289
     1
 69
     0
  0
VISUALSTYLE
  5
2F
102
{ACAD_REACTORS
330
2A
102
}
102
{ACAD_XDICTIONARY
360
201
102
}
330
2A
100
AcDbVisualStyle
  2
2dWireframe
 70
     4
177
     2
291
     0
 71
     0
176
     1
 72
     2
176
     1
 73
     0
176
     1
 90
        0
176
     1
 40
0.6
176
     1
 41
30.0
176
     1
 62
     5
 63
     7
421
 16777215
176
     1
 74
     1
176
     1
 91
        4
176
     1
 64
     7
176
     1
 65
   257
176
     1
 75
     1
176
     1
175
     1
176
     1
 42
1.0
176
     1
 92
        0
176
     1
 66
   257
176
     1
 43
1.0
176
     1
 76
     1
176
     1
 77
     6
176
     1
 78
     2
176
     1
 67
     7
176
     1
 79
     5
176
     1
170
     0
176
     1
171
     0
176
     1
290
     0
176
     1
 93
        1
176
     1
 44
0.0
176
     1
173
     0
176
     1
  0
VISUALSTYLE
  5
32
102
{ACAD_REACTORS
330
2A
102
}
102
{ACAD_XDICTIONARY
360
207
102
}
330
2A
100
AcDbVisualStyle
  2
Basic
 70
     7
177
     2
291
     1
 71
     1
176
     1
 72
     0
176
     1
 73
     1
176
     1
 90
        0
176
     1
 40
0.6
176
     1
 41
30.0
176
     1
 62
     5
 63
     7
421
 16777215
176
     1
 74
     0
176
     1
 91
        4
176
     1
 64
     7
176
     1
 65
   257
176
     1
 75
     1
176
     1
175
     1
176
     1
 42
1.0
176
     1
 92
        8
176
     1
 66
     7
176
     1
 43
1.0
176
     1
 76
     1
176
     1
 77
     6
176
     1
 78
     2
176
     1
 67
     7
176
     1
 79
     5
176
     1
170
     0
176
     1
171
     0
176
     1
290
     0
176
     1
 93
        1
176
     1
 44
0.0
176
     1
173
     0
176
     1
  0
VISUALSTYLE
  5
36
102
{ACAD_REACTORS
330
2A
102
}
102
{ACAD_XDICTIONARY
360
20F
102
}
330
2A
100
AcDbVisualStyle
  2
Brighten
 70
    12
177
     2
291
     1
 71
     2
176
     1
 72
     2
176
     1
 73
     0
176
     1
 90
        0
176
     1
 40
0.6
176
     1
 41
30.0
176
     1
 62
     5
 63
     7
421
 16777215
176
     1
 74
     1
176
     1
 91
        4
176
     1
 64
     7
176
     1
 65
   257
176
     1
 75
     1
176
     1
175
     1
176
     1
 42
1.0
176
     1
 92
        8
176
     1
 66
     7
176
     1
 43
1.0
176
     1
 76
     1
176
     1
 77
     6
176
     1
 78
     2
176
     1
 67
     7
176
     1
 79
     5
176
     1
170
     0
176
     1
171
     0
176
     1
290
     0
176
     1
 93
        1
176
     1
 44
50.0
176
     1
173
     0
176
     1
  0
VISUALSTYLE
  5
3A
102
{ACAD_REACTORS
330
2A
102
}
102
{ACAD_XDICTIONARY
360
217
102
}
330
2A
100
AcDbVisualStyle
  2
ColorChange
 70
    16
177
     2
291
     1
 71
     2
176
     1
 72
     2
176
     1
 73
     3
176
     1
 90
        0
176
     1
 40
0.6
176
     1
 41
30.0
176
     1
 62
     5
 63
     8
421
  8421504
176
     1
 74
     1
176
     1
 91
        4
176
     1
 64
     7
176
     1
 65
   257
176
     1
 75
     1
176
     1
175
     1
176
     1
 42
1.0
176
     1
 92
        8
176
     1
 66
     8
424
  8421504
176
     1
 43
1.0
176
     1
 76
     1
176
     1
 77
     6
176
     1
 78
     2
176
     1
 67
     7
176
     1
 79
     5
176
     1
170
     0
176
     1
171
     0
176
     1
290
     0
176
     1
 93
        1
176
     1
 44
0.0
176
     1
173
     0
176
     1
  0
VISUALSTYLE
  5
34
102
{ACAD_REACTORS
330
2A
102
}
102
{ACAD_XDICTIONARY
360
20B
102
}
330
2A
100
AcDbVisualStyle
  2
Conceptual
 70
     9
177
     2
291
     0
 71
     3
176
     1
 72
     2
176
     1
 73
     0
176
     1
 90
        0
176
     1
 40
0.6
176
     1
 41
30.0
176
     1
 62
     5
 63
     7
421
 16777215
176
     1
 74
     2
176
     1
 91
        2
176
     1
 64
     7
176
     1
 65
   257
176
     1
 75
     1
176
     1
175
     1
176
     1
 42
179.0
176
     1
 92
        8
176
     1
 66
     7
176
     1
 43
1.0
176
     1
 76
     1
176
     1
 77
     6
176
     1
 78
     2
176
     1
 67
     7
176
     1
 79
     3
176
     1
170
     0
176
     1
171
     0
176
     1
290
     0
176
     1
 93
        1
176
     1
 44
0.0
176
     1
173
     0
176
     1
  0
VISUALSTYLE
  5
35
102
{ACAD_REACTORS
330
2A
102
}
102
{ACAD_XDICTIONARY
360
20D
102
}
330
2A
100
AcDbVisualStyle
  2
Dim
 70
    11
177
     2
291
     1
 71
     2
176
     1
 72
     2
176
     1
 73
     0
176
     1
 90
        0
176
     1
 40
0.6
176
     1
 41
30.0
176
     1
 62
     5
 63
     7
421
 16777215
176
     1
 74
     1
176
     1
 91
        4
176
     1
 64
     7
176
     1
 65
   257
176
     1
 75
     1
176
     1
175
     1
176
     1
 42
1.0
176
     1
 92
        8
176
     1
 66
     7
176
     1
 43
1.0
176
     1
 76
     1
176
     1
 77
     6
176
     1
 78
     2
176
     1
 67
     7
176
     1
 79
     5
176
     1
170
     0
176
     1
171
     0
176
     1
290
     0
176
     1
 93
        1
176
     1
 44
-50.0
176
     1
173
     0
176
     1
  0
VISUALSTYLE
  5
3D
102
{ACAD_REACTORS
330
2A
102
}
102
{ACAD_XDICTIONARY
360
21D
102
}
330
2A
100
AcDbVisualStyle
  2
EdgeColorOff
 70
    22
177
     2
291
     1
 71
     2
176
     0
 72
     2
176
     0
 73
     0
176
     0
 90
        0
176
     0
 40
0.6
176
     0
 41
30.0
176
     0
 62
     5
 63
     7
421
 16777215
176
     0
 74
     1
176
     0
 91
        4
176
     0
 64
     7
176
     0
 65
   257
176
     0
 75
     1
176
     0
175
     1
176
     0
 42
1.0
176
     0
 92
        8
176
     2
 66
     7
176
     0
 43
1.0
176
     0
 76
     1
176
     0
 77
     6
176
     0
 78
     2
176
     0
 67
     7
176
     0
 79
     5
176
     0
170
     0
176
     0
171
     0
176
     0
290
     0
176
     0
 93
        1
176
     0
 44
0.0
176
     0
173
     0
176
     0
  0
VISUALSTYLE
  5
39
102
{ACAD_REACTORS
330
2A
102
}
102
{ACAD_XDICTIONARY
360
215
102
}
330
2A
100
AcDbVisualStyle
  2
Facepattern
 70
    15
177
     2
291
     1
 71
     2
176
     1
 72
     2
176
     1
 73
     0
176
     1
 90
        0
176
     1
 40
0.6
176
     1
 41
30.0
176
     1
 62
     5
 63
     7
421
 16777215
176
     1
 74
     1
176
     1
 91
        4
176
     1
 64
     7
176
     1
 65
   257
176
     1
 75
     1
176
     1
175
     1
176
     1
 42
1.0
176
     1
 92
        8
176
     1
 66
     7
176
     1
 43
1.0
176
     1
 76
     1
176
     1
 77
     6
176
     1
 78
     2
176
     1
 67
     7
176
     1
 79
     5
176
     1
170
     0
176
     1
171
     0
176
     1
290
     0
176
     1
 93
        1
176
     1
 44
0.0
176
     1
173
     0
176
     1
  0
VISUALSTYLE
  5
2B
102
{ACAD_REACTORS
330
2A
102
}
102
{ACAD_XDICTIONARY
360
1F9
102
}
330
2A
100
AcDbVisualStyle
  2
Flat
 70
     0
177
     2
291
     1
 71
     2
176
     1
 72
     1
176
     1
 73
     1
176
     1
 90
        2
176
     1
 40
0.6
176
     1
 41
30.0
176
     1
 62
     5
 63
     7
421
 16777215
176
     1
 74
     0
176
     1
 91
        0
176
     1
 64
     7
176
     1
 65
   257
176
     1
 75
     1
176
     1
175
     1
176
     1
 42
1.0
176
     1
 92
        8
176
     1
 66
     7
176
     1
 43
1.0
176
     1
 76
     1
176
     1
 77
     6
176
     1
 78
     2
176
     1
 67
     7
176
     1
 79
     5
176
     1
170
     0
176
     1
171
     0
176
     1
290
     0
176
     1
 93
       13
176
     1
 44
0.0
176
     1
173
     0
176
     1
  0
VISUALSTYLE
  5
2C
102
{ACAD_REACTORS
330
2A
102
}
102
{ACAD_XDICTIONARY
360
1FB
102
}
330
2A
100
AcDbVisualStyle
  2
FlatWithEdges
 70
     1
177
     2
291
     1
 71
     2
176
     1
 72
     1
176
     1
 73
     1
176
     1
 90
        2
176
     1
 40
0.6
176
     1
 41
30.0
176
     1
 62
     5
 63
     7
421
 16777215
176
     1
 74
     1
176
     1
 91
        0
176
     1
 64
     7
176
     1
 65
   257
176
     1
 75
     1
176
     1
175
     1
176
     1
 42
1.0
176
     1
 92
        0
176
     1
 66
   257
176
     1
 43
1.0
176
     1
 76
     1
176
     1
 77
     6
176
     1
 78
     2
176
     1
 67
     7
176
     1
 79
     5
176
     1
170
     0
176
     1
171
     0
176
     1
290
     0
176
     1
 93
       13
176
     1
 44
0.0
176
     1
173
     0
176
     1
  0
VISUALSTYLE
  5
2D
102
{ACAD_REACTORS
330
2A
102
}
102
{ACAD_XDICTIONARY
360
1FD
102
}
330
2A
100
AcDbVisualStyle
  2
Gouraud
 70
     2
177
     2
291
     1
 71
     2
176
     1
 72
     2
176
     1
 73
     1
176
     1
 90
        2
176
     1
 40
0.6
176
     1
 41
30.0
176
     1
 62
     5
 63
     7
421
 16777215
176
     1
 74
     0
176
     1
 91
        0
176
     1
 64
     7
176
     1
 65
   257
176
     1
 75
     1
176
     1
175
     1
176
     1
 42
1.0
176
     1
 92
        0
176
     1
 66
     7
176
     1
 43
1.0
176
     1
 76
     1
176
     1
 77
     6
176
     1
 78
     2
176
     1
 67
     7
176
     1
 79
     5
176
     1
170
     0
176
     1
171
     0
176
     1
290
     0
176
     1
 93
       13
176
     1
 44
0.0
176
     1
173
     0
176
     1
  0
VISUALSTYLE
  5
2E
102
{ACAD_REACTORS
330
2A
102
}
102
{ACAD_XDICTIONARY
360
1FF
102
}
330
2A
100
AcDbVisualStyle
  2
GouraudWithEdges
 70
     3
177
     2
291
     1
 71
     2
176
     1
 72
     2
176
     1
 73
     1
176
     1
 90
        2
176
     1
 40
0.6
176
     1
 41
30.0
176
     1
 62
     5
 63
     7
421
 16777215
176
     1
 74
     1
176
     1
 91
        0
176
     1
 64
     7
176
     1
 65
   257
176
     1
 75
     1
176
     1
175
     1
176
     1
 42
1.0
176
     1
 92
        0
176
     1
 66
   257
176
     1
 43
1.0
176
     1
 76
     1
176
     1
 77
     6
176
     1
 78
     2
176
     1
 67
     7
176
     1
 79
     5
176
     1
170
     0
176
     1
171
     0
176
     1
290
     0
176
     1
 93
       13
176
     1
 44
0.0
176
     1
173
     0
176
     1
  0
VISUALSTYLE
  5
31
102
{ACAD_REACTORS
330
2A
102
}
102
{ACAD_XDICTIONARY
360
205
102
}
330
2A
100
AcDbVisualStyle
  2
Hidden
 70
     6
177
     2
291
     0
 71
     1
176
     1
 72
     2
176
     1
 73
     2
176
     1
 90
        0
176
     1
 40
0.6
176
     1
 41
30.0
176
     1
 62
     5
 63
     7
421
 16777215
176
     1
 74
     2
176
     1
 91
        2
176
     1
 64
     7
176
     1
 65
   257
176
     1
 75
     2
176
     1
175
     1
176
     1
 42
40.0
176
     1
 92
        0
176
     1
 66
   257
176
     1
 43
1.0
176
     1
 76
     1
176
     1
 77
     6
176
     1
 78
     2
176
     1
 67
     7
176
     1
 79
     3
176
     1
170
     0
176
     1
171
     0
176
     1
290
     0
176
     1
 93
        1
176
     1
 44
0.0
176
     1
173
     0
176
     1
  0
VISUALSTYLE
  5
3B
102
{ACAD_REACTORS
330
2A
102
}
102
{ACAD_XDICTIONARY
360
219
102
}
330
2A
100
AcDbVisualStyle
  2
JitterOff
 70
    20
177
     2
291
     1
 71
     2
176
     0
 72
     2
176
     0
 73
     0
176
     0
 90
        0
176
     0
 40
0.6
176
     0
 41
30.0
176
     0
 62
     5
 63
     7
421
 16777215
176
     0
 74
     1
176
     0
 91
        4
176
     0
 64
     7
176
     0
 65
   257
176
     0
 75
     1
176
     0
175
     1
176
     0
 42
1.0
176
     0
 92
       10
176
     2
 66
     7
176
     0
 43
1.0
176
     0
 76
     1
176
     0
 77
     6
176
     0
 78
     2
176
     0
 67
     7
176
     0
 79
     5
176
     0
170
     0
176
     0
171
     0
176
     0
290
     0
176
     0
 93
        1
176
     0
 44
0.0
176
     0
173
     0
176
     0
  0
VISUALSTYLE
  5
38
102
{ACAD_REACTORS
330
2A
102
}
102
{ACAD_XDICTIONARY
360
213
102
}
330
2A
100
AcDbVisualStyle
  2
Linepattern
 70
    14
177
     2
291
     1
 71
     2
176
     1
 72
     2
176
     1
 73
     0
176
     1
 90
        0
176
     1
 40
0.6
176
     1
 41
30.0
176
     1
 62
     5
 63
     7
421
 16777215
176
     1
 74
     1
176
     1
 91
        4
176
     1
 64
     7
176
     1
 65
   257
176
     1
 75
     7
176
     1
175
     7
176
     1
 42
1.0
176
     1
 92
        8
176
     1
 66
     7
176
     1
 43
1.0
176
     1
 76
     1
176
     1
 77
     6
176
     1
 78
     2
176
     1
 67
     7
176
     1
 79
     5
176
     1
170
     0
176
     1
171
     0
176
     1
290
     0
176
     1
 93
        1
176
     1
 44
0.0
176
     1
173
     0
176
     1
  0
VISUALSTYLE
  5
3C
102
{ACAD_REACTORS
330
2A
102
}
102
{ACAD_XDICTIONARY
360
21B
102
}
330
2A
100
AcDbVisualStyle
  2
OverhangOff
 70
    21
177
     2
291
     1
 71
     2
176
     0
 72
     2
176
     0
 73
     0
176
     0
 90
        0
176
     0
 40
0.6
176
     0
 41
30.0
176
     0
 62
     5
 63
     7
421
 16777215
176
     0
 74
     1
176
     0
 91
        4
176
     0
 64
     7
176
     0
 65
   257
176
     0
 75
     1
176
     0
175
     1
176
     0
 42
1.0
176
     0
 92
        9
176
     2
 66
     7
176
     0
 43
1.0
176
     0
 76
     1
176
     0
 77
     6
176
     0
 78
     2
176
     0
 67
     7
176
     0
 79
     5
176
     0
170
     0
176
     0
171
     0
176
     0
290
     0
176
     0
 93
        1
176
     0
 44
0.0
176
     0
173
     0
176
     0
  0
VISUALSTYLE
  5
33
102
{ACAD_REACTORS
330
2A
102
}
102
{ACAD_XDICTIONARY
360
209
102
}
330
2A
100
AcDbVisualStyle
  2
Realistic
 70
     8
177
     2
291
     0
 71
     2
176
     1
 72
     3
176
     1
 73
     0
176
     1
 90
        2
176
     1
 40
0.6
176
     1
 41
30.0
176
     1
 62
     5
 63
     7
421
 16777215
176
     1
 74
     0
176
     1
 91
        0
176
     1
 64
     7
176
     1
 65
   257
176
     1
 75
     1
176
     1
175
     1
176
     1
 42
1.0
176
     1
 92
        8
176
     1
 66
   257
176
     1
 43
1.0
176
     1
 76
     1
176
     1
 77
     6
176
     1
 78
     2
176
     1
 67
     7
176
     1
 79
     3
176
     1
170
     0
176
     1
171
     0
176
     1
290
     0
176
     1
 93
       13
176
     1
 44
0.0
176
     1
173
     0
176
     1
  0
VISUALSTYLE
  5
42
102
{ACAD_REACTORS
330
2A
102
}
102
{ACAD_XDICTIONARY
360
227
102
}
330
2A
100
AcDbVisualStyle
  2
Shaded
 70
    27
177
     2
291
     0
 71
     2
176
     1
 72
     2
176
     1
 73
     1
176
     1
 90
        2
176
     1
 40
0.6
176
     1
 41
30.0
176
     1
 62
     5
 63
     7
421
 16777215
176
     1
 74
     0
176
     1
 91
        4
176
     1
 64
     7
176
     1
 65
   257
176
     1
 75
     1
176
     1
175
     1
176
     1
 42
1.0
176
     1
 92
        8
176
     1
 66
   257
176
     1
 43
1.0
176
     1
 76
     1
176
     1
 77
     6
176
     1
 78
     2
176
     1
 67
     8
425
  7895160
176
     1
 79
     3
176
     1
170
     0
176
     1
171
     0
176
     1
290
     0
176
     1
 93
        5
176
     1
 44
0.0
176
     1
173
     0
176
     1
  0
VISUALSTYLE
  5
41
102
{ACAD_REACTORS
330
2A
102
}
102
{ACAD_XDICTIONARY
360
225
102
}
330
2A
100
AcDbVisualStyle
  2
Shaded with edges
 70
    26
177
     2
291
     0
 71
     2
176
     1
 72
     2
176
     1
 73
     1
176
     1
 90
        2
176
     1
 40
0.6
176
     1
 41
30.0
176
     1
 62
     5
 63
     7
421
 16777215
176
     1
 74
     1
176
     1
 91
       10
176
     1
 64
     7
176
     1
 65
   257
176
     1
 75
     2
176
     1
175
     1
176
     1
 42
1.0
176
     1
 92
        8
176
     1
 66
   257
176
     1
 43
1.0
176
     1
 76
     1
176
     1
 77
     6
176
     1
 78
     2
176
     1
 67
     7
176
     1
 79
     3
176
     1
170
     0
176
     1
171
     0
176
     1
290
     0
176
     1
 93
        5
176
     1
 44
0.0
176
     1
173
     0
176
     1
  0
VISUALSTYLE
  5
3E
102
{ACAD_REACTORS
330
2A
102
}
102
{ACAD_XDICTIONARY
360
21F
102
}
330
2A
100
AcDbVisualStyle
  2
Shades of Gray
 70
    23
177
     2
291
     0
 71
     2
176
     1
 72
     2
176
     1
 73
     3
176
     1
 90
        0
176
     1
 40
0.6
176
     1
 41
30.0
176
     1
 62
     5
 63
     7
421
 16777215
176
     1
 74
     2
176
     1
 91
        2
176
     1
 64
     7
176
     1
 65
     7
176
     1
 75
     1
176
     1
175
     1
176
     1
 42
40.0
176
     1
 92
        8
176
     1
 66
     7
176
     1
 43
1.0
176
     1
 76
     1
176
     1
 77
     6
176
     1
 78
     2
176
     1
 67
     7
176
     1
 79
     3
176
     1
170
     0
176
     1
171
     0
176
     1
290
     0
176
     1
 93
        1
176
     1
 44
0.0
176
     1
173
     0
176
     1
  0
VISUALSTYLE
  5
3F
102
{ACAD_REACTORS
330
2A
102
}
102
{ACAD_XDICTIONARY
360
221
102
}
330
2A
100
AcDbVisualStyle
  2
Sketchy
 70
    24
177
     2
291
     0
 71
     1
176
     1
 72
     2
176
     1
 73
     2
176
     1
 90
        0
176
     1
 40
0.6
176
     1
 41
30.0
176
     1
 62
     5
 63
     7
421
 16777215
176
     1
 74
     2
176
     1
 91
        2
176
     1
 64
     7
176
     1
 65
     7
176
     1
 75
     1
176
     1
175
     1
176
     1
 42
40.0
176
     1
 92
       11
176
     1
 66
     7
176
     1
 43
1.0
176
     1
 76
     1
176
     1
 77
     6
176
     1
 78
     2
176
     1
 67
     7
176
     1
 79
     6
176
     1
170
     0
176
     1
171
     0
176
     1
290
     0
176
     1
 93
        1
176
     1
 44
0.0
176
     1
173
     0
176
     1
  0
VISUALSTYLE
  5
37
102
{ACAD_REACTORS
330
2A
102
}
102
{ACAD_XDICTIONARY
360
211
102
}
330
2A
100
AcDbVisualStyle
  2
Thicken
 70
    13
177
     2
291
     1
 71
     2
176
     1
 72
     2
176
     1
 73
     0
176
     1
 90
        0
176
     1
 40
0.6
176
     1
 41
30.0
176
     1
 62
     5
 63
     7
421
 16777215
176
     1
 74
     1
176
     1
 91
        4
176
     1
 64
     7
176
     1
 65
   257
176
     1
 75
     1
176
     1
175
     1
176
     1
 42
1.0
176
     1
 92
       12
176
     1
 66
     7
176
     1
 43
1.0
176
     1
 76
     1
176
     1
 77
     6
176
     1
 78
     2
176
     1
 67
     7
176
     1
 79
     5
176
     1
170
     0
176
     1
171
     0
176
     1
290
     0
176
     1
 93
        1
176
     1
 44
0.0
176
     1
173
     0
176
     1
  0
VISUALSTYLE
  5
30
102
{ACAD_REACTORS
330
2A
102
}
102
{ACAD_XDICTIONARY
360
203
102
}
330
2A
100
AcDbVisualStyle
  2
Wireframe
 70
     5
177
     2
291
     0
 71
     0
176
     1
 72
     2
176
     1
 73
     0
176
     1
 90
        0
176
     1
 40
0.6
176
     1
 41
30.0
176
     1
 62
     5
 63
     7
421
 16777215
176
     1
 74
     1
176
     1
 91
        4
176
     1
 64
     7
176
     1
 65
   257
176
     1
 75
     1
176
     1
175
     1
176
     1
 42
1.0
176
     1
 92
        0
176
     1
 66
   257
176
     1
 43
1.0
176
     1
 76
     1
176
     1
 77
     6
176
     1
 78
     2
176
     1
 67
     7
176
     1
 79
     3
176
     1
170
     0
176
     1
171
     0
176
     1
290
     0
176
     1
 93
        1
176
     1
 44
0.0
176
     1
173
     0
176
     1
  0
VISUALSTYLE
  5
40
102
{ACAD_REACTORS
330
2A
102
}
102
{ACAD_XDICTIONARY
360
223
102
}
330
2A
100
AcDbVisualStyle
  2
X-Ray
 70
    25
177
     2
291
     0
 71
     2
176
     1
 72
     2
176
     1
 73
     1
176
     1
 90
        1
176
     1
 40
0.5
176
     1
 41
30.0
176
     1
 62
     5
 63
     7
421
 16777215
176
     1
 74
     1
176
     1
 91
        0
176
     1
 64
     7
176
     1
 65
   257
176
     1
 75
     1
176
     1
175
     1
176
     1
 42
1.0
176
     1
 92
        8
176
     1
 66
     7
176
     1
 43
1.0
176
     1
 76
     1
176
     1
 77
     6
176
     1
 78
     2
176
     1
 67
     7
176
     1
 79
     3
176
     1
170
     0
176
     1
171
     0
176
     1
290
     0
176
     1
 93
       13
176
     1
 44
0.0
176
     1
173
     0
176
     1
  0
DICTIONARYVAR
  5
1F8
102
{ACAD_REACTORS
330
1F7
102
}
330
1F7
100
DictionaryVariables
280
     0
  1
1:1
  0
DICTIONARYVAR
  5
22D
102
{ACAD_REACTORS
330
1F7
102
}
330
1F7
100
DictionaryVariables
280
     0
  1
Standard
  0
DICTIONARYVAR
  5
22C
102
{ACAD_REACTORS
330
1F7
102
}
330
1F7
100
DictionaryVariables
280
     0
  1
Standard
  0
DICTIONARY
  5
229
330
6A
100
AcDbDictionary
280
     1
281
     1
  3
ACAD_ROUNDTRIP_2008_TABLESTYLE_CELLSTYLEMAP
360
22A
  0
DICTIONARY
  5
201
330
2F
100
AcDbDictionary
280
     1
281
     1
  3
ACAD_XREC_ROUNDTRIP
360
202
  0
DICTIONARY
  5
207
330
32
100
AcDbDictionary
280
     1
281
     1
  3
ACAD_XREC_ROUNDTRIP
360
208
  0
DICTIONARY
  5
20F
330
36
100
AcDbDictionary
280
     1
281
     1
  3
ACAD_XREC_ROUNDTRIP
360
210
  0
DICTIONARY
  5
217
330
3A
100
AcDbDictionary
280
     1
281
     1
  3
ACAD_XREC_ROUNDTRIP
360
218
  0
DICTIONARY
  5
20B
330
34
100
AcDbDictionary
280
     1
281
     1
  3
ACAD_XREC_ROUNDTRIP
360
20C
  0
DICTIONARY
  5
20D
330
35
100
AcDbDictionary
280
     1
281
     1
  3
ACAD_XREC_ROUNDTRIP
360
20E
  0
DICTIONARY
  5
21D
330
3D
100
AcDbDictionary
280
     1
281
     1
  3
ACAD_XREC_ROUNDTRIP
360
21E
  0
DICTIONARY
  5
215
330
39
100
AcDbDictionary
280
     1
281
     1
  3
ACAD_XREC_ROUNDTRIP
360
216
  0
DICTIONARY
  5
1F9
330
2B
100
AcDbDictionary
280
     1
281
     1
  3
ACAD_XREC_ROUNDTRIP
360
1FA
  0
DICTIONARY
  5
1FB
330
2C
100
AcDbDictionary
280
     1
281
     1
  3
ACAD_XREC_ROUNDTRIP
360
1FC
  0
DICTIONARY
  5
1FD
330
2D
100
AcDbDictionary
280
     1
281
     1
  3
ACAD_XREC_ROUNDTRIP
360
1FE
  0
DICTIONARY
  5
1FF
330
2E
100
AcDbDictionary
280
     1
281
     1
  3
ACAD_XREC_ROUNDTRIP
360
200
  0
DICTIONARY
  5
205
330
31
100
AcDbDictionary
280
     1
281
     1
  3
ACAD_XREC_ROUNDTRIP
360
206
  0
DICTIONARY
  5
219
330
3B
100
AcDbDictionary
280
     1
281
     1
  3
ACAD_XREC_ROUNDTRIP
360
21A
  0
DICTIONARY
  5
213
330
38
100
AcDbDictionary
280
     1
281
     1
  3
ACAD_XREC_ROUNDTRIP
360
214
  0
DICTIONARY
  5
21B
330
3C
100
AcDbDictionary
280
     1
281
     1
  3
ACAD_XREC_ROUNDTRIP
360
21C
  0
DICTIONARY
  5
209
330
33
100
AcDbDictionary
280
     1
281
     1
  3
ACAD_XREC_ROUNDTRIP
360
20A
  0
DICTIONARY
  5
227
330
42
100
AcDbDictionary
280
     1
281
     1
  3
ACAD_XREC_ROUNDTRIP
360
228
  0
DICTIONARY
  5
225
330
41
100
AcDbDictionary
280
     1
281
     1
  3
ACAD_XREC_ROUNDTRIP
360
226
  0
DICTIONARY
  5
21F
330
3E
100
AcDbDictionary
280
     1
281
     1
  3
ACAD_XREC_ROUNDTRIP
360
220
  0
DICTIONARY
  5
221
330
3F
100
AcDbDictionary
280
     1
281
     1
  3
ACAD_XREC_ROUNDTRIP
360
222
  0
DICTIONARY
  5
211
330
37
100
AcDbDictionary
280
     1
281
     1
  3
ACAD_XREC_ROUNDTRIP
360
212
  0
DICTIONARY
  5
203
330
30
100
AcDbDictionary
280
     1
281
     1
  3
ACAD_XREC_ROUNDTRIP
360
204
  0
DICTIONARY
  5
223
330
40
100
AcDbDictionary
280
     1
281
     1
  3
ACAD_XREC_ROUNDTRIP
360
224
  0
CELLSTYLEMAP
  5
22A
102
{ACAD_REACTORS
330
229
102
}
330
229
100
AcDbCellStyleMap
 90
        3
300
CELLSTYLE
  1
TABLEFORMAT_BEGIN
 90
        5
170
     1
 91
        0
 92
    32768
 62
   257
 93
        1
300
CONTENTFORMAT
  1
CONTENTFORMAT_BEGIN
 90
        0
 91
        0
 92
        4
 93
        0
300

 40
0.0
140
1.0
 94
        5
 62
     0
340
11
144
0.25
309
CONTENTFORMAT_END
171
     1
301
MARGIN
  1
CELLMARGIN_BEGIN
 40
0.06
 40
0.06
 40
0.06
 40
0.06
 40
0.06
 40
0.06
309
CELLMARGIN_END
 94
        6
 95
        1
302
GRIDFORMAT
  1
GRIDFORMAT_BEGIN
 90
        0
 91
        1
 62
     0
 92
       -2
340
14
 93
        0
 40
0.045
309
GRIDFORMAT_END
 95
        2
302
GRIDFORMAT
  1
GRIDFORMAT_BEGIN
 90
        0
 91
        1
 62
     0
 92
       -2
340
14
 93
        0
 40
0.045
309
GRIDFORMAT_END
 95
        4
302
GRIDFORMAT
  1
GRIDFORMAT_BEGIN
 90
        0
 91
        1
 62
     0
 92
       -2
340
14
 93
        0
 40
0.045
309
GRIDFORMAT_END
 95
        8
302
GRIDFORMAT
  1
GRIDFORMAT_BEGIN
 90
        0
 91
        1
 62
     0
 92
       -2
340
14
 93
        0
 40
0.045
309
GRIDFORMAT_END
 95
       16
302
GRIDFORMAT
  1
GRIDFORMAT_BEGIN
 90
        0
 91
        1
 62
     0
 92
       -2
340
14
 93
        0
 40
0.045
309
GRIDFORMAT_END
 95
       32
302
GRIDFORMAT
  1
GRIDFORMAT_BEGIN
 90
        0
 91
        1
 62
     0
 92
       -2
340
14
 93
        0
 40
0.045
309
GRIDFORMAT_END
309
TABLEFORMAT_END
  1
CELLSTYLE_BEGIN
 90
        1
 91
        1
300
_TITLE
309
CELLSTYLE_END
300
CELLSTYLE
  1
TABLEFORMAT_BEGIN
 90
        5
170
     1
 91
        0
 92
        0
 62
   257
 93
        1
300
CONTENTFORMAT
  1
CONTENTFORMAT_BEGIN
 90
        0
 91
        0
 92
        4
 93
        0
300

 40
0.0
140
1.0
 94
        5
 62
     0
340
11
144
0.18
309
CONTENTFORMAT_END
171
     1
301
MARGIN
  1
CELLMARGIN_BEGIN
 40
0.06
 40
0.06
 40
0.06
 40
0.06
 40
0.06
 40
0.06
309
CELLMARGIN_END
 94
        6
 95
        1
302
GRIDFORMAT
  1
GRIDFORMAT_BEGIN
 90
        0
 91
        1
 62
     0
 92
       -2
340
14
 93
        0
 40
0.045
309
GRIDFORMAT_END
 95
        2
302
GRIDFORMAT
  1
GRIDFORMAT_BEGIN
 90
        0
 91
        1
 62
     0
 92
       -2
340
14
 93
        0
 40
0.045
309
GRIDFORMAT_END
 95
        4
302
GRIDFORMAT
  1
GRIDFORMAT_BEGIN
 90
        0
 91
        1
 62
     0
 92
       -2
340
14
 93
        0
 40
0.045
309
GRIDFORMAT_END
 95
        8
302
GRIDFORMAT
  1
GRIDFORMAT_BEGIN
 90
        0
 91
        1
 62
     0
 92
       -2
340
14
 93
        0
 40
0.045
309
GRIDFORMAT_END
 95
       16
302
GRIDFORMAT
  1
GRIDFORMAT_BEGIN
 90
        0
 91
        1
 62
     0
 92
       -2
340
14
 93
        0
 40
0.045
309
GRIDFORMAT_END
 95
       32
302
GRIDFORMAT
  1
GRIDFORMAT_BEGIN
 90
        0
 91
        1
 62
     0
 92
       -2
340
14
 93
        0
 40
0.045
309
GRIDFORMAT_END
309
TABLEFORMAT_END
  1
CELLSTYLE_BEGIN
 90
        2
 91
        1
300
_HEADER
309
CELLSTYLE_END
300
CELLSTYLE
  1
TABLEFORMAT_BEGIN
 90
        5
170
     1
 91
        0
 92
        0
 62
   257
 93
        1
300
CONTENTFORMAT
  1
CONTENTFORMAT_BEGIN
 90
        0
 91
        0
 92
        4
 93
        0
300

 40
0.0
140
1.0
 94
        2
 62
     0
340
11
144
0.18
309
CONTENTFORMAT_END
171
     1
301
MARGIN
  1
CELLMARGIN_BEGIN
 40
0.06
 40
0.06
 40
0.06
 40
0.06
 40
0.06
 40
0.06
309
CELLMARGIN_END
 94
        6
 95
        1
302
GRIDFORMAT
  1
GRIDFORMAT_BEGIN
 90
        0
 91
        1
 62
     0
 92
       -2
340
14
 93
        0
 40
0.045
309
GRIDFORMAT_END
 95
        2
302
GRIDFORMAT
  1
GRIDFORMAT_BEGIN
 90
        0
 91
        1
 62
     0
 92
       -2
340
14
 93
        0
 40
0.045
309
GRIDFORMAT_END
 95
        4
302
GRIDFORMAT
  1
GRIDFORMAT_BEGIN
 90
        0
 91
        1
 62
     0
 92
       -2
340
14
 93
        0
 40
0.045
309
GRIDFORMAT_END
 95
        8
302
GRIDFORMAT
  1
GRIDFORMAT_BEGIN
 90
        0
 91
        1
 62
     0
 92
       -2
340
14
 93
        0
 40
0.045
309
GRIDFORMAT_END
 95
       16
302
GRIDFORMAT
  1
GRIDFORMAT_BEGIN
 90
        0
 91
        1
 62
     0
 92
       -2
340
14
 93
        0
 40
0.045
309
GRIDFORMAT_END
 95
       32
302
GRIDFORMAT
  1
GRIDFORMAT_BEGIN
 90
        0
 91
        1
 62
     0
 92
       -2
340
14
 93
        0
 40
0.045
309
GRIDFORMAT_END
309
TABLEFORMAT_END
  1
CELLSTYLE_BEGIN
 90
        3
 91
        2
300
_DATA
309
CELLSTYLE_END
  0
XRECORD
  5
202
102
{ACAD_REACTORS
330
201
102
}
330
201
100
AcDbXrecord
280
     1
102
RTVSPost2010Prop28
280
     1
102
RTVSPost2010PropOp28
 70
     1
102
RTVSPost2010Prop29
280
     1
102
RTVSPost2010PropOp29
 70
     1
102
RTVSPost2010Prop30
280
     0
102
RTVSPost2010PropOp30
 70
     1
102
RTVSPost2010Prop31
280
     0
102
RTVSPost2010PropOp31
 70
     1
102
RTVSPost2010Prop32
280
     0
102
RTVSPost2010PropOp32
 70
     1
102
RTVSPost2010Prop33
280
     0
102
RTVSPost2010PropOp33
 70
     1
102
RTVSPost2010Prop34
280
     0
102
RTVSPost2010PropOp34
 70
     1
102
RTVSPost2010Prop35
280
     0
102
RTVSPost2010PropOp35
 70
     1
102
RTVSPost2010Prop36
280
     0
102
RTVSPost2010PropOp36
 70
     1
102
RTVSPost2010Prop37
 90
       50
102
RTVSPost2010PropOp37
 70
     1
102
RTVSPost2010Prop38
140
0.0
102
RTVSPost2010PropOp38
 70
     1
102
RTVSPost2010Prop39
140
1.0
102
RTVSPost2010PropOp39
 70
     1
102
RTVSPost2010Prop40
 90
        0
102
RTVSPost2010PropOp40
 70
     1
102
RTVSPost2010Prop41ColorIndex
 90
       18
102
RTVSPost2010Prop41ColorRGB
 90
        0
102
RTVSPost2010PropOp41
 70
     1
102
RTVSPost2010Prop42
 90
       50
102
RTVSPost2010PropOp42
 70
     1
102
RTVSPost2010Prop43
 90
        3
102
RTVSPost2010PropOp43
 70
     1
102
RTVSPost2010Prop44ColorIndex
 90
        5
102
RTVSPost2010Prop44ColorRGB
 90
      255
102
RTVSPost2010PropOp44
 70
     1
102
RTVSPost2010Prop45
280
     0
102
RTVSPost2010PropOp45
 70
     1
102
RTVSPost2010Prop46
 90
       50
102
RTVSPost2010PropOp46
 70
     1
102
RTVSPost2010Prop47
 90
       50
102
RTVSPost2010PropOp47
 70
     1
102
RTVSPost2010Prop48
 90
       50
102
RTVSPost2010PropOp48
 70
     1
102
RTVSPost2010Prop49
280
     0
102
RTVSPost2010PropOp49
 70
     1
102
RTVSPost2010Prop50
 90
       50
102
RTVSPost2010PropOp50
 70
     1
102
RTVSPost2010Prop51ColorIndex
 90
      256
102
RTVSPost2010Prop51ColorRGB
 90
-16777216
102
RTVSPost2010PropOp51
 70
     0
102
RTVSPost2010Prop52
140
1.0
102
RTVSPost2010PropOp52
 70
     0
102
RTVSPost2010Prop53
 90
        2
102
RTVSPost2010PropOp53
 70
     1
102
RTVSPost2010Prop54
  1
strokes_ogs.tif
102
RTVSPost2010PropOp54
 70
     1
102
RTVSPost2010Prop55
280
     0
102
RTVSPost2010PropOp55
 70
     1
102
RTVSPost2010Prop56
140
1.0
102
RTVSPost2010PropOp56
 70
     1
102
RTVSPost2010Prop57
140
1.0
102
RTVSPost2010PropOp57
 70
     1
  0
XRECORD
  5
208
102
{ACAD_REACTORS
330
207
102
}
330
207
100
AcDbXrecord
280
     1
102
RTVSPost2010Prop28
280
     0
102
RTVSPost2010PropOp28
 70
     1
102
RTVSPost2010Prop29
280
     1
102
RTVSPost2010PropOp29
 70
     1
102
RTVSPost2010Prop30
280
     1
102
RTVSPost2010PropOp30
 70
     1
102
RTVSPost2010Prop31
280
     0
102
RTVSPost2010PropOp31
 70
     1
102
RTVSPost2010Prop32
280
     0
102
RTVSPost2010PropOp32
 70
     1
102
RTVSPost2010Prop33
280
     0
102
RTVSPost2010PropOp33
 70
     1
102
RTVSPost2010Prop34
280
     0
102
RTVSPost2010PropOp34
 70
     1
102
RTVSPost2010Prop35
280
     0
102
RTVSPost2010PropOp35
 70
     1
102
RTVSPost2010Prop36
280
     0
102
RTVSPost2010PropOp36
 70
     1
102
RTVSPost2010Prop37
 90
       50
102
RTVSPost2010PropOp37
 70
     1
102
RTVSPost2010Prop38
140
0.0
102
RTVSPost2010PropOp38
 70
     1
102
RTVSPost2010Prop39
140
1.0
102
RTVSPost2010PropOp39
 70
     1
102
RTVSPost2010Prop40
 90
        0
102
RTVSPost2010PropOp40
 70
     1
102
RTVSPost2010Prop41ColorIndex
 90
       18
102
RTVSPost2010Prop41ColorRGB
 90
        0
102
RTVSPost2010PropOp41
 70
     1
102
RTVSPost2010Prop42
 90
       50
102
RTVSPost2010PropOp42
 70
     1
102
RTVSPost2010Prop43
 90
        3
102
RTVSPost2010PropOp43
 70
     1
102
RTVSPost2010Prop44ColorIndex
 90
        5
102
RTVSPost2010Prop44ColorRGB
 90
      255
102
RTVSPost2010PropOp44
 70
     1
102
RTVSPost2010Prop45
280
     0
102
RTVSPost2010PropOp45
 70
     1
102
RTVSPost2010Prop46
 90
       50
102
RTVSPost2010PropOp46
 70
     1
102
RTVSPost2010Prop47
 90
       50
102
RTVSPost2010PropOp47
 70
     1
102
RTVSPost2010Prop48
 90
       50
102
RTVSPost2010PropOp48
 70
     1
102
RTVSPost2010Prop49
280
     0
102
RTVSPost2010PropOp49
 70
     1
102
RTVSPost2010Prop50
 90
       50
102
RTVSPost2010PropOp50
 70
     1
102
RTVSPost2010Prop51ColorIndex
 90
      256
102
RTVSPost2010Prop51ColorRGB
 90
-16777216
102
RTVSPost2010PropOp51
 70
     0
102
RTVSPost2010Prop52
140
1.0
102
RTVSPost2010PropOp52
 70
     0
102
RTVSPost2010Prop53
 90
        2
102
RTVSPost2010PropOp53
 70
     1
102
RTVSPost2010Prop54
  1
strokes_ogs.tif
102
RTVSPost2010PropOp54
 70
     1
102
RTVSPost2010Prop55
280
     0
102
RTVSPost2010PropOp55
 70
     1
102
RTVSPost2010Prop56
140
1.0
102
RTVSPost2010PropOp56
 70
     1
102
RTVSPost2010Prop57
140
1.0
102
RTVSPost2010PropOp57
 70
     1
  0
XRECORD
  5
210
102
{ACAD_REACTORS
330
20F
102
}
330
20F
100
AcDbXrecord
280
     1
102
RTVSPost2010Prop28
280
     0
102
RTVSPost2010PropOp28
 70
     1
102
RTVSPost2010Prop29
280
     1
102
RTVSPost2010PropOp29
 70
     1
102
RTVSPost2010Prop30
280
     1
102
RTVSPost2010PropOp30
 70
     1
102
RTVSPost2010Prop31
280
     0
102
RTVSPost2010PropOp31
 70
     1
102
RTVSPost2010Prop32
280
     0
102
RTVSPost2010PropOp32
 70
     1
102
RTVSPost2010Prop33
280
     0
102
RTVSPost2010PropOp33
 70
     1
102
RTVSPost2010Prop34
280
     0
102
RTVSPost2010PropOp34
 70
     1
102
RTVSPost2010Prop35
280
     0
102
RTVSPost2010PropOp35
 70
     1
102
RTVSPost2010Prop36
280
     0
102
RTVSPost2010PropOp36
 70
     1
102
RTVSPost2010Prop37
 90
       50
102
RTVSPost2010PropOp37
 70
     1
102
RTVSPost2010Prop38
140
0.0
102
RTVSPost2010PropOp38
 70
     1
102
RTVSPost2010Prop39
140
1.0
102
RTVSPost2010PropOp39
 70
     1
102
RTVSPost2010Prop40
 90
        0
102
RTVSPost2010PropOp40
 70
     1
102
RTVSPost2010Prop41ColorIndex
 90
       18
102
RTVSPost2010Prop41ColorRGB
 90
        0
102
RTVSPost2010PropOp41
 70
     1
102
RTVSPost2010Prop42
 90
       50
102
RTVSPost2010PropOp42
 70
     1
102
RTVSPost2010Prop43
 90
        3
102
RTVSPost2010PropOp43
 70
     1
102
RTVSPost2010Prop44ColorIndex
 90
        5
102
RTVSPost2010Prop44ColorRGB
 90
      255
102
RTVSPost2010PropOp44
 70
     1
102
RTVSPost2010Prop45
280
     0
102
RTVSPost2010PropOp45
 70
     1
102
RTVSPost2010Prop46
 90
       50
102
RTVSPost2010PropOp46
 70
     1
102
RTVSPost2010Prop47
 90
       50
102
RTVSPost2010PropOp47
 70
     1
102
RTVSPost2010Prop48
 90
       50
102
RTVSPost2010PropOp48
 70
     1
102
RTVSPost2010Prop49
280
     0
102
RTVSPost2010PropOp49
 70
     1
102
RTVSPost2010Prop50
 90
       50
102
RTVSPost2010PropOp50
 70
     1
102
RTVSPost2010Prop51ColorIndex
 90
      256
102
RTVSPost2010Prop51ColorRGB
 90
-16777216
102
RTVSPost2010PropOp51
 70
     0
102
RTVSPost2010Prop52
140
1.0
102
RTVSPost2010PropOp52
 70
     0
102
RTVSPost2010Prop53
 90
        2
102
RTVSPost2010PropOp53
 70
     1
102
RTVSPost2010Prop54
  1
strokes_ogs.tif
102
RTVSPost2010PropOp54
 70
     1
102
RTVSPost2010Prop55
280
     0
102
RTVSPost2010PropOp55
 70
     1
102
RTVSPost2010Prop56
140
1.0
102
RTVSPost2010PropOp56
 70
     1
102
RTVSPost2010Prop57
140
1.0
102
RTVSPost2010PropOp57
 70
     1
  0
XRECORD
  5
218
102
{ACAD_REACTORS
330
217
102
}
330
217
100
AcDbXrecord
280
     1
102
RTVSPost2010Prop28
280
     0
102
RTVSPost2010PropOp28
 70
     1
102
RTVSPost2010Prop29
280
     1
102
RTVSPost2010PropOp29
 70
     1
102
RTVSPost2010Prop30
280
     1
102
RTVSPost2010PropOp30
 70
     1
102
RTVSPost2010Prop31
280
     0
102
RTVSPost2010PropOp31
 70
     1
102
RTVSPost2010Prop32
280
     0
102
RTVSPost2010PropOp32
 70
     1
102
RTVSPost2010Prop33
280
     0
102
RTVSPost2010PropOp33
 70
     1
102
RTVSPost2010Prop34
280
     0
102
RTVSPost2010PropOp34
 70
     1
102
RTVSPost2010Prop35
280
     0
102
RTVSPost2010PropOp35
 70
     1
102
RTVSPost2010Prop36
280
     0
102
RTVSPost2010PropOp36
 70
     1
102
RTVSPost2010Prop37
 90
       50
102
RTVSPost2010PropOp37
 70
     1
102
RTVSPost2010Prop38
140
0.0
102
RTVSPost2010PropOp38
 70
     1
102
RTVSPost2010Prop39
140
1.0
102
RTVSPost2010PropOp39
 70
     1
102
RTVSPost2010Prop40
 90
        0
102
RTVSPost2010PropOp40
 70
     1
102
RTVSPost2010Prop41ColorIndex
 90
       18
102
RTVSPost2010Prop41ColorRGB
 90
        0
102
RTVSPost2010PropOp41
 70
     1
102
RTVSPost2010Prop42
 90
       50
102
RTVSPost2010PropOp42
 70
     1
102
RTVSPost2010Prop43
 90
        3
102
RTVSPost2010PropOp43
 70
     1
102
RTVSPost2010Prop44ColorIndex
 90
        5
102
RTVSPost2010Prop44ColorRGB
 90
      255
102
RTVSPost2010PropOp44
 70
     1
102
RTVSPost2010Prop45
280
     0
102
RTVSPost2010PropOp45
 70
     1
102
RTVSPost2010Prop46
 90
       50
102
RTVSPost2010PropOp46
 70
     1
102
RTVSPost2010Prop47
 90
       50
102
RTVSPost2010PropOp47
 70
     1
102
RTVSPost2010Prop48
 90
       50
102
RTVSPost2010PropOp48
 70
     1
102
RTVSPost2010Prop49
280
     0
102
RTVSPost2010PropOp49
 70
     1
102
RTVSPost2010Prop50
 90
       50
102
RTVSPost2010PropOp50
 70
     1
102
RTVSPost2010Prop51ColorIndex
 90
      256
102
RTVSPost2010Prop51ColorRGB
 90
-16777216
102
RTVSPost2010PropOp51
 70
     0
102
RTVSPost2010Prop52
140
1.0
102
RTVSPost2010PropOp52
 70
     0
102
RTVSPost2010Prop53
 90
        2
102
RTVSPost2010PropOp53
 70
     1
102
RTVSPost2010Prop54
  1
strokes_ogs.tif
102
RTVSPost2010PropOp54
 70
     1
102
RTVSPost2010Prop55
280
     0
102
RTVSPost2010PropOp55
 70
     1
102
RTVSPost2010Prop56
140
1.0
102
RTVSPost2010PropOp56
 70
     1
102
RTVSPost2010Prop57
140
1.0
102
RTVSPost2010PropOp57
 70
     1
  0
XRECORD
  5
20C
102
{ACAD_REACTORS
330
20B
102
}
330
20B
100
AcDbXrecord
280
     1
102
RTVSPost2010Prop28
280
     0
102
RTVSPost2010PropOp28
 70
     1
102
RTVSPost2010Prop29
280
     1
102
RTVSPost2010PropOp29
 70
     1
102
RTVSPost2010Prop30
280
     1
102
RTVSPost2010PropOp30
 70
     1
102
RTVSPost2010Prop31
280
     0
102
RTVSPost2010PropOp31
 70
     1
102
RTVSPost2010Prop32
280
     0
102
RTVSPost2010PropOp32
 70
     1
102
RTVSPost2010Prop33
280
     0
102
RTVSPost2010PropOp33
 70
     1
102
RTVSPost2010Prop34
280
     0
102
RTVSPost2010PropOp34
 70
     1
102
RTVSPost2010Prop35
280
     0
102
RTVSPost2010PropOp35
 70
     1
102
RTVSPost2010Prop36
280
     0
102
RTVSPost2010PropOp36
 70
     1
102
RTVSPost2010Prop37
 90
       50
102
RTVSPost2010PropOp37
 70
     1
102
RTVSPost2010Prop38
140
0.0
102
RTVSPost2010PropOp38
 70
     1
102
RTVSPost2010Prop39
140
1.0
102
RTVSPost2010PropOp39
 70
     1
102
RTVSPost2010Prop40
 90
        0
102
RTVSPost2010PropOp40
 70
     1
102
RTVSPost2010Prop41ColorIndex
 90
       18
102
RTVSPost2010Prop41ColorRGB
 90
        0
102
RTVSPost2010PropOp41
 70
     1
102
RTVSPost2010Prop42
 90
       50
102
RTVSPost2010PropOp42
 70
     1
102
RTVSPost2010Prop43
 90
        3
102
RTVSPost2010PropOp43
 70
     1
102
RTVSPost2010Prop44ColorIndex
 90
        5
102
RTVSPost2010Prop44ColorRGB
 90
      255
102
RTVSPost2010PropOp44
 70
     1
102
RTVSPost2010Prop45
280
     0
102
RTVSPost2010PropOp45
 70
     1
102
RTVSPost2010Prop46
 90
       50
102
RTVSPost2010PropOp46
 70
     1
102
RTVSPost2010Prop47
 90
       50
102
RTVSPost2010PropOp47
 70
     1
102
RTVSPost2010Prop48
 90
       50
102
RTVSPost2010PropOp48
 70
     1
102
RTVSPost2010Prop49
280
     0
102
RTVSPost2010PropOp49
 70
     1
102
RTVSPost2010Prop50
 90
       50
102
RTVSPost2010PropOp50
 70
     1
102
RTVSPost2010Prop51ColorIndex
 90
      256
102
RTVSPost2010Prop51ColorRGB
 90
-16777216
102
RTVSPost2010PropOp51
 70
     0
102
RTVSPost2010Prop52
140
1.0
102
RTVSPost2010PropOp52
 70
     0
102
RTVSPost2010Prop53
 90
        2
102
RTVSPost2010PropOp53
 70
     1
102
RTVSPost2010Prop54
  1
strokes_ogs.tif
102
RTVSPost2010PropOp54
 70
     1
102
RTVSPost2010Prop55
280
     0
102
RTVSPost2010PropOp55
 70
     1
102
RTVSPost2010Prop56
140
1.0
102
RTVSPost2010PropOp56
 70
     1
102
RTVSPost2010Prop57
140
1.0
102
RTVSPost2010PropOp57
 70
     1
  0
XRECORD
  5
20E
102
{ACAD_REACTORS
330
20D
102
}
330
20D
100
AcDbXrecord
280
     1
102
RTVSPost2010Prop28
280
     0
102
RTVSPost2010PropOp28
 70
     1
102
RTVSPost2010Prop29
280
     1
102
RTVSPost2010PropOp29
 70
     1
102
RTVSPost2010Prop30
280
     1
102
RTVSPost2010PropOp30
 70
     1
102
RTVSPost2010Prop31
280
     0
102
RTVSPost2010PropOp31
 70
     1
102
RTVSPost2010Prop32
280
     0
102
RTVSPost2010PropOp32
 70
     1
102
RTVSPost2010Prop33
280
     0
102
RTVSPost2010PropOp33
 70
     1
102
RTVSPost2010Prop34
280
     0
102
RTVSPost2010PropOp34
 70
     1
102
RTVSPost2010Prop35
280
     0
102
RTVSPost2010PropOp35
 70
     1
102
RTVSPost2010Prop36
280
     0
102
RTVSPost2010PropOp36
 70
     1
102
RTVSPost2010Prop37
 90
       50
102
RTVSPost2010PropOp37
 70
     1
102
RTVSPost2010Prop38
140
0.0
102
RTVSPost2010PropOp38
 70
     1
102
RTVSPost2010Prop39
140
1.0
102
RTVSPost2010PropOp39
 70
     1
102
RTVSPost2010Prop40
 90
        0
102
RTVSPost2010PropOp40
 70
     1
102
RTVSPost2010Prop41ColorIndex
 90
       18
102
RTVSPost2010Prop41ColorRGB
 90
        0
102
RTVSPost2010PropOp41
 70
     1
102
RTVSPost2010Prop42
 90
       50
102
RTVSPost2010PropOp42
 70
     1
102
RTVSPost2010Prop43
 90
        3
102
RTVSPost2010PropOp43
 70
     1
102
RTVSPost2010Prop44ColorIndex
 90
        5
102
RTVSPost2010Prop44ColorRGB
 90
      255
102
RTVSPost2010PropOp44
 70
     1
102
RTVSPost2010Prop45
280
     0
102
RTVSPost2010PropOp45
 70
     1
102
RTVSPost2010Prop46
 90
       50
102
RTVSPost2010PropOp46
 70
     1
102
RTVSPost2010Prop47
 90
       50
102
RTVSPost2010PropOp47
 70
     1
102
RTVSPost2010Prop48
 90
       50
102
RTVSPost2010PropOp48
 70
     1
102
RTVSPost2010Prop49
280
     0
102
RTVSPost2010PropOp49
 70
     1
102
RTVSPost2010Prop50
 90
       50
102
RTVSPost2010PropOp50
 70
     1
102
RTVSPost2010Prop51ColorIndex
 90
      256
102
RTVSPost2010Prop51ColorRGB
 90
-16777216
102
RTVSPost2010PropOp51
 70
     0
102
RTVSPost2010Prop52
140
1.0
102
RTVSPost2010PropOp52
 70
     0
102
RTVSPost2010Prop53
 90
        2
102
RTVSPost2010PropOp53
 70
     1
102
RTVSPost2010Prop54
  1
strokes_ogs.tif
102
RTVSPost2010PropOp54
 70
     1
102
RTVSPost2010Prop55
280
     0
102
RTVSPost2010PropOp55
 70
     1
102
RTVSPost2010Prop56
140
1.0
102
RTVSPost2010PropOp56
 70
     1
102
RTVSPost2010Prop57
140
1.0
102
RTVSPost2010PropOp57
 70
     1
  0
XRECORD
  5
21E
102
{ACAD_REACTORS
330
21D
102
}
330
21D
100
AcDbXrecord
280
     1
102
RTVSPost2010Prop28
280
     0
102
RTVSPost2010PropOp28
 70
     0
102
RTVSPost2010Prop29
280
     1
102
RTVSPost2010PropOp29
 70
     0
102
RTVSPost2010Prop30
280
     1
102
RTVSPost2010PropOp30
 70
     0
102
RTVSPost2010Prop31
280
     0
102
RTVSPost2010PropOp31
 70
     0
102
RTVSPost2010Prop32
280
     0
102
RTVSPost2010PropOp32
 70
     0
102
RTVSPost2010Prop33
280
     0
102
RTVSPost2010PropOp33
 70
     0
102
RTVSPost2010Prop34
280
     0
102
RTVSPost2010PropOp34
 70
     0
102
RTVSPost2010Prop35
280
     0
102
RTVSPost2010PropOp35
 70
     0
102
RTVSPost2010Prop36
280
     0
102
RTVSPost2010PropOp36
 70
     0
102
RTVSPost2010Prop37
 90
       50
102
RTVSPost2010PropOp37
 70
     0
102
RTVSPost2010Prop38
140
0.0
102
RTVSPost2010PropOp38
 70
     0
102
RTVSPost2010Prop39
140
1.0
102
RTVSPost2010PropOp39
 70
     0
102
RTVSPost2010Prop40
 90
        0
102
RTVSPost2010PropOp40
 70
     0
102
RTVSPost2010Prop41ColorIndex
 90
       18
102
RTVSPost2010Prop41ColorRGB
 90
        0
102
RTVSPost2010PropOp41
 70
     0
102
RTVSPost2010Prop42
 90
       50
102
RTVSPost2010PropOp42
 70
     0
102
RTVSPost2010Prop43
 90
        3
102
RTVSPost2010PropOp43
 70
     0
102
RTVSPost2010Prop44ColorIndex
 90
        5
102
RTVSPost2010Prop44ColorRGB
 90
      255
102
RTVSPost2010PropOp44
 70
     0
102
RTVSPost2010Prop45
280
     0
102
RTVSPost2010PropOp45
 70
     0
102
RTVSPost2010Prop46
 90
       50
102
RTVSPost2010PropOp46
 70
     0
102
RTVSPost2010Prop47
 90
       50
102
RTVSPost2010PropOp47
 70
     0
102
RTVSPost2010Prop48
 90
       50
102
RTVSPost2010PropOp48
 70
     0
102
RTVSPost2010Prop49
280
     0
102
RTVSPost2010PropOp49
 70
     0
102
RTVSPost2010Prop50
 90
       50
102
RTVSPost2010PropOp50
 70
     0
102
RTVSPost2010Prop51ColorIndex
 90
      256
102
RTVSPost2010Prop51ColorRGB
 90
-16777216
102
RTVSPost2010PropOp51
 70
     0
102
RTVSPost2010Prop52
140
1.0
102
RTVSPost2010PropOp52
 70
     0
102
RTVSPost2010Prop53
 90
        2
102
RTVSPost2010PropOp53
 70
     0
102
RTVSPost2010Prop54
  1
strokes_ogs.tif
102
RTVSPost2010PropOp54
 70
     0
102
RTVSPost2010Prop55
280
     0
102
RTVSPost2010PropOp55
 70
     0
102
RTVSPost2010Prop56
140
1.0
102
RTVSPost2010PropOp56
 70
     0
102
RTVSPost2010Prop57
140
1.0
102
RTVSPost2010PropOp57
 70
     0
  0
XRECORD
  5
216
102
{ACAD_REACTORS
330
215
102
}
330
215
100
AcDbXrecord
280
     1
102
RTVSPost2010Prop28
280
     0
102
RTVSPost2010PropOp28
 70
     1
102
RTVSPost2010Prop29
280
     1
102
RTVSPost2010PropOp29
 70
     1
102
RTVSPost2010Prop30
280
     1
102
RTVSPost2010PropOp30
 70
     1
102
RTVSPost2010Prop31
280
     0
102
RTVSPost2010PropOp31
 70
     1
102
RTVSPost2010Prop32
280
     0
102
RTVSPost2010PropOp32
 70
     1
102
RTVSPost2010Prop33
280
     0
102
RTVSPost2010PropOp33
 70
     1
102
RTVSPost2010Prop34
280
     0
102
RTVSPost2010PropOp34
 70
     1
102
RTVSPost2010Prop35
280
     0
102
RTVSPost2010PropOp35
 70
     1
102
RTVSPost2010Prop36
280
     0
102
RTVSPost2010PropOp36
 70
     1
102
RTVSPost2010Prop37
 90
       50
102
RTVSPost2010PropOp37
 70
     1
102
RTVSPost2010Prop38
140
0.0
102
RTVSPost2010PropOp38
 70
     1
102
RTVSPost2010Prop39
140
1.0
102
RTVSPost2010PropOp39
 70
     1
102
RTVSPost2010Prop40
 90
        0
102
RTVSPost2010PropOp40
 70
     1
102
RTVSPost2010Prop41ColorIndex
 90
       18
102
RTVSPost2010Prop41ColorRGB
 90
        0
102
RTVSPost2010PropOp41
 70
     1
102
RTVSPost2010Prop42
 90
       50
102
RTVSPost2010PropOp42
 70
     1
102
RTVSPost2010Prop43
 90
        3
102
RTVSPost2010PropOp43
 70
     1
102
RTVSPost2010Prop44ColorIndex
 90
        5
102
RTVSPost2010Prop44ColorRGB
 90
      255
102
RTVSPost2010PropOp44
 70
     1
102
RTVSPost2010Prop45
280
     0
102
RTVSPost2010PropOp45
 70
     1
102
RTVSPost2010Prop46
 90
       50
102
RTVSPost2010PropOp46
 70
     1
102
RTVSPost2010Prop47
 90
       50
102
RTVSPost2010PropOp47
 70
     1
102
RTVSPost2010Prop48
 90
       50
102
RTVSPost2010PropOp48
 70
     1
102
RTVSPost2010Prop49
280
     0
102
RTVSPost2010PropOp49
 70
     1
102
RTVSPost2010Prop50
 90
       50
102
RTVSPost2010PropOp50
 70
     1
102
RTVSPost2010Prop51ColorIndex
 90
      256
102
RTVSPost2010Prop51ColorRGB
 90
-16777216
102
RTVSPost2010PropOp51
 70
     0
102
RTVSPost2010Prop52
140
1.0
102
RTVSPost2010PropOp52
 70
     0
102
RTVSPost2010Prop53
 90
        2
102
RTVSPost2010PropOp53
 70
     1
102
RTVSPost2010Prop54
  1
strokes_ogs.tif
102
RTVSPost2010PropOp54
 70
     1
102
RTVSPost2010Prop55
280
     0
102
RTVSPost2010PropOp55
 70
     1
102
RTVSPost2010Prop56
140
1.0
102
RTVSPost2010PropOp56
 70
     1
102
RTVSPost2010Prop57
140
1.0
102
RTVSPost2010PropOp57
 70
     1
  0
XRECORD
  5
1FA
102
{ACAD_REACTORS
330
1F9
102
}
330
1F9
100
AcDbXrecord
280
     1
102
RTVSPost2010Prop28
280
     0
102
RTVSPost2010PropOp28
 70
     1
102
RTVSPost2010Prop29
280
     1
102
RTVSPost2010PropOp29
 70
     1
102
RTVSPost2010Prop30
280
     1
102
RTVSPost2010PropOp30
 70
     1
102
RTVSPost2010Prop31
280
     0
102
RTVSPost2010PropOp31
 70
     1
102
RTVSPost2010Prop32
280
     0
102
RTVSPost2010PropOp32
 70
     1
102
RTVSPost2010Prop33
280
     0
102
RTVSPost2010PropOp33
 70
     1
102
RTVSPost2010Prop34
280
     0
102
RTVSPost2010PropOp34
 70
     1
102
RTVSPost2010Prop35
280
     0
102
RTVSPost2010PropOp35
 70
     1
102
RTVSPost2010Prop36
280
     0
102
RTVSPost2010PropOp36
 70
     1
102
RTVSPost2010Prop37
 90
       50
102
RTVSPost2010PropOp37
 70
     1
102
RTVSPost2010Prop38
140
0.0
102
RTVSPost2010PropOp38
 70
     1
102
RTVSPost2010Prop39
140
1.0
102
RTVSPost2010PropOp39
 70
     1
102
RTVSPost2010Prop40
 90
        0
102
RTVSPost2010PropOp40
 70
     1
102
RTVSPost2010Prop41ColorIndex
 90
       18
102
RTVSPost2010Prop41ColorRGB
 90
        0
102
RTVSPost2010PropOp41
 70
     1
102
RTVSPost2010Prop42
 90
       50
102
RTVSPost2010PropOp42
 70
     1
102
RTVSPost2010Prop43
 90
        3
102
RTVSPost2010PropOp43
 70
     1
102
RTVSPost2010Prop44ColorIndex
 90
        5
102
RTVSPost2010Prop44ColorRGB
 90
      255
102
RTVSPost2010PropOp44
 70
     1
102
RTVSPost2010Prop45
280
     0
102
RTVSPost2010PropOp45
 70
     1
102
RTVSPost2010Prop46
 90
       50
102
RTVSPost2010PropOp46
 70
     1
102
RTVSPost2010Prop47
 90
       50
102
RTVSPost2010PropOp47
 70
     1
102
RTVSPost2010Prop48
 90
       50
102
RTVSPost2010PropOp48
 70
     1
102
RTVSPost2010Prop49
280
     0
102
RTVSPost2010PropOp49
 70
     1
102
RTVSPost2010Prop50
 90
       50
102
RTVSPost2010PropOp50
 70
     1
102
RTVSPost2010Prop51ColorIndex
 90
      256
102
RTVSPost2010Prop51ColorRGB
 90
-16777216
102
RTVSPost2010PropOp51
 70
     0
102
RTVSPost2010Prop52
140
1.0
102
RTVSPost2010PropOp52
 70
     0
102
RTVSPost2010Prop53
 90
        2
102
RTVSPost2010PropOp53
 70
     1
102
RTVSPost2010Prop54
  1
strokes_ogs.tif
102
RTVSPost2010PropOp54
 70
     1
102
RTVSPost2010Prop55
280
     0
102
RTVSPost2010PropOp55
 70
     1
102
RTVSPost2010Prop56
140
1.0
102
RTVSPost2010PropOp56
 70
     1
102
RTVSPost2010Prop57
140
1.0
102
RTVSPost2010PropOp57
 70
     1
  0
XRECORD
  5
1FC
102
{ACAD_REACTORS
330
1FB
102
}
330
1FB
100
AcDbXrecord
280
     1
102
RTVSPost2010Prop28
280
     0
102
RTVSPost2010PropOp28
 70
     1
102
RTVSPost2010Prop29
280
     1
102
RTVSPost2010PropOp29
 70
     1
102
RTVSPost2010Prop30
280
     1
102
RTVSPost2010PropOp30
 70
     1
102
RTVSPost2010Prop31
280
     0
102
RTVSPost2010PropOp31
 70
     1
102
RTVSPost2010Prop32
280
     0
102
RTVSPost2010PropOp32
 70
     1
102
RTVSPost2010Prop33
280
     0
102
RTVSPost2010PropOp33
 70
     1
102
RTVSPost2010Prop34
280
     0
102
RTVSPost2010PropOp34
 70
     1
102
RTVSPost2010Prop35
280
     0
102
RTVSPost2010PropOp35
 70
     1
102
RTVSPost2010Prop36
280
     0
102
RTVSPost2010PropOp36
 70
     1
102
RTVSPost2010Prop37
 90
       50
102
RTVSPost2010PropOp37
 70
     1
102
RTVSPost2010Prop38
140
0.0
102
RTVSPost2010PropOp38
 70
     1
102
RTVSPost2010Prop39
140
1.0
102
RTVSPost2010PropOp39
 70
     1
102
RTVSPost2010Prop40
 90
        0
102
RTVSPost2010PropOp40
 70
     1
102
RTVSPost2010Prop41ColorIndex
 90
       18
102
RTVSPost2010Prop41ColorRGB
 90
        0
102
RTVSPost2010PropOp41
 70
     1
102
RTVSPost2010Prop42
 90
       50
102
RTVSPost2010PropOp42
 70
     1
102
RTVSPost2010Prop43
 90
        3
102
RTVSPost2010PropOp43
 70
     1
102
RTVSPost2010Prop44ColorIndex
 90
        5
102
RTVSPost2010Prop44ColorRGB
 90
      255
102
RTVSPost2010PropOp44
 70
     1
102
RTVSPost2010Prop45
280
     0
102
RTVSPost2010PropOp45
 70
     1
102
RTVSPost2010Prop46
 90
       50
102
RTVSPost2010PropOp46
 70
     1
102
RTVSPost2010Prop47
 90
       50
102
RTVSPost2010PropOp47
 70
     1
102
RTVSPost2010Prop48
 90
       50
102
RTVSPost2010PropOp48
 70
     1
102
RTVSPost2010Prop49
280
     0
102
RTVSPost2010PropOp49
 70
     1
102
RTVSPost2010Prop50
 90
       50
102
RTVSPost2010PropOp50
 70
     1
102
RTVSPost2010Prop51ColorIndex
 90
      256
102
RTVSPost2010Prop51ColorRGB
 90
-16777216
102
RTVSPost2010PropOp51
 70
     0
102
RTVSPost2010Prop52
140
1.0
102
RTVSPost2010PropOp52
 70
     0
102
RTVSPost2010Prop53
 90
        2
102
RTVSPost2010PropOp53
 70
     1
102
RTVSPost2010Prop54
  1
strokes_ogs.tif
102
RTVSPost2010PropOp54
 70
     1
102
RTVSPost2010Prop55
280
     0
102
RTVSPost2010PropOp55
 70
     1
102
RTVSPost2010Prop56
140
1.0
102
RTVSPost2010PropOp56
 70
     1
102
RTVSPost2010Prop57
140
1.0
102
RTVSPost2010PropOp57
 70
     1
  0
XRECORD
  5
1FE
102
{ACAD_REACTORS
330
1FD
102
}
330
1FD
100
AcDbXrecord
280
     1
102
RTVSPost2010Prop28
280
     0
102
RTVSPost2010PropOp28
 70
     1
102
RTVSPost2010Prop29
280
     1
102
RTVSPost2010PropOp29
 70
     1
102
RTVSPost2010Prop30
280
     1
102
RTVSPost2010PropOp30
 70
     1
102
RTVSPost2010Prop31
280
     0
102
RTVSPost2010PropOp31
 70
     1
102
RTVSPost2010Prop32
280
     0
102
RTVSPost2010PropOp32
 70
     1
102
RTVSPost2010Prop33
280
     0
102
RTVSPost2010PropOp33
 70
     1
102
RTVSPost2010Prop34
280
     0
102
RTVSPost2010PropOp34
 70
     1
102
RTVSPost2010Prop35
280
     0
102
RTVSPost2010PropOp35
 70
     1
102
RTVSPost2010Prop36
280
     0
102
RTVSPost2010PropOp36
 70
     1
102
RTVSPost2010Prop37
 90
       50
102
RTVSPost2010PropOp37
 70
     1
102
RTVSPost2010Prop38
140
0.0
102
RTVSPost2010PropOp38
 70
     1
102
RTVSPost2010Prop39
140
1.0
102
RTVSPost2010PropOp39
 70
     1
102
RTVSPost2010Prop40
 90
        0
102
RTVSPost2010PropOp40
 70
     1
102
RTVSPost2010Prop41ColorIndex
 90
       18
102
RTVSPost2010Prop41ColorRGB
 90
        0
102
RTVSPost2010PropOp41
 70
     1
102
RTVSPost2010Prop42
 90
       50
102
RTVSPost2010PropOp42
 70
     1
102
RTVSPost2010Prop43
 90
        3
102
RTVSPost2010PropOp43
 70
     1
102
RTVSPost2010Prop44ColorIndex
 90
        5
102
RTVSPost2010Prop44ColorRGB
 90
      255
102
RTVSPost2010PropOp44
 70
     1
102
RTVSPost2010Prop45
280
     0
102
RTVSPost2010PropOp45
 70
     1
102
RTVSPost2010Prop46
 90
       50
102
RTVSPost2010PropOp46
 70
     1
102
RTVSPost2010Prop47
 90
       50
102
RTVSPost2010PropOp47
 70
     1
102
RTVSPost2010Prop48
 90
       50
102
RTVSPost2010PropOp48
 70
     1
102
RTVSPost2010Prop49
280
     0
102
RTVSPost2010PropOp49
 70
     1
102
RTVSPost2010Prop50
 90
       50
102
RTVSPost2010PropOp50
 70
     1
102
RTVSPost2010Prop51ColorIndex
 90
      256
102
RTVSPost2010Prop51ColorRGB
 90
-16777216
102
RTVSPost2010PropOp51
 70
     0
102
RTVSPost2010Prop52
140
1.0
102
RTVSPost2010PropOp52
 70
     0
102
RTVSPost2010Prop53
 90
        2
102
RTVSPost2010PropOp53
 70
     1
102
RTVSPost2010Prop54
  1
strokes_ogs.tif
102
RTVSPost2010PropOp54
 70
     1
102
RTVSPost2010Prop55
280
     0
102
RTVSPost2010PropOp55
 70
     1
102
RTVSPost2010Prop56
140
1.0
102
RTVSPost2010PropOp56
 70
     1
102
RTVSPost2010Prop57
140
1.0
102
RTVSPost2010PropOp57
 70
     1
  0
XRECORD
  5
200
102
{ACAD_REACTORS
330
1FF
102
}
330
1FF
100
AcDbXrecord
280
     1
102
RTVSPost2010Prop28
280
     0
102
RTVSPost2010PropOp28
 70
     1
102
RTVSPost2010Prop29
280
     1
102
RTVSPost2010PropOp29
 70
     1
102
RTVSPost2010Prop30
280
     1
102
RTVSPost2010PropOp30
 70
     1
102
RTVSPost2010Prop31
280
     0
102
RTVSPost2010PropOp31
 70
     1
102
RTVSPost2010Prop32
280
     0
102
RTVSPost2010PropOp32
 70
     1
102
RTVSPost2010Prop33
280
     0
102
RTVSPost2010PropOp33
 70
     1
102
RTVSPost2010Prop34
280
     0
102
RTVSPost2010PropOp34
 70
     1
102
RTVSPost2010Prop35
280
     0
102
RTVSPost2010PropOp35
 70
     1
102
RTVSPost2010Prop36
280
     0
102
RTVSPost2010PropOp36
 70
     1
102
RTVSPost2010Prop37
 90
       50
102
RTVSPost2010PropOp37
 70
     1
102
RTVSPost2010Prop38
140
0.0
102
RTVSPost2010PropOp38
 70
     1
102
RTVSPost2010Prop39
140
1.0
102
RTVSPost2010PropOp39
 70
     1
102
RTVSPost2010Prop40
 90
        0
102
RTVSPost2010PropOp40
 70
     1
102
RTVSPost2010Prop41ColorIndex
 90
       18
102
RTVSPost2010Prop41ColorRGB
 90
        0
102
RTVSPost2010PropOp41
 70
     1
102
RTVSPost2010Prop42
 90
       50
102
RTVSPost2010PropOp42
 70
     1
102
RTVSPost2010Prop43
 90
        3
102
RTVSPost2010PropOp43
 70
     1
102
RTVSPost2010Prop44ColorIndex
 90
        5
102
RTVSPost2010Prop44ColorRGB
 90
      255
102
RTVSPost2010PropOp44
 70
     1
102
RTVSPost2010Prop45
280
     0
102
RTVSPost2010PropOp45
 70
     1
102
RTVSPost2010Prop46
 90
       50
102
RTVSPost2010PropOp46
 70
     1
102
RTVSPost2010Prop47
 90
       50
102
RTVSPost2010PropOp47
 70
     1
102
RTVSPost2010Prop48
 90
       50
102
RTVSPost2010PropOp48
 70
     1
102
RTVSPost2010Prop49
280
     0
102
RTVSPost2010PropOp49
 70
     1
102
RTVSPost2010Prop50
 90
       50
102
RTVSPost2010PropOp50
 70
     1
102
RTVSPost2010Prop51ColorIndex
 90
      256
102
RTVSPost2010Prop51ColorRGB
 90
-16777216
102
RTVSPost2010PropOp51
 70
     0
102
RTVSPost2010Prop52
140
1.0
102
RTVSPost2010PropOp52
 70
     0
102
RTVSPost2010Prop53
 90
        2
102
RTVSPost2010PropOp53
 70
     1
102
RTVSPost2010Prop54
  1
strokes_ogs.tif
102
RTVSPost2010PropOp54
 70
     1
102
RTVSPost2010Prop55
280
     0
102
RTVSPost2010PropOp55
 70
     1
102
RTVSPost2010Prop56
140
1.0
102
RTVSPost2010PropOp56
 70
     1
102
RTVSPost2010Prop57
140
1.0
102
RTVSPost2010PropOp57
 70
     1
  0
XRECORD
  5
206
102
{ACAD_REACTORS
330
205
102
}
330
205
100
AcDbXrecord
280
     1
102
RTVSPost2010Prop28
280
     0
102
RTVSPost2010PropOp28
 70
     1
102
RTVSPost2010Prop29
280
     1
102
RTVSPost2010PropOp29
 70
     1
102
RTVSPost2010Prop30
280
     1
102
RTVSPost2010PropOp30
 70
     1
102
RTVSPost2010Prop31
280
     0
102
RTVSPost2010PropOp31
 70
     1
102
RTVSPost2010Prop32
280
     0
102
RTVSPost2010PropOp32
 70
     1
102
RTVSPost2010Prop33
280
     0
102
RTVSPost2010PropOp33
 70
     1
102
RTVSPost2010Prop34
280
     0
102
RTVSPost2010PropOp34
 70
     1
102
RTVSPost2010Prop35
280
     0
102
RTVSPost2010PropOp35
 70
     1
102
RTVSPost2010Prop36
280
     0
102
RTVSPost2010PropOp36
 70
     1
102
RTVSPost2010Prop37
 90
       50
102
RTVSPost2010PropOp37
 70
     1
102
RTVSPost2010Prop38
140
0.0
102
RTVSPost2010PropOp38
 70
     1
102
RTVSPost2010Prop39
140
1.0
102
RTVSPost2010PropOp39
 70
     1
102
RTVSPost2010Prop40
 90
        0
102
RTVSPost2010PropOp40
 70
     1
102
RTVSPost2010Prop41ColorIndex
 90
       18
102
RTVSPost2010Prop41ColorRGB
 90
        0
102
RTVSPost2010PropOp41
 70
     1
102
RTVSPost2010Prop42
 90
       50
102
RTVSPost2010PropOp42
 70
     1
102
RTVSPost2010Prop43
 90
        3
102
RTVSPost2010PropOp43
 70
     1
102
RTVSPost2010Prop44ColorIndex
 90
        5
102
RTVSPost2010Prop44ColorRGB
 90
      255
102
RTVSPost2010PropOp44
 70
     1
102
RTVSPost2010Prop45
280
     0
102
RTVSPost2010PropOp45
 70
     1
102
RTVSPost2010Prop46
 90
       50
102
RTVSPost2010PropOp46
 70
     1
102
RTVSPost2010Prop47
 90
       50
102
RTVSPost2010PropOp47
 70
     1
102
RTVSPost2010Prop48
 90
       50
102
RTVSPost2010PropOp48
 70
     1
102
RTVSPost2010Prop49
280
     0
102
RTVSPost2010PropOp49
 70
     1
102
RTVSPost2010Prop50
 90
       50
102
RTVSPost2010PropOp50
 70
     1
102
RTVSPost2010Prop51ColorIndex
 90
      256
102
RTVSPost2010Prop51ColorRGB
 90
-16777216
102
RTVSPost2010PropOp51
 70
     0
102
RTVSPost2010Prop52
140
1.0
102
RTVSPost2010PropOp52
 70
     0
102
RTVSPost2010Prop53
 90
        2
102
RTVSPost2010PropOp53
 70
     1
102
RTVSPost2010Prop54
  1
strokes_ogs.tif
102
RTVSPost2010PropOp54
 70
     1
102
RTVSPost2010Prop55
280
     0
102
RTVSPost2010PropOp55
 70
     1
102
RTVSPost2010Prop56
140
1.0
102
RTVSPost2010PropOp56
 70
     1
102
RTVSPost2010Prop57
140
1.0
102
RTVSPost2010PropOp57
 70
     1
  0
XRECORD
  5
21A
102
{ACAD_REACTORS
330
219
102
}
330
219
100
AcDbXrecord
280
     1
102
RTVSPost2010Prop28
280
     0
102
RTVSPost2010PropOp28
 70
     0
102
RTVSPost2010Prop29
280
     1
102
RTVSPost2010PropOp29
 70
     0
102
RTVSPost2010Prop30
280
     1
102
RTVSPost2010PropOp30
 70
     0
102
RTVSPost2010Prop31
280
     0
102
RTVSPost2010PropOp31
 70
     0
102
RTVSPost2010Prop32
280
     0
102
RTVSPost2010PropOp32
 70
     0
102
RTVSPost2010Prop33
280
     0
102
RTVSPost2010PropOp33
 70
     0
102
RTVSPost2010Prop34
280
     0
102
RTVSPost2010PropOp34
 70
     0
102
RTVSPost2010Prop35
280
     0
102
RTVSPost2010PropOp35
 70
     0
102
RTVSPost2010Prop36
280
     0
102
RTVSPost2010PropOp36
 70
     0
102
RTVSPost2010Prop37
 90
       50
102
RTVSPost2010PropOp37
 70
     0
102
RTVSPost2010Prop38
140
0.0
102
RTVSPost2010PropOp38
 70
     0
102
RTVSPost2010Prop39
140
1.0
102
RTVSPost2010PropOp39
 70
     0
102
RTVSPost2010Prop40
 90
        0
102
RTVSPost2010PropOp40
 70
     0
102
RTVSPost2010Prop41ColorIndex
 90
       18
102
RTVSPost2010Prop41ColorRGB
 90
        0
102
RTVSPost2010PropOp41
 70
     0
102
RTVSPost2010Prop42
 90
       50
102
RTVSPost2010PropOp42
 70
     0
102
RTVSPost2010Prop43
 90
        3
102
RTVSPost2010PropOp43
 70
     0
102
RTVSPost2010Prop44ColorIndex
 90
        5
102
RTVSPost2010Prop44ColorRGB
 90
      255
102
RTVSPost2010PropOp44
 70
     0
102
RTVSPost2010Prop45
280
     0
102
RTVSPost2010PropOp45
 70
     0
102
RTVSPost2010Prop46
 90
       50
102
RTVSPost2010PropOp46
 70
     0
102
RTVSPost2010Prop47
 90
       50
102
RTVSPost2010PropOp47
 70
     0
102
RTVSPost2010Prop48
 90
       50
102
RTVSPost2010PropOp48
 70
     0
102
RTVSPost2010Prop49
280
     0
102
RTVSPost2010PropOp49
 70
     0
102
RTVSPost2010Prop50
 90
       50
102
RTVSPost2010PropOp50
 70
     0
102
RTVSPost2010Prop51ColorIndex
 90
      256
102
RTVSPost2010Prop51ColorRGB
 90
-16777216
102
RTVSPost2010PropOp51
 70
     0
102
RTVSPost2010Prop52
140
1.0
102
RTVSPost2010PropOp52
 70
     0
102
RTVSPost2010Prop53
 90
        2
102
RTVSPost2010PropOp53
 70
     0
102
RTVSPost2010Prop54
  1
strokes_ogs.tif
102
RTVSPost2010PropOp54
 70
     0
102
RTVSPost2010Prop55
280
     0
102
RTVSPost2010PropOp55
 70
     0
102
RTVSPost2010Prop56
140
1.0
102
RTVSPost2010PropOp56
 70
     0
102
RTVSPost2010Prop57
140
1.0
102
RTVSPost2010PropOp57
 70
     0
  0
XRECORD
  5
214
102
{ACAD_REACTORS
330
213
102
}
330
213
100
AcDbXrecord
280
     1
102
RTVSPost2010Prop28
280
     0
102
RTVSPost2010PropOp28
 70
     1
102
RTVSPost2010Prop29
280
     1
102
RTVSPost2010PropOp29
 70
     1
102
RTVSPost2010Prop30
280
     1
102
RTVSPost2010PropOp30
 70
     1
102
RTVSPost2010Prop31
280
     0
102
RTVSPost2010PropOp31
 70
     1
102
RTVSPost2010Prop32
280
     0
102
RTVSPost2010PropOp32
 70
     1
102
RTVSPost2010Prop33
280
     0
102
RTVSPost2010PropOp33
 70
     1
102
RTVSPost2010Prop34
280
     0
102
RTVSPost2010PropOp34
 70
     1
102
RTVSPost2010Prop35
280
     0
102
RTVSPost2010PropOp35
 70
     1
102
RTVSPost2010Prop36
280
     0
102
RTVSPost2010PropOp36
 70
     1
102
RTVSPost2010Prop37
 90
       50
102
RTVSPost2010PropOp37
 70
     1
102
RTVSPost2010Prop38
140
0.0
102
RTVSPost2010PropOp38
 70
     1
102
RTVSPost2010Prop39
140
1.0
102
RTVSPost2010PropOp39
 70
     1
102
RTVSPost2010Prop40
 90
        0
102
RTVSPost2010PropOp40
 70
     1
102
RTVSPost2010Prop41ColorIndex
 90
       18
102
RTVSPost2010Prop41ColorRGB
 90
        0
102
RTVSPost2010PropOp41
 70
     1
102
RTVSPost2010Prop42
 90
       50
102
RTVSPost2010PropOp42
 70
     1
102
RTVSPost2010Prop43
 90
        3
102
RTVSPost2010PropOp43
 70
     1
102
RTVSPost2010Prop44ColorIndex
 90
        5
102
RTVSPost2010Prop44ColorRGB
 90
      255
102
RTVSPost2010PropOp44
 70
     1
102
RTVSPost2010Prop45
280
     0
102
RTVSPost2010PropOp45
 70
     1
102
RTVSPost2010Prop46
 90
       50
102
RTVSPost2010PropOp46
 70
     1
102
RTVSPost2010Prop47
 90
       50
102
RTVSPost2010PropOp47
 70
     1
102
RTVSPost2010Prop48
 90
       50
102
RTVSPost2010PropOp48
 70
     1
102
RTVSPost2010Prop49
280
     0
102
RTVSPost2010PropOp49
 70
     1
102
RTVSPost2010Prop50
 90
       50
102
RTVSPost2010PropOp50
 70
     1
102
RTVSPost2010Prop51ColorIndex
 90
      256
102
RTVSPost2010Prop51ColorRGB
 90
-16777216
102
RTVSPost2010PropOp51
 70
     0
102
RTVSPost2010Prop52
140
1.0
102
RTVSPost2010PropOp52
 70
     0
102
RTVSPost2010Prop53
 90
        2
102
RTVSPost2010PropOp53
 70
     1
102
RTVSPost2010Prop54
  1
strokes_ogs.tif
102
RTVSPost2010PropOp54
 70
     1
102
RTVSPost2010Prop55
280
     0
102
RTVSPost2010PropOp55
 70
     1
102
RTVSPost2010Prop56
140
1.0
102
RTVSPost2010PropOp56
 70
     1
102
RTVSPost2010Prop57
140
1.0
102
RTVSPost2010PropOp57
 70
     1
  0
XRECORD
  5
21C
102
{ACAD_REACTORS
330
21B
102
}
330
21B
100
AcDbXrecord
280
     1
102
RTVSPost2010Prop28
280
     0
102
RTVSPost2010PropOp28
 70
     0
102
RTVSPost2010Prop29
280
     1
102
RTVSPost2010PropOp29
 70
     0
102
RTVSPost2010Prop30
280
     1
102
RTVSPost2010PropOp30
 70
     0
102
RTVSPost2010Prop31
280
     0
102
RTVSPost2010PropOp31
 70
     0
102
RTVSPost2010Prop32
280
     0
102
RTVSPost2010PropOp32
 70
     0
102
RTVSPost2010Prop33
280
     0
102
RTVSPost2010PropOp33
 70
     0
102
RTVSPost2010Prop34
280
     0
102
RTVSPost2010PropOp34
 70
     0
102
RTVSPost2010Prop35
280
     0
102
RTVSPost2010PropOp35
 70
     0
102
RTVSPost2010Prop36
280
     0
102
RTVSPost2010PropOp36
 70
     0
102
RTVSPost2010Prop37
 90
       50
102
RTVSPost2010PropOp37
 70
     0
102
RTVSPost2010Prop38
140
0.0
102
RTVSPost2010PropOp38
 70
     0
102
RTVSPost2010Prop39
140
1.0
102
RTVSPost2010PropOp39
 70
     0
102
RTVSPost2010Prop40
 90
        0
102
RTVSPost2010PropOp40
 70
     0
102
RTVSPost2010Prop41ColorIndex
 90
       18
102
RTVSPost2010Prop41ColorRGB
 90
        0
102
RTVSPost2010PropOp41
 70
     0
102
RTVSPost2010Prop42
 90
       50
102
RTVSPost2010PropOp42
 70
     0
102
RTVSPost2010Prop43
 90
        3
102
RTVSPost2010PropOp43
 70
     0
102
RTVSPost2010Prop44ColorIndex
 90
        5
102
RTVSPost2010Prop44ColorRGB
 90
      255
102
RTVSPost2010PropOp44
 70
     0
102
RTVSPost2010Prop45
280
     0
102
RTVSPost2010PropOp45
 70
     0
102
RTVSPost2010Prop46
 90
       50
102
RTVSPost2010PropOp46
 70
     0
102
RTVSPost2010Prop47
 90
       50
102
RTVSPost2010PropOp47
 70
     0
102
RTVSPost2010Prop48
 90
       50
102
RTVSPost2010PropOp48
 70
     0
102
RTVSPost2010Prop49
280
     0
102
RTVSPost2010PropOp49
 70
     0
102
RTVSPost2010Prop50
 90
       50
102
RTVSPost2010PropOp50
 70
     0
102
RTVSPost2010Prop51ColorIndex
 90
      256
102
RTVSPost2010Prop51ColorRGB
 90
-16777216
102
RTVSPost2010PropOp51
 70
     0
102
RTVSPost2010Prop52
140
1.0
102
RTVSPost2010PropOp52
 70
     0
102
RTVSPost2010Prop53
 90
        2
102
RTVSPost2010PropOp53
 70
     0
102
RTVSPost2010Prop54
  1
strokes_ogs.tif
102
RTVSPost2010PropOp54
 70
     0
102
RTVSPost2010Prop55
280
     0
102
RTVSPost2010PropOp55
 70
     0
102
RTVSPost2010Prop56
140
1.0
102
RTVSPost2010PropOp56
 70
     0
102
RTVSPost2010Prop57
140
1.0
102
RTVSPost2010PropOp57
 70
     0
  0
XRECORD
  5
20A
102
{ACAD_REACTORS
330
209
102
}
330
209
100
AcDbXrecord
280
     1
102
RTVSPost2010Prop28
280
     0
102
RTVSPost2010PropOp28
 70
     1
102
RTVSPost2010Prop29
280
     1
102
RTVSPost2010PropOp29
 70
     1
102
RTVSPost2010Prop30
280
     1
102
RTVSPost2010PropOp30
 70
     1
102
RTVSPost2010Prop31
280
     0
102
RTVSPost2010PropOp31
 70
     1
102
RTVSPost2010Prop32
280
     0
102
RTVSPost2010PropOp32
 70
     1
102
RTVSPost2010Prop33
280
     0
102
RTVSPost2010PropOp33
 70
     1
102
RTVSPost2010Prop34
280
     0
102
RTVSPost2010PropOp34
 70
     1
102
RTVSPost2010Prop35
280
     0
102
RTVSPost2010PropOp35
 70
     1
102
RTVSPost2010Prop36
280
     0
102
RTVSPost2010PropOp36
 70
     1
102
RTVSPost2010Prop37
 90
       50
102
RTVSPost2010PropOp37
 70
     1
102
RTVSPost2010Prop38
140
0.0
102
RTVSPost2010PropOp38
 70
     1
102
RTVSPost2010Prop39
140
1.0
102
RTVSPost2010PropOp39
 70
     1
102
RTVSPost2010Prop40
 90
        0
102
RTVSPost2010PropOp40
 70
     1
102
RTVSPost2010Prop41ColorIndex
 90
       18
102
RTVSPost2010Prop41ColorRGB
 90
        0
102
RTVSPost2010PropOp41
 70
     1
102
RTVSPost2010Prop42
 90
       50
102
RTVSPost2010PropOp42
 70
     1
102
RTVSPost2010Prop43
 90
        3
102
RTVSPost2010PropOp43
 70
     1
102
RTVSPost2010Prop44ColorIndex
 90
        5
102
RTVSPost2010Prop44ColorRGB
 90
      255
102
RTVSPost2010PropOp44
 70
     1
102
RTVSPost2010Prop45
280
     0
102
RTVSPost2010PropOp45
 70
     1
102
RTVSPost2010Prop46
 90
       50
102
RTVSPost2010PropOp46
 70
     1
102
RTVSPost2010Prop47
 90
       50
102
RTVSPost2010PropOp47
 70
     1
102
RTVSPost2010Prop48
 90
       50
102
RTVSPost2010PropOp48
 70
     1
102
RTVSPost2010Prop49
280
     0
102
RTVSPost2010PropOp49
 70
     1
102
RTVSPost2010Prop50
 90
       50
102
RTVSPost2010PropOp50
 70
     1
102
RTVSPost2010Prop51ColorIndex
 90
      256
102
RTVSPost2010Prop51ColorRGB
 90
-16777216
102
RTVSPost2010PropOp51
 70
     0
102
RTVSPost2010Prop52
140
1.0
102
RTVSPost2010PropOp52
 70
     0
102
RTVSPost2010Prop53
 90
        2
102
RTVSPost2010PropOp53
 70
     1
102
RTVSPost2010Prop54
  1
strokes_ogs.tif
102
RTVSPost2010PropOp54
 70
     1
102
RTVSPost2010Prop55
280
     0
102
RTVSPost2010PropOp55
 70
     1
102
RTVSPost2010Prop56
140
1.0
102
RTVSPost2010PropOp56
 70
     1
102
RTVSPost2010Prop57
140
1.0
102
RTVSPost2010PropOp57
 70
     1
  0
XRECORD
  5
228
102
{ACAD_REACTORS
330
227
102
}
330
227
100
AcDbXrecord
280
     1
102
RTVSPost2010Prop28
280
     0
102
RTVSPost2010PropOp28
 70
     1
102
RTVSPost2010Prop29
280
     1
102
RTVSPost2010PropOp29
 70
     1
102
RTVSPost2010Prop30
280
     1
102
RTVSPost2010PropOp30
 70
     1
102
RTVSPost2010Prop31
280
     0
102
RTVSPost2010PropOp31
 70
     1
102
RTVSPost2010Prop32
280
     0
102
RTVSPost2010PropOp32
 70
     1
102
RTVSPost2010Prop33
280
     0
102
RTVSPost2010PropOp33
 70
     1
102
RTVSPost2010Prop34
280
     0
102
RTVSPost2010PropOp34
 70
     1
102
RTVSPost2010Prop35
280
     0
102
RTVSPost2010PropOp35
 70
     1
102
RTVSPost2010Prop36
280
     0
102
RTVSPost2010PropOp36
 70
     1
102
RTVSPost2010Prop37
 90
       50
102
RTVSPost2010PropOp37
 70
     1
102
RTVSPost2010Prop38
140
0.0
102
RTVSPost2010PropOp38
 70
     1
102
RTVSPost2010Prop39
140
1.0
102
RTVSPost2010PropOp39
 70
     1
102
RTVSPost2010Prop40
 90
        0
102
RTVSPost2010PropOp40
 70
     1
102
RTVSPost2010Prop41ColorIndex
 90
       18
102
RTVSPost2010Prop41ColorRGB
 90
        0
102
RTVSPost2010PropOp41
 70
     1
102
RTVSPost2010Prop42
 90
       50
102
RTVSPost2010PropOp42
 70
     1
102
RTVSPost2010Prop43
 90
        3
102
RTVSPost2010PropOp43
 70
     1
102
RTVSPost2010Prop44ColorIndex
 90
        5
102
RTVSPost2010Prop44ColorRGB
 90
      255
102
RTVSPost2010PropOp44
 70
     1
102
RTVSPost2010Prop45
280
     0
102
RTVSPost2010PropOp45
 70
     1
102
RTVSPost2010Prop46
 90
       50
102
RTVSPost2010PropOp46
 70
     1
102
RTVSPost2010Prop47
 90
       50
102
RTVSPost2010PropOp47
 70
     1
102
RTVSPost2010Prop48
 90
       50
102
RTVSPost2010PropOp48
 70
     1
102
RTVSPost2010Prop49
280
     0
102
RTVSPost2010PropOp49
 70
     1
102
RTVSPost2010Prop50
 90
       50
102
RTVSPost2010PropOp50
 70
     1
102
RTVSPost2010Prop51ColorIndex
 90
      256
102
RTVSPost2010Prop51ColorRGB
 90
-16777216
102
RTVSPost2010PropOp51
 70
     0
102
RTVSPost2010Prop52
140
1.0
102
RTVSPost2010PropOp52
 70
     0
102
RTVSPost2010Prop53
 90
        2
102
RTVSPost2010PropOp53
 70
     1
102
RTVSPost2010Prop54
  1
strokes_ogs.tif
102
RTVSPost2010PropOp54
 70
     1
102
RTVSPost2010Prop55
280
     0
102
RTVSPost2010PropOp55
 70
     1
102
RTVSPost2010Prop56
140
1.0
102
RTVSPost2010PropOp56
 70
     1
102
RTVSPost2010Prop57
140
1.0
102
RTVSPost2010PropOp57
 70
     1
  0
XRECORD
  5
226
102
{ACAD_REACTORS
330
225
102
}
330
225
100
AcDbXrecord
280
     1
102
RTVSPost2010Prop28
280
     0
102
RTVSPost2010PropOp28
 70
     1
102
RTVSPost2010Prop29
280
     1
102
RTVSPost2010PropOp29
 70
     1
102
RTVSPost2010Prop30
280
     1
102
RTVSPost2010PropOp30
 70
     1
102
RTVSPost2010Prop31
280
     0
102
RTVSPost2010PropOp31
 70
     1
102
RTVSPost2010Prop32
280
     0
102
RTVSPost2010PropOp32
 70
     1
102
RTVSPost2010Prop33
280
     0
102
RTVSPost2010PropOp33
 70
     1
102
RTVSPost2010Prop34
280
     0
102
RTVSPost2010PropOp34
 70
     1
102
RTVSPost2010Prop35
280
     0
102
RTVSPost2010PropOp35
 70
     1
102
RTVSPost2010Prop36
280
     0
102
RTVSPost2010PropOp36
 70
     1
102
RTVSPost2010Prop37
 90
       50
102
RTVSPost2010PropOp37
 70
     1
102
RTVSPost2010Prop38
140
0.0
102
RTVSPost2010PropOp38
 70
     1
102
RTVSPost2010Prop39
140
1.0
102
RTVSPost2010PropOp39
 70
     1
102
RTVSPost2010Prop40
 90
        0
102
RTVSPost2010PropOp40
 70
     1
102
RTVSPost2010Prop41ColorIndex
 90
       18
102
RTVSPost2010Prop41ColorRGB
 90
        0
102
RTVSPost2010PropOp41
 70
     1
102
RTVSPost2010Prop42
 90
       50
102
RTVSPost2010PropOp42
 70
     1
102
RTVSPost2010Prop43
 90
        3
102
RTVSPost2010PropOp43
 70
     1
102
RTVSPost2010Prop44ColorIndex
 90
        5
102
RTVSPost2010Prop44ColorRGB
 90
      255
102
RTVSPost2010PropOp44
 70
     1
102
RTVSPost2010Prop45
280
     0
102
RTVSPost2010PropOp45
 70
     1
102
RTVSPost2010Prop46
 90
       50
102
RTVSPost2010PropOp46
 70
     1
102
RTVSPost2010Prop47
 90
       50
102
RTVSPost2010PropOp47
 70
     1
102
RTVSPost2010Prop48
 90
       50
102
RTVSPost2010PropOp48
 70
     1
102
RTVSPost2010Prop49
280
     0
102
RTVSPost2010PropOp49
 70
     1
102
RTVSPost2010Prop50
 90
       50
102
RTVSPost2010PropOp50
 70
     1
102
RTVSPost2010Prop51ColorIndex
 90
      256
102
RTVSPost2010Prop51ColorRGB
 90
-16777216
102
RTVSPost2010PropOp51
 70
     0
102
RTVSPost2010Prop52
140
1.0
102
RTVSPost2010PropOp52
 70
     0
102
RTVSPost2010Prop53
 90
        2
102
RTVSPost2010PropOp53
 70
     1
102
RTVSPost2010Prop54
  1
strokes_ogs.tif
102
RTVSPost2010PropOp54
 70
     1
102
RTVSPost2010Prop55
280
     0
102
RTVSPost2010PropOp55
 70
     1
102
RTVSPost2010Prop56
140
1.0
102
RTVSPost2010PropOp56
 70
     1
102
RTVSPost2010Prop57
140
1.0
102
RTVSPost2010PropOp57
 70
     1
  0
XRECORD
  5
220
102
{ACAD_REACTORS
330
21F
102
}
330
21F
100
AcDbXrecord
280
     1
102
RTVSPost2010Prop28
280
     0
102
RTVSPost2010PropOp28
 70
     1
102
RTVSPost2010Prop29
280
     1
102
RTVSPost2010PropOp29
 70
     1
102
RTVSPost2010Prop30
280
     1
102
RTVSPost2010PropOp30
 70
     1
102
RTVSPost2010Prop31
280
     0
102
RTVSPost2010PropOp31
 70
     1
102
RTVSPost2010Prop32
280
     0
102
RTVSPost2010PropOp32
 70
     1
102
RTVSPost2010Prop33
280
     0
102
RTVSPost2010PropOp33
 70
     1
102
RTVSPost2010Prop34
280
     0
102
RTVSPost2010PropOp34
 70
     1
102
RTVSPost2010Prop35
280
     0
102
RTVSPost2010PropOp35
 70
     1
102
RTVSPost2010Prop36
280
     0
102
RTVSPost2010PropOp36
 70
     1
102
RTVSPost2010Prop37
 90
       50
102
RTVSPost2010PropOp37
 70
     1
102
RTVSPost2010Prop38
140
0.0
102
RTVSPost2010PropOp38
 70
     1
102
RTVSPost2010Prop39
140
1.0
102
RTVSPost2010PropOp39
 70
     1
102
RTVSPost2010Prop40
 90
        0
102
RTVSPost2010PropOp40
 70
     1
102
RTVSPost2010Prop41ColorIndex
 90
       18
102
RTVSPost2010Prop41ColorRGB
 90
        0
102
RTVSPost2010PropOp41
 70
     1
102
RTVSPost2010Prop42
 90
       50
102
RTVSPost2010PropOp42
 70
     1
102
RTVSPost2010Prop43
 90
        3
102
RTVSPost2010PropOp43
 70
     1
102
RTVSPost2010Prop44ColorIndex
 90
        5
102
RTVSPost2010Prop44ColorRGB
 90
      255
102
RTVSPost2010PropOp44
 70
     1
102
RTVSPost2010Prop45
280
     0
102
RTVSPost2010PropOp45
 70
     1
102
RTVSPost2010Prop46
 90
       50
102
RTVSPost2010PropOp46
 70
     1
102
RTVSPost2010Prop47
 90
       50
102
RTVSPost2010PropOp47
 70
     1
102
RTVSPost2010Prop48
 90
       50
102
RTVSPost2010PropOp48
 70
     1
102
RTVSPost2010Prop49
280
     0
102
RTVSPost2010PropOp49
 70
     1
102
RTVSPost2010Prop50
 90
       50
102
RTVSPost2010PropOp50
 70
     1
102
RTVSPost2010Prop51ColorIndex
 90
      256
102
RTVSPost2010Prop51ColorRGB
 90
-16777216
102
RTVSPost2010PropOp51
 70
     0
102
RTVSPost2010Prop52
140
1.0
102
RTVSPost2010PropOp52
 70
     0
102
RTVSPost2010Prop53
 90
        2
102
RTVSPost2010PropOp53
 70
     1
102
RTVSPost2010Prop54
  1
strokes_ogs.tif
102
RTVSPost2010PropOp54
 70
     1
102
RTVSPost2010Prop55
280
     0
102
RTVSPost2010PropOp55
 70
     1
102
RTVSPost2010Prop56
140
1.0
102
RTVSPost2010PropOp56
 70
     1
102
RTVSPost2010Prop57
140
1.0
102
RTVSPost2010PropOp57
 70
     1
  0
XRECORD
  5
222
102
{ACAD_REACTORS
330
221
102
}
330
221
100
AcDbXrecord
280
     1
102
RTVSPost2010Prop28
280
     0
102
RTVSPost2010PropOp28
 70
     1
102
RTVSPost2010Prop29
280
     1
102
RTVSPost2010PropOp29
 70
     1
102
RTVSPost2010Prop30
280
     1
102
RTVSPost2010PropOp30
 70
     1
102
RTVSPost2010Prop31
280
     0
102
RTVSPost2010PropOp31
 70
     1
102
RTVSPost2010Prop32
280
     0
102
RTVSPost2010PropOp32
 70
     1
102
RTVSPost2010Prop33
280
     0
102
RTVSPost2010PropOp33
 70
     1
102
RTVSPost2010Prop34
280
     0
102
RTVSPost2010PropOp34
 70
     1
102
RTVSPost2010Prop35
280
     0
102
RTVSPost2010PropOp35
 70
     1
102
RTVSPost2010Prop36
280
     0
102
RTVSPost2010PropOp36
 70
     1
102
RTVSPost2010Prop37
 90
       50
102
RTVSPost2010PropOp37
 70
     1
102
RTVSPost2010Prop38
140
0.0
102
RTVSPost2010PropOp38
 70
     1
102
RTVSPost2010Prop39
140
1.0
102
RTVSPost2010PropOp39
 70
     1
102
RTVSPost2010Prop40
 90
        0
102
RTVSPost2010PropOp40
 70
     1
102
RTVSPost2010Prop41ColorIndex
 90
       18
102
RTVSPost2010Prop41ColorRGB
 90
        0
102
RTVSPost2010PropOp41
 70
     1
102
RTVSPost2010Prop42
 90
       50
102
RTVSPost2010PropOp42
 70
     1
102
RTVSPost2010Prop43
 90
        3
102
RTVSPost2010PropOp43
 70
     1
102
RTVSPost2010Prop44ColorIndex
 90
        5
102
RTVSPost2010Prop44ColorRGB
 90
      255
102
RTVSPost2010PropOp44
 70
     1
102
RTVSPost2010Prop45
280
     0
102
RTVSPost2010PropOp45
 70
     1
102
RTVSPost2010Prop46
 90
       50
102
RTVSPost2010PropOp46
 70
     1
102
RTVSPost2010Prop47
 90
       50
102
RTVSPost2010PropOp47
 70
     1
102
RTVSPost2010Prop48
 90
       50
102
RTVSPost2010PropOp48
 70
     1
102
RTVSPost2010Prop49
280
     0
102
RTVSPost2010PropOp49
 70
     1
102
RTVSPost2010Prop50
 90
       50
102
RTVSPost2010PropOp50
 70
     1
102
RTVSPost2010Prop51ColorIndex
 90
      256
102
RTVSPost2010Prop51ColorRGB
 90
-16777216
102
RTVSPost2010PropOp51
 70
     0
102
RTVSPost2010Prop52
140
1.0
102
RTVSPost2010PropOp52
 70
     0
102
RTVSPost2010Prop53
 90
        2
102
RTVSPost2010PropOp53
 70
     1
102
RTVSPost2010Prop54
  1
strokes_ogs.tif
102
RTVSPost2010PropOp54
 70
     1
102
RTVSPost2010Prop55
280
     0
102
RTVSPost2010PropOp55
 70
     1
102
RTVSPost2010Prop56
140
1.0
102
RTVSPost2010PropOp56
 70
     1
102
RTVSPost2010Prop57
140
1.0
102
RTVSPost2010PropOp57
 70
     1
  0
XRECORD
  5
212
102
{ACAD_REACTORS
330
211
102
}
330
211
100
AcDbXrecord
280
     1
102
RTVSPost2010Prop28
280
     0
102
RTVSPost2010PropOp28
 70
     1
102
RTVSPost2010Prop29
280
     1
102
RTVSPost2010PropOp29
 70
     1
102
RTVSPost2010Prop30
280
     1
102
RTVSPost2010PropOp30
 70
     1
102
RTVSPost2010Prop31
280
     0
102
RTVSPost2010PropOp31
 70
     1
102
RTVSPost2010Prop32
280
     0
102
RTVSPost2010PropOp32
 70
     1
102
RTVSPost2010Prop33
280
     0
102
RTVSPost2010PropOp33
 70
     1
102
RTVSPost2010Prop34
280
     0
102
RTVSPost2010PropOp34
 70
     1
102
RTVSPost2010Prop35
280
     0
102
RTVSPost2010PropOp35
 70
     1
102
RTVSPost2010Prop36
280
     0
102
RTVSPost2010PropOp36
 70
     1
102
RTVSPost2010Prop37
 90
       50
102
RTVSPost2010PropOp37
 70
     1
102
RTVSPost2010Prop38
140
0.0
102
RTVSPost2010PropOp38
 70
     1
102
RTVSPost2010Prop39
140
1.0
102
RTVSPost2010PropOp39
 70
     1
102
RTVSPost2010Prop40
 90
        0
102
RTVSPost2010PropOp40
 70
     1
102
RTVSPost2010Prop41ColorIndex
 90
       18
102
RTVSPost2010Prop41ColorRGB
 90
        0
102
RTVSPost2010PropOp41
 70
     1
102
RTVSPost2010Prop42
 90
       50
102
RTVSPost2010PropOp42
 70
     1
102
RTVSPost2010Prop43
 90
        3
102
RTVSPost2010PropOp43
 70
     1
102
RTVSPost2010Prop44ColorIndex
 90
        5
102
RTVSPost2010Prop44ColorRGB
 90
      255
102
RTVSPost2010PropOp44
 70
     1
102
RTVSPost2010Prop45
280
     0
102
RTVSPost2010PropOp45
 70
     1
102
RTVSPost2010Prop46
 90
       50
102
RTVSPost2010PropOp46
 70
     1
102
RTVSPost2010Prop47
 90
       50
102
RTVSPost2010PropOp47
 70
     1
102
RTVSPost2010Prop48
 90
       50
102
RTVSPost2010PropOp48
 70
     1
102
RTVSPost2010Prop49
280
     0
102
RTVSPost2010PropOp49
 70
     1
102
RTVSPost2010Prop50
 90
       50
102
RTVSPost2010PropOp50
 70
     1
102
RTVSPost2010Prop51ColorIndex
 90
      256
102
RTVSPost2010Prop51ColorRGB
 90
-16777216
102
RTVSPost2010PropOp51
 70
     0
102
RTVSPost2010Prop52
140
1.0
102
RTVSPost2010PropOp52
 70
     0
102
RTVSPost2010Prop53
 90
        2
102
RTVSPost2010PropOp53
 70
     1
102
RTVSPost2010Prop54
  1
strokes_ogs.tif
102
RTVSPost2010PropOp54
 70
     1
102
RTVSPost2010Prop55
280
     0
102
RTVSPost2010PropOp55
 70
     1
102
RTVSPost2010Prop56
140
1.0
102
RTVSPost2010PropOp56
 70
     1
102
RTVSPost2010Prop57
140
1.0
102
RTVSPost2010PropOp57
 70
     1
  0
XRECORD
  5
204
102
{ACAD_REACTORS
330
203
102
}
330
203
100
AcDbXrecord
280
     1
102
RTVSPost2010Prop28
280
     0
102
RTVSPost2010PropOp28
 70
     1
102
RTVSPost2010Prop29
280
     1
102
RTVSPost2010PropOp29
 70
     1
102
RTVSPost2010Prop30
280
     1
102
RTVSPost2010PropOp30
 70
     1
102
RTVSPost2010Prop31
280
     0
102
RTVSPost2010PropOp31
 70
     1
102
RTVSPost2010Prop32
280
     0
102
RTVSPost2010PropOp32
 70
     1
102
RTVSPost2010Prop33
280
     0
102
RTVSPost2010PropOp33
 70
     1
102
RTVSPost2010Prop34
280
     0
102
RTVSPost2010PropOp34
 70
     1
102
RTVSPost2010Prop35
280
     0
102
RTVSPost2010PropOp35
 70
     1
102
RTVSPost2010Prop36
280
     0
102
RTVSPost2010PropOp36
 70
     1
102
RTVSPost2010Prop37
 90
       50
102
RTVSPost2010PropOp37
 70
     1
102
RTVSPost2010Prop38
140
0.0
102
RTVSPost2010PropOp38
 70
     1
102
RTVSPost2010Prop39
140
1.0
102
RTVSPost2010PropOp39
 70
     1
102
RTVSPost2010Prop40
 90
        0
102
RTVSPost2010PropOp40
 70
     1
102
RTVSPost2010Prop41ColorIndex
 90
       18
102
RTVSPost2010Prop41ColorRGB
 90
        0
102
RTVSPost2010PropOp41
 70
     1
102
RTVSPost2010Prop42
 90
       50
102
RTVSPost2010PropOp42
 70
     1
102
RTVSPost2010Prop43
 90
        3
102
RTVSPost2010PropOp43
 70
     1
102
RTVSPost2010Prop44ColorIndex
 90
        5
102
RTVSPost2010Prop44ColorRGB
 90
      255
102
RTVSPost2010PropOp44
 70
     1
102
RTVSPost2010Prop45
280
     0
102
RTVSPost2010PropOp45
 70
     1
102
RTVSPost2010Prop46
 90
       50
102
RTVSPost2010PropOp46
 70
     1
102
RTVSPost2010Prop47
 90
       50
102
RTVSPost2010PropOp47
 70
     1
102
RTVSPost2010Prop48
 90
       50
102
RTVSPost2010PropOp48
 70
     1
102
RTVSPost2010Prop49
280
     0
102
RTVSPost2010PropOp49
 70
     1
102
RTVSPost2010Prop50
 90
       50
102
RTVSPost2010PropOp50
 70
     1
102
RTVSPost2010Prop51ColorIndex
 90
      256
102
RTVSPost2010Prop51ColorRGB
 90
-16777216
102
RTVSPost2010PropOp51
 70
     0
102
RTVSPost2010Prop52
140
1.0
102
RTVSPost2010PropOp52
 70
     0
102
RTVSPost2010Prop53
 90
        2
102
RTVSPost2010PropOp53
 70
     1
102
RTVSPost2010Prop54
  1
strokes_ogs.tif
102
RTVSPost2010PropOp54
 70
     1
102
RTVSPost2010Prop55
280
     0
102
RTVSPost2010PropOp55
 70
     1
102
RTVSPost2010Prop56
140
1.0
102
RTVSPost2010PropOp56
 70
     1
102
RTVSPost2010Prop57
140
1.0
102
RTVSPost2010PropOp57
 70
     1
  0
XRECORD
  5
224
102
{ACAD_REACTORS
330
223
102
}
330
223
100
AcDbXrecord
280
     1
102
RTVSPost2010Prop28
280
     0
102
RTVSPost2010PropOp28
 70
     1
102
RTVSPost2010Prop29
280
     1
102
RTVSPost2010PropOp29
 70
     1
102
RTVSPost2010Prop30
280
     1
102
RTVSPost2010PropOp30
 70
     1
102
RTVSPost2010Prop31
280
     0
102
RTVSPost2010PropOp31
 70
     1
102
RTVSPost2010Prop32
280
     0
102
RTVSPost2010PropOp32
 70
     1
102
RTVSPost2010Prop33
280
     0
102
RTVSPost2010PropOp33
 70
     1
102
RTVSPost2010Prop34
280
     0
102
RTVSPost2010PropOp34
 70
     1
102
RTVSPost2010Prop35
280
     0
102
RTVSPost2010PropOp35
 70
     1
102
RTVSPost2010Prop36
280
     0
102
RTVSPost2010PropOp36
 70
     1
102
RTVSPost2010Prop37
 90
       50
102
RTVSPost2010PropOp37
 70
     1
102
RTVSPost2010Prop38
140
0.0
102
RTVSPost2010PropOp38
 70
     1
102
RTVSPost2010Prop39
140
1.0
102
RTVSPost2010PropOp39
 70
     1
102
RTVSPost2010Prop40
 90
        0
102
RTVSPost2010PropOp40
 70
     1
102
RTVSPost2010Prop41ColorIndex
 90
       18
102
RTVSPost2010Prop41ColorRGB
 90
        0
102
RTVSPost2010PropOp41
 70
     1
102
RTVSPost2010Prop42
 90
       50
102
RTVSPost2010PropOp42
 70
     1
102
RTVSPost2010Prop43
 90
        3
102
RTVSPost2010PropOp43
 70
     1
102
RTVSPost2010Prop44ColorIndex
 90
        5
102
RTVSPost2010Prop44ColorRGB
 90
      255
102
RTVSPost2010PropOp44
 70
     1
102
RTVSPost2010Prop45
280
     0
102
RTVSPost2010PropOp45
 70
     1
102
RTVSPost2010Prop46
 90
       50
102
RTVSPost2010PropOp46
 70
     1
102
RTVSPost2010Prop47
 90
       50
102
RTVSPost2010PropOp47
 70
     1
102
RTVSPost2010Prop48
 90
       50
102
RTVSPost2010PropOp48
 70
     1
102
RTVSPost2010Prop49
280
     0
102
RTVSPost2010PropOp49
 70
     1
102
RTVSPost2010Prop50
 90
       50
102
RTVSPost2010PropOp50
 70
     1
102
RTVSPost2010Prop51ColorIndex
 90
      256
102
RTVSPost2010Prop51ColorRGB
 90
-16777216
102
RTVSPost2010PropOp51
 70
     0
102
RTVSPost2010Prop52
140
1.0
102
RTVSPost2010PropOp52
 70
     0
102
RTVSPost2010Prop53
 90
        2
102
RTVSPost2010PropOp53
 70
     1
102
RTVSPost2010Prop54
  1
strokes_ogs.tif
102
RTVSPost2010PropOp54
 70
     1
102
RTVSPost2010Prop55
280
     0
102
RTVSPost2010PropOp55
 70
     1
102
RTVSPost2010Prop56
140
1.0
102
RTVSPost2010PropOp56
 70
     1
102
RTVSPost2010Prop57
140
1.0
102
RTVSPost2010PropOp57
 70
     1
  0
ENDSEC
  0
EOF
